osu file format v14

[General]
AudioFilename: audio.mp3
AudioLeadIn: 0
PreviewTime: 86843
Countdown: 0
SampleSet: Normal
StackLeniency: 1
Mode: 2
LetterboxInBreaks: 0
WidescreenStoryboard: 1

[Editor]
Bookmarks: 11993,21593,40793,96504,115704
DistanceSpacing: 0.1
BeatDivisor: 4
GridSize: 4
TimelineZoom: 2.6

[Metadata]
Title:Mei
TitleUnicode:冥
Artist:Amuro vs. Killer
ArtistUnicode:Amuro vs. Killer
Creator:Spectator
Version:Connor's Overdose
Source:beatmania IIDX 12 HAPPY SKY
Tags:dika312 Stardust Prism Lacrima Myle wwwww Connor Electronic Instrumental Video Game HUMAN SEQUENCER ddr DanceDanceRevolution X2 Toy'sMarch2 toys Toy's March 2 dance revolution 2dx BEMANI Konami Takayuki Ishikawa 石川貴之 Tatsuya Shimizu 清水達也 D.J.Amuro 安室 皆伝 dj TAKA Tatsh TAKASH rhythm 冥王星 PLUTO STORY
BeatmapID:4532917
BeatmapSetID:2144786

[Difficulty]
HPDrainRate:5
CircleSize:4.8
OverallDifficulty:8
ApproachRate:8
SliderMultiplier:2
SliderTickRate:2

[Events]
//Background and Video events
0,0,"bg.jpg",0,0
//Break Periods
2,60186,68836
//Storyboard Layer 0 (Background)
//Storyboard Layer 1 (Fail)
//Storyboard Layer 2 (Pass)
//Storyboard Layer 3 (Foreground)
//Storyboard Layer 4 (Overlay)
//Storyboard Sound Samples

[TimingPoints]
2386,300,4,2,1,30,1,0
2386,-50,4,2,1,20,0,0
9886,-50,4,2,1,20,0,0
10186,-50,4,2,1,30,0,0
10486,-50,4,2,1,20,0,0
11986,-50,4,1,6,30,0,0
20386,-50,4,1,1,15,0,0
20686,-50,4,1,1,25,0,0
20986,-50,4,1,1,40,0,0
21286,-50,4,1,1,50,0,0
21436,-50,4,1,1,30,0,0
21586,-50,4,1,27,45,0,0
21661,-50,4,1,7,45,0,0
31186,-50,4,1,27,45,0,0
31261,-50,4,1,7,45,0,0
40786,-50,4,1,1,50,0,1
59986,600,4,1,1,30,1,0
59986,-50,4,1,1,30,0,0
69586,545.454545454546,4,1,8,40,1,0
71767,500,4,1,8,50,1,0
71767,-90.9090909090909,4,1,8,50,0,0
73767,461.538461538462,4,1,8,50,1,0
73767,-83.3333333333333,4,1,8,50,0,0
75613,428.571428571429,4,1,8,40,1,0
75613,-66.6666666666667,4,1,8,40,0,0
77327,400,4,1,8,50,1,0
77327,-66.6666666666667,4,1,8,50,0,0
78927,375,4,1,8,50,1,0
78927,-66.6666666666667,4,1,8,50,0,0
80427,352.941176470588,4,1,1,60,1,0
81838,333.333333333333,4,1,1,70,1,0
83171,315.789473684211,4,1,1,60,1,0
84434,300,4,1,1,50,1,0
85034,-50,4,1,1,45,0,0
85634,315.789473684211,4,1,1,40,1,0
85634,-50,4,2,1,40,0,0
85673,-50,4,2,1,5,0,0
85712,-50,4,2,1,37,0,0
85751,-50,4,2,1,5,0,0
85791,-50,4,2,1,35,0,0
85830,-50,4,2,1,5,0,0
85870,-50,4,2,1,32,0,0
85909,-50,4,2,1,5,0,0
85949,-50,4,2,1,30,0,0
85988,-50,4,2,1,5,0,0
86028,-50,4,2,1,32,0,0
86067,-50,4,2,1,5,0,0
86107,-50,4,2,1,35,0,0
86146,-50,4,2,1,5,0,0
86186,-50,4,2,1,37,0,0
86225,-50,4,2,1,5,0,0
86265,-50,4,2,1,40,0,0
86304,-50,4,2,1,5,0,0
86344,-50,4,2,1,42,0,0
86383,-50,4,2,1,5,0,0
86423,-50,4,2,1,45,0,0
86462,-50,4,2,1,5,0,0
86502,-50,4,2,1,47,0,0
86541,-50,4,2,1,5,0,0
86581,-50,4,2,1,50,0,0
86620,-50,4,2,1,5,0,0
86660,-50,4,2,1,52,0,0
86699,-50,4,2,1,5,0,0
86739,-50,4,2,1,55,0,0
86778,-50,4,2,1,5,0,0
86818,-50,4,2,1,57,0,0
86857,-50,4,2,1,5,0,0
86897,300,4,1,27,60,1,1
86897,-47.6190476190476,4,1,27,60,0,1
87047,-50,4,1,1,60,0,1
96347,-50,4,1,1,60,0,0
96497,-50,4,1,27,60,0,1
96572,-50,4,1,1,60,0,1
97097,-50,4,1,32,60,0,1
97397,-50,4,1,33,60,0,1
97547,-50,4,1,32,60,0,1
97697,-50,4,1,1,60,0,1
98297,-50,4,1,32,60,0,1
98597,-50,4,1,33,60,0,1
98747,-50,4,1,32,60,0,1
98897,-50,4,1,1,60,0,1
99497,-50,4,1,32,60,0,1
99797,-50,4,1,33,60,0,1
99947,-50,4,1,32,60,0,1
100097,-50,4,1,1,60,0,1
100697,-47.6190476190476,4,1,32,60,0,1
100997,-50,4,1,33,60,0,1
101147,-50,4,1,32,60,0,1
101297,-50,4,1,1,60,0,1
105797,-50,4,1,1,60,0,0
106097,-50,4,1,27,60,0,1
106172,-50,4,1,1,60,0,1
115697,-50,4,1,1,50,0,0
115847,-50,4,2,1,50,0,0
119747,333.333333333333,4,2,1,50,1,0
120247,342.857142857143,4,2,1,50,1,0
120589,-50,4,2,1,40,0,0
121961,363.636363636364,4,2,1,40,1,0
122688,428.571428571429,4,2,1,40,1,0
123223,600,4,2,1,40,1,0
123673,545.454545454546,4,2,1,40,1,0
124218,666.666666666667,4,2,1,40,1,0
124884,909.090909090909,4,2,1,40,1,0
126020,-50,4,2,1,5,0,0

[Colours]
Combo1 : 80,197,235
Combo2 : 207,207,207
Combo3 : 109,151,192
Combo4 : 140,236,236

[HitObjects]
256,192,2386,5,2,0:0:0:0:
312,192,2461,1,0,0:0:0:0:
256,192,2536,1,0,0:0:0:0:
256,192,2573,1,0,0:0:0:0:
256,192,2611,1,0,0:0:0:0:
256,192,2648,1,0,0:0:0:0:
256,192,2686,1,0,1:0:0:0:
376,16,2836,6,0,L|96:320,1,400,0|0,1:0|2:0,0:0:0:0:
256,32,3286,2,0,L|40:384,1,400,0|0,1:0|0:0,0:0:0:0:
104,8,3736,6,0,B|40:368|40:368|32:296,1,400
112,328,4186,1,0,0:0:0:0:
32,336,4486,1,0,0:0:0:0:
80,320,4561,1,0,0:0:0:0:
128,296,4636,1,0,0:0:0:0:
248,200,4786,5,2,0:0:0:0:
248,152,4861,1,0,0:0:0:0:
288,120,4936,1,0,0:0:0:0:
288,80,4973,1,0,0:0:0:0:
288,40,5011,1,0,0:0:0:0:
200,40,5086,1,0,0:0:0:0:
200,104,5161,1,0,0:0:0:0:
248,40,5236,5,2,0:0:0:0:
248,64,5273,1,0,0:0:0:0:
248,104,5311,1,0,0:0:0:0:
152,192,5386,1,0,0:0:0:0:
152,80,5461,1,0,0:0:0:0:
104,192,5536,1,0,0:0:0:0:
104,160,5573,1,0,0:0:0:0:
104,128,5611,1,0,0:0:0:0:
152,192,5686,5,2,0:0:0:0:
152,136,5761,1,0,0:0:0:0:
104,192,5836,1,0,0:0:0:0:
104,112,5911,1,0,0:0:0:0:
200,104,5986,5,0,0:0:0:0:
96,192,6886,1,0,0:0:0:0:
64,192,6961,1,0,0:0:0:0:
32,192,7036,1,0,0:0:0:0:
32,192,7073,1,0,0:0:0:0:
32,192,7111,1,0,0:0:0:0:
144,192,7186,5,2,0:0:0:0:
200,192,7261,1,0,0:0:0:0:
144,192,7336,1,0,0:0:0:0:
144,192,7373,1,0,0:0:0:0:
144,192,7411,1,0,0:0:0:0:
144,192,7448,1,0,0:0:0:0:
144,192,7486,1,0,1:0:0:0:
16,24,7636,6,0,L|296:328,1,400,0|0,1:0|0:0,0:0:0:0:
136,40,8086,2,0,L|352:392,1,400,0|0,1:0|0:0,0:0:0:0:
288,16,8536,6,0,B|352:376|352:376|352:324,1,400
252,340,8986,1,0,0:0:0:0:
355,341,9286,1,0,0:0:0:0:
400,336,9361,1,0,0:0:0:0:
440,328,9436,1,0,0:0:0:0:
320,208,9586,5,2,0:0:0:0:
320,184,9623,1,0,0:0:0:0:
320,152,9661,1,0,0:0:0:0:
360,128,9736,1,0,0:0:0:0:
360,88,9773,1,0,0:0:0:0:
360,48,9811,1,0,0:0:0:0:
312,48,9886,1,0,1:0:0:0:
472,48,10036,1,0,1:0:0:0:
480,48,10186,1,0,0:0:0:0:
312,48,10336,1,0,2:0:0:0:
160,48,10486,1,0,1:0:0:0:
264,48,10636,1,0,0:0:0:0:
160,48,10786,5,0,0:0:0:0:
208,192,11686,1,0,0:0:0:0:
208,192,11761,1,0,0:0:0:0:
208,192,11836,1,0,0:0:0:0:
336,304,11986,6,0,B|216:144|216:144|352:328,1,400,2|8,0:0|0:0,0:0:0:0:
168,304,12436,1,0,0:0:0:0:
248,312,12511,1,0,0:0:0:0:
328,304,12586,1,0,0:0:0:0:
344,272,12661,1,0,0:0:0:0:
328,240,12736,1,0,0:0:0:0:
152,256,12886,1,8,0:0:0:0:
224,256,12961,1,0,0:0:0:0:
296,256,13036,1,0,0:0:0:0:
304,224,13111,1,0,0:0:0:0:
296,192,13186,5,2,0:0:0:0:
216,184,13336,1,0,0:0:0:0:
352,184,13486,1,8,0:0:0:0:
296,144,13636,1,0,0:0:0:0:
296,88,13711,1,0,0:0:0:0:
344,88,13786,1,0,0:0:0:0:
168,112,13936,1,0,0:0:0:0:
64,112,14086,1,8,0:0:0:0:
48,112,14161,1,0,0:0:0:0:
64,112,14236,1,0,0:0:0:0:
208,112,14386,5,2,0:0:0:0:
280,112,14536,1,0,0:0:0:0:
208,112,14686,1,8,0:0:0:0:
392,184,14836,1,0,0:0:0:0:
328,184,14911,1,0,0:0:0:0:
264,184,14986,1,0,0:0:0:0:
200,184,15061,1,0,0:0:0:0:
136,184,15136,1,0,0:0:0:0:
312,184,15286,1,8,0:0:0:0:
264,184,15361,1,0,0:0:0:0:
216,184,15436,1,0,0:0:0:0:
112,184,15586,5,8,0:0:0:0:
200,160,15736,1,0,0:0:0:0:
152,160,15811,1,0,0:0:0:0:
64,160,15886,1,8,0:0:0:0:
160,216,16036,1,0,0:0:0:0:
208,216,16111,1,0,0:0:0:0:
296,216,16186,5,8,0:0:0:0:
248,216,16261,1,0,0:0:0:0:
296,216,16336,1,0,0:0:0:0:
192,136,16486,1,8,0:0:0:0:
248,136,16561,1,0,0:0:0:0:
304,136,16636,1,0,0:0:0:0:
360,136,16711,1,0,0:0:0:0:
440,136,16786,5,2,0:0:0:0:
440,136,16823,1,0,2:0:0:0:
440,136,16861,1,0,2:0:0:0:
400,136,16936,1,0,1:0:0:0:
360,136,16973,1,0,2:0:0:0:
360,136,17011,1,0,2:0:0:0:
360,136,17048,1,0,2:0:0:0:
360,136,17086,1,8,0:0:0:0:
224,16,17236,6,0,L|496:328,1,400
360,312,17686,1,8,0:0:0:0:
360,248,17761,1,0,0:0:0:0:
444,224,17836,1,0,0:0:0:0:
396,224,17911,1,0,0:0:0:0:
444,224,17986,5,2,0:0:0:0:
360,216,18136,1,0,0:0:0:0:
200,224,18286,1,8,0:0:0:0:
272,192,18436,1,0,0:0:0:0:
188,192,18511,1,0,0:0:0:0:
188,192,18586,1,8,0:0:0:0:
188,192,18661,5,0,0:0:0:0:
272,192,18736,1,0,0:0:0:0:
168,144,18886,1,8,0:0:0:0:
216,144,18961,1,0,0:0:0:0:
168,144,19036,1,0,0:0:0:0:
168,144,19111,1,0,0:0:0:0:
272,304,19186,5,2,0:0:0:0:
128,184,19336,1,0,0:0:0:0:
272,120,19486,1,0,0:0:0:0:
208,192,19636,1,0,0:0:0:0:
268,192,19711,1,0,0:0:0:0:
328,192,19786,1,0,0:0:0:0:
388,192,19861,1,0,0:0:0:0:
448,192,19936,1,0,0:0:0:0:
268,32,20086,6,0,L|484:384,1,400,8|0,0:0|0:0,0:0:0:0:
404,8,20536,2,0,B|468:368|468:368|476:296,1,400
472,16,20986,2,0,B|472:368|472:368|472:288,1,400
472,296,21436,1,0,0:0:0:0:
256,288,21586,5,8,0:0:0:0:
200,288,21661,1,2,0:0:0:0:
200,248,21736,1,2,0:0:0:0:
256,248,21811,1,2,0:0:0:0:
160,248,21886,1,10,0:0:0:0:
160,248,22036,5,2,0:0:0:0:
216,248,22111,1,0,0:0:0:0:
160,208,22186,1,0,0:0:0:0:
48,112,22336,1,4,0:0:0:0:
152,112,22486,1,8,0:0:0:0:
96,112,22561,1,0,0:0:0:0:
152,112,22636,1,0,0:0:0:0:
280,288,22786,5,6,0:0:0:0:
336,288,22861,1,2,0:0:0:0:
336,248,22936,1,2,0:0:0:0:
280,248,23011,1,2,0:0:0:0:
376,248,23086,1,10,0:0:0:0:
376,248,23236,5,2,0:0:0:0:
320,248,23311,1,0,0:0:0:0:
376,208,23386,1,0,0:0:0:0:
488,112,23536,1,4,0:0:0:0:
384,112,23686,1,8,0:0:0:0:
440,112,23761,1,0,0:0:0:0:
384,112,23836,1,0,0:0:0:0:
248,280,23986,5,6,0:0:0:0:
304,280,24061,1,2,0:0:0:0:
248,240,24136,1,2,0:0:0:0:
304,240,24211,1,2,0:0:0:0:
304,240,24286,1,10,0:0:0:0:
344,240,24436,5,2,0:0:0:0:
288,240,24511,1,0,0:0:0:0:
344,200,24586,1,0,0:0:0:0:
456,104,24736,1,4,0:0:0:0:
352,104,24886,1,8,0:0:0:0:
408,104,24961,1,0,0:0:0:0:
352,104,25036,1,0,0:0:0:0:
224,280,25186,5,6,0:0:0:0:
168,280,25261,1,2,0:0:0:0:
224,240,25336,1,2,0:0:0:0:
168,240,25411,1,2,0:0:0:0:
168,240,25486,1,10,0:0:0:0:
128,240,25636,5,2,0:0:0:0:
184,240,25711,1,0,0:0:0:0:
128,200,25786,1,0,0:0:0:0:
16,104,25936,1,4,0:0:0:0:
120,104,26086,1,8,0:0:0:0:
64,104,26161,1,0,0:0:0:0:
120,104,26236,1,0,0:0:0:0:
224,104,26386,5,6,0:0:0:0:
280,104,26461,1,2,0:0:0:0:
224,104,26536,1,2,0:0:0:0:
280,104,26611,1,2,0:0:0:0:
224,104,26686,1,10,0:0:0:0:
400,192,26836,5,2,0:0:0:0:
344,192,26911,1,0,0:0:0:0:
288,192,26986,1,0,0:0:0:0:
160,192,27136,1,4,0:0:0:0:
288,192,27286,1,8,0:0:0:0:
344,192,27361,1,0,0:0:0:0:
400,192,27436,1,0,0:0:0:0:
272,104,27586,5,6,0:0:0:0:
216,104,27661,1,2,0:0:0:0:
272,104,27736,1,2,0:0:0:0:
216,104,27811,1,2,0:0:0:0:
272,104,27886,1,10,0:0:0:0:
96,192,28036,5,2,0:0:0:0:
136,192,28111,1,0,0:0:0:0:
176,192,28186,1,0,0:0:0:0:
336,192,28336,1,0,0:0:0:0:
176,192,28486,1,8,0:0:0:0:
136,192,28561,1,0,0:0:0:0:
96,192,28636,1,0,0:0:0:0:
224,104,28786,5,6,0:0:0:0:
280,104,28861,1,2,0:0:0:0:
224,104,28936,1,2,0:0:0:0:
280,104,29011,1,2,0:0:0:0:
224,104,29086,1,10,0:0:0:0:
320,192,29236,5,2,0:0:0:0:
320,192,29311,1,0,0:0:0:0:
320,192,29386,1,0,0:0:0:0:
160,192,29536,1,4,0:0:0:0:
16,192,29686,1,8,0:0:0:0:
16,192,29761,1,0,0:0:0:0:
16,192,29836,1,0,0:0:0:0:
160,192,29986,5,6,0:0:0:0:
216,192,30061,1,2,0:0:0:0:
160,192,30136,1,2,0:0:0:0:
104,192,30211,1,2,0:0:0:0:
160,192,30286,1,10,0:0:0:0:
216,192,30361,1,2,0:0:0:0:
160,192,30436,1,2,0:0:0:0:
104,192,30511,1,0,0:0:0:0:
192,216,30586,5,0,0:0:0:0:
240,216,30661,1,0,0:0:0:0:
136,216,30736,1,4,0:0:0:0:
96,216,30811,1,0,0:0:0:0:
192,216,30886,1,8,0:0:0:0:
240,216,30961,1,0,0:0:0:0:
136,216,31036,1,0,0:0:0:0:
96,216,31111,1,0,0:0:0:0:
256,288,31186,5,8,0:0:0:0:
312,288,31261,1,2,0:0:0:0:
312,248,31336,1,2,0:0:0:0:
256,248,31411,1,2,0:0:0:0:
352,248,31486,1,10,0:0:0:0:
352,248,31636,5,0,0:0:0:0:
296,248,31711,1,0,0:0:0:0:
352,208,31786,1,0,0:0:0:0:
464,112,31936,1,4,0:0:0:0:
360,112,32086,1,8,0:0:0:0:
416,112,32161,1,0,0:0:0:0:
360,112,32236,1,0,0:0:0:0:
232,288,32386,5,6,0:0:0:0:
176,288,32461,1,2,0:0:0:0:
176,248,32536,1,2,0:0:0:0:
232,248,32611,1,2,0:0:0:0:
136,248,32686,1,10,0:0:0:0:
136,248,32836,5,2,0:0:0:0:
192,248,32911,1,0,0:0:0:0:
136,208,32986,1,0,0:0:0:0:
24,112,33136,1,4,0:0:0:0:
128,112,33286,1,8,0:0:0:0:
72,112,33361,1,0,0:0:0:0:
128,112,33436,1,0,0:0:0:0:
264,280,33586,5,6,0:0:0:0:
208,280,33661,1,2,0:0:0:0:
264,240,33736,1,2,0:0:0:0:
208,240,33811,1,2,0:0:0:0:
208,240,33886,1,10,0:0:0:0:
168,240,34036,5,0,0:0:0:0:
224,240,34111,1,0,0:0:0:0:
168,200,34186,1,0,0:0:0:0:
56,104,34336,1,4,0:0:0:0:
160,104,34486,1,8,0:0:0:0:
104,104,34561,1,0,0:0:0:0:
160,104,34636,1,0,0:0:0:0:
288,280,34786,5,6,0:0:0:0:
344,280,34861,1,2,0:0:0:0:
288,240,34936,1,2,0:0:0:0:
344,240,35011,1,2,0:0:0:0:
344,240,35086,1,10,0:0:0:0:
384,240,35236,5,2,0:0:0:0:
328,240,35311,1,0,0:0:0:0:
384,200,35386,1,0,0:0:0:0:
496,104,35536,1,4,0:0:0:0:
392,104,35686,1,8,0:0:0:0:
448,104,35761,1,0,0:0:0:0:
392,104,35836,1,0,0:0:0:0:
288,104,35986,5,6,0:0:0:0:
232,104,36061,1,2,0:0:0:0:
288,104,36136,1,2,0:0:0:0:
232,104,36211,1,2,0:0:0:0:
288,104,36286,1,10,0:0:0:0:
112,192,36436,5,0,0:0:0:0:
168,192,36511,1,0,0:0:0:0:
224,192,36586,1,0,0:0:0:0:
352,192,36736,1,4,0:0:0:0:
224,192,36886,1,8,0:0:0:0:
168,192,36961,1,0,0:0:0:0:
112,192,37036,1,0,0:0:0:0:
240,104,37186,5,6,0:0:0:0:
296,104,37261,1,2,0:0:0:0:
240,104,37336,1,2,0:0:0:0:
296,104,37411,1,2,0:0:0:0:
240,104,37486,1,10,0:0:0:0:
416,192,37636,5,2,0:0:0:0:
376,192,37711,1,0,0:0:0:0:
336,192,37786,1,0,0:0:0:0:
176,192,37936,1,4,0:0:0:0:
336,192,38086,1,8,0:0:0:0:
376,192,38161,1,0,0:0:0:0:
416,192,38236,1,0,0:0:0:0:
288,104,38386,5,6,0:0:0:0:
232,104,38461,1,2,0:0:0:0:
288,104,38536,1,2,0:0:0:0:
232,104,38611,1,2,0:0:0:0:
288,104,38686,1,10,0:0:0:0:
192,192,38836,5,0,0:0:0:0:
248,192,38911,1,0,0:0:0:0:
304,192,38986,1,0,0:0:0:0:
192,192,39136,1,4,0:0:0:0:
304,192,39286,1,8,0:0:0:0:
248,192,39361,1,0,0:0:0:0:
192,192,39436,1,0,0:0:0:0:
376,192,39586,5,4,1:2:0:0:
376,192,40186,1,2,1:2:0:0:
264,200,40261,1,0,1:1:0:0:
192,200,40336,1,4,1:1:0:0:
112,184,40411,1,0,1:1:0:0:
64,136,40486,1,8,1:1:0:0:
56,64,40561,1,0,1:1:0:0:
64,64,40636,1,4,1:1:0:0:
112,184,40711,1,0,1:1:0:0:
248,288,40786,5,6,0:1:0:0:
312,288,40861,1,0,0:0:0:0:
376,288,40936,1,0,0:0:0:0:
328,232,41011,1,0,0:0:0:0:
344,176,41086,1,8,0:0:0:0:
360,120,41161,1,0,0:0:0:0:
276,288,41236,1,0,0:0:0:0:
340,288,41311,1,0,0:0:0:0:
400,288,41386,5,4,0:0:0:0:
352,232,41461,1,0,0:0:0:0:
368,176,41536,1,4,0:0:0:0:
384,120,41611,1,0,0:0:0:0:
300,288,41686,1,8,0:0:0:0:
364,288,41761,1,0,0:0:0:0:
428,288,41836,1,4,0:0:0:0:
380,232,41911,1,0,0:0:0:0:
400,176,41986,5,0,0:0:0:0:
416,120,42061,1,0,0:0:0:0:
332,288,42136,1,4,0:0:0:0:
396,288,42211,1,0,0:0:0:0:
460,288,42286,1,8,0:0:0:0:
412,232,42361,1,0,0:0:0:0:
428,176,42436,1,0,0:0:0:0:
444,120,42511,1,0,0:0:0:0:
364,188,42586,5,4,0:0:0:0:
264,192,42736,1,4,0:0:0:0:
264,192,42886,1,8,0:0:0:0:
208,192,42961,1,0,0:0:0:0:
264,192,43036,1,0,0:0:0:0:
208,192,43111,1,0,0:0:0:0:
304,192,43186,5,4,0:0:0:0:
304,136,43261,1,0,0:0:0:0:
224,152,43336,1,0,0:0:0:0:
224,104,43411,1,0,0:0:0:0:
144,144,43486,1,8,0:0:0:0:
144,96,43561,1,0,0:0:0:0:
224,120,43636,1,0,0:0:0:0:
224,72,43711,1,0,0:0:0:0:
312,104,43786,5,4,0:0:0:0:
312,56,43861,1,0,0:0:0:0:
248,192,43936,1,4,0:0:0:0:
192,192,44011,1,0,0:0:0:0:
248,192,44086,1,8,0:0:0:0:
288,232,44161,1,0,0:0:0:0:
304,288,44236,1,4,0:0:0:0:
296,336,44311,1,0,0:0:0:0:
208,328,44386,5,0,0:0:0:0:
112,312,44461,1,0,0:0:0:0:
96,264,44536,1,4,0:0:0:0:
112,224,44611,1,0,0:0:0:0:
160,224,44686,1,8,0:0:0:0:
112,224,44761,1,0,0:0:0:0:
160,224,44836,1,0,0:0:0:0:
296,224,44986,1,4,0:0:0:0:
144,224,45136,1,4,0:0:0:0:
296,224,45286,1,8,0:0:0:0:
424,224,45436,1,0,0:0:0:0:
296,224,45586,5,6,0:1:0:0:
248,224,45736,1,0,0:0:0:0:
296,224,45811,1,0,0:0:0:0:
184,328,45886,1,8,0:0:0:0:
128,312,45961,1,0,0:0:0:0:
96,264,46036,1,0,0:0:0:0:
88,200,46111,1,0,0:0:0:0:
168,192,46186,1,4,0:0:0:0:
216,192,46261,5,0,0:0:0:0:
264,192,46336,1,4,0:0:0:0:
216,192,46411,1,0,0:0:0:0:
304,324,46486,1,8,0:0:0:0:
360,308,46561,1,0,0:0:0:0:
392,260,46636,1,4,0:0:0:0:
400,196,46711,1,0,0:0:0:0:
328,144,46786,5,0,0:0:0:0:
376,144,46861,1,0,0:0:0:0:
296,176,46936,1,4,0:0:0:0:
240,176,47011,1,0,0:0:0:0:
240,120,47086,1,8,0:0:0:0:
296,120,47161,1,0,0:0:0:0:
352,120,47236,1,0,0:0:0:0:
296,120,47311,1,0,0:0:0:0:
224,232,47386,1,4,0:0:0:0:
88,200,47536,1,4,0:0:0:0:
192,144,47686,1,8,0:0:0:0:
108,108,47836,1,0,0:0:0:0:
108,108,47911,1,0,0:0:0:0:
32,108,47986,5,4,0:0:0:0:
160,108,48136,1,0,0:0:0:0:
108,108,48211,1,0,0:0:0:0:
160,108,48286,1,8,0:0:0:0:
296,88,48436,1,0,0:0:0:0:
236,88,48511,1,0,0:0:0:0:
236,88,48586,1,4,0:0:0:0:
360,184,48736,1,4,0:0:0:0:
232,184,48886,1,8,0:0:0:0:
296,184,48961,1,0,0:0:0:0:
360,184,49036,1,4,0:0:0:0:
232,184,49186,5,0,0:0:0:0:
232,144,49261,1,0,0:0:0:0:
232,120,49336,1,4,0:0:0:0:
308,288,49486,1,8,0:0:0:0:
232,288,49561,1,0,0:0:0:0:
156,288,49636,1,0,0:0:0:0:
204,288,49711,1,0,0:0:0:0:
156,288,49786,1,4,0:0:0:0:
40,224,49936,5,4,0:0:0:0:
192,224,50086,1,10,0:0:0:0:
144,168,50161,1,0,0:0:0:0:
192,168,50236,1,0,0:0:0:0:
336,192,50386,5,6,0:1:0:0:
436,192,50461,1,0,0:0:0:0:
232,192,50686,1,8,0:0:0:0:
132,192,50761,1,0,0:0:0:0:
336,192,50986,1,4,0:0:0:0:
436,192,51061,1,0,0:0:0:0:
232,192,51286,1,8,0:0:0:0:
132,192,51361,1,0,0:0:0:0:
336,192,51586,5,0,0:0:0:0:
392,192,51661,1,0,0:0:0:0:
336,192,51736,1,4,0:0:0:0:
232,192,51886,1,8,0:0:0:0:
416,192,52036,1,0,0:0:0:0:
464,192,52111,1,0,0:0:0:0:
368,280,52336,5,4,0:0:0:0:
368,224,52411,1,0,0:0:0:0:
280,288,52486,1,8,0:0:0:0:
280,232,52561,1,0,0:0:0:0:
192,288,52636,1,0,0:0:0:0:
192,240,52711,1,0,0:0:0:0:
264,328,52786,5,4,0:0:0:0:
184,256,52936,1,4,0:0:0:0:
32,208,53086,1,8,0:0:0:0:
160,192,53236,1,0,0:0:0:0:
216,192,53311,1,0,0:0:0:0:
144,160,53386,1,4,0:0:0:0:
144,112,53461,5,0,0:0:0:0:
216,192,53536,1,4,0:0:0:0:
160,192,53611,1,0,0:0:0:0:
232,160,53686,1,8,0:0:0:0:
232,160,53761,1,0,0:0:0:0:
232,160,53836,1,4,0:0:0:0:
128,112,53986,5,0,0:0:0:0:
216,160,54061,1,0,0:0:0:0:
256,160,54136,1,4,0:0:0:0:
216,160,54211,1,0,0:0:0:0:
120,136,54286,1,8,0:0:0:0:
216,184,54361,1,0,0:0:0:0:
176,184,54436,5,0,0:0:0:0:
216,184,54511,1,0,0:0:0:0:
144,304,54586,1,4,0:0:0:0:
192,264,54661,1,0,0:0:0:0:
240,224,54736,1,4,0:0:0:0:
336,224,54886,1,8,0:0:0:0:
432,224,55036,1,0,0:0:0:0:
272,216,55186,5,2,0:1:0:0:
208,216,55786,5,4,0:0:0:0:
272,216,55861,1,0,0:0:0:0:
336,216,55936,1,4,0:0:0:0:
304,104,56086,1,8,0:0:0:0:
320,48,56161,1,0,0:0:0:0:
216,216,56236,1,4,0:0:0:0:
344,216,56386,5,0,0:0:0:0:
296,160,56461,1,0,0:0:0:0:
312,104,56536,1,4,0:0:0:0:
224,216,56686,1,8,0:0:0:0:
288,216,56761,1,0,0:0:0:0:
352,216,56836,1,0,0:0:0:0:
264,104,56986,5,4,0:0:0:0:
248,48,57061,1,0,0:0:0:0:
352,216,57136,1,4,0:0:0:0:
224,216,57286,1,8,0:0:0:0:
272,160,57361,1,0,0:0:0:0:
256,104,57436,1,0,0:0:0:0:
160,248,57586,5,4,0:0:0:0:
264,248,57661,1,0,0:0:0:0:
320,248,57811,1,0,0:0:0:0:
264,248,57886,1,0,0:0:0:0:
352,224,58036,1,0,0:0:0:0:
448,224,58111,1,0,0:0:0:0:
336,192,58261,5,0,0:0:0:0:
432,192,58336,1,4,0:0:0:0:
360,296,58486,1,8,0:0:0:0:
360,264,58561,1,0,0:0:0:0:
304,264,58636,1,4,0:0:0:0:
304,224,58711,1,0,0:0:0:0:
368,192,58786,5,0,0:0:0:0:
264,192,58861,1,0,0:0:0:0:
208,192,59011,1,0,0:0:0:0:
264,192,59086,1,8,0:0:0:0:
176,168,59236,1,0,0:0:0:0:
80,168,59311,1,0,0:0:0:0:
192,136,59461,5,0,0:0:0:0:
296,136,59536,1,4,0:0:0:0:
136,136,59686,1,10,0:0:0:0:
312,136,59836,1,0,0:0:0:0:
472,136,59986,5,4,0:1:0:0:
256,336,69586,6,0,B|256:232|256:232|160:232|160:232|160:128|160:128|256:128|256:128|256:232|256:232|352:232|352:232|248:232,1,700,4|8,0:0|0:0,0:0:0:0:
256,336,71767,6,0,B|256:224|256:224|152:224|152:224|152:112|152:112|264:112|264:112|264:224|264:224|376:224|376:224|248:224,1,770.000023498536,4|8,0:0|0:0,0:0:0:0:
256,336,73767,6,0,B|256:216|256:216|136:216|136:216|136:96|136:96|256:96|256:96|256:216|256:216|376:216|376:216|248:216,1,839.999974365235,4|8,0:0|0:0,0:0:0:0:
256,336,75613,6,0,B|256:184|256:184|112:184|112:184|112:32|112:32|264:32|264:32|264:184|264:184|416:184|416:184|256:184,1,1050.00004005432,4|8,0:0|0:0,0:0:0:0:
256,336,77327,6,0,B|256:184|256:184|104:184|104:184|104:24,1,450.000017166138,4|8,0:0|0:0,0:0:0:0:
256,336,78127,2,0,B|256:184|256:184|408:184|408:184|408:24,1,450.000017166138,4|8,0:0|0:0,0:0:0:0:
256,336,78927,6,0,B|256:184|256:184|104:184|104:184|104:24,1,450.000017166138,4|8,0:0|0:0,0:0:0:0:
256,336,79677,2,0,B|256:184|256:184|408:184|408:184|408:24,1,450.000017166138,4|8,0:0|0:0,0:0:0:0:
256,336,80427,6,0,L|256:240,1,50,4|0,0:0|0:0,0:0:0:0:
184,248,80603,2,0,L|184:168,1,50,4|0,0:0|0:0,0:0:0:0:
256,336,80956,6,0,L|256:248,1,50,4|0,0:0|0:0,0:0:0:0:
328,248,81132,2,0,L|328:176,1,50,4|0,0:0|0:0,0:0:0:0:
408,192,81309,2,0,L|408:112,1,50,4|0,0:0|0:0,0:0:0:0:
256,336,81662,2,0,L|256:256,1,50,4|0,0:0|0:0,0:0:0:0:
140,192,81838,6,0,L|380:192,3,200,4|4|4|4,0:0|0:0|0:0|0:0,0:0:0:0:
168,192,83171,6,0,L|280:192,3,100,4|4|4|0,0:0|0:0|0:0|0:0,0:0:0:0:
192,192,83802,6,0,L|272:88,3,100,4|4|4|0,0:0|0:0|0:0|0:0,0:0:0:0:
224,152,84434,5,4,0:0:0:0:
240,112,84509,1,4,0:0:0:0:
224,152,84584,1,4,0:0:0:0:
208,192,84659,1,4,0:0:0:0:
224,152,84734,1,4,0:0:0:0:
248,112,84809,1,4,0:0:0:0:
224,152,84884,1,4,0:0:0:0:
200,192,84959,1,4,0:0:0:0:
224,152,85034,5,4,0:0:0:0:
264,112,85109,1,4,0:0:0:0:
224,152,85184,1,4,0:0:0:0:
184,192,85259,1,4,0:0:0:0:
224,152,85334,1,4,0:0:0:0:
288,112,85409,1,4,0:0:0:0:
224,152,85484,1,0,0:0:0:0:
160,192,85559,5,0,0:0:0:0:
256,192,85712,12,0,86581,0:0:0:0:
400,192,86897,6,0,B|192:192|192:192|192:96|192:96|192:216,1,419.999987182618,12|8,0:0|0:0,0:0:0:0:
292,104,87347,1,0,0:0:0:0:
236,104,87422,1,0,0:0:0:0:
288,320,87497,2,0,L|328:112,1,200,4|4,0:0|0:0,0:0:0:0:
194,123,87797,1,8,0:0:0:0:
312,136,87947,1,4,0:0:0:0:
256,136,88022,1,0,0:0:0:0:
320,240,88097,6,0,B|400:40|400:40|360:136,1,300
312,120,88397,1,8,0:0:0:0:
392,120,88472,1,0,0:0:0:0:
444,120,88547,1,0,0:0:0:0:
288,112,88697,1,4,0:0:0:0:
160,112,88847,1,4,0:0:0:0:
288,112,88997,1,8,0:0:0:0:
400,112,89147,1,0,0:0:0:0:
224,184,89297,5,6,0:0:0:0:
224,184,89447,1,4,0:0:0:0:
56,192,89597,1,8,0:0:0:0:
184,112,89747,1,0,0:0:0:0:
136,112,89822,1,0,0:0:0:0:
224,248,89897,2,0,B|264:48|264:48|304:144|216:256,1,400,4|8,0:0|0:0,0:0:0:0:
88,248,90347,1,4,0:0:0:0:
240,192,90497,5,0,0:0:0:0:
160,192,90647,1,4,0:0:0:0:
304,192,90797,1,8,0:0:0:0:
160,192,90947,1,0,0:0:0:0:
336,192,91097,1,4,0:0:0:0:
168,192,91247,1,4,0:0:0:0:
336,192,91397,1,8,0:0:0:0:
280,192,91547,1,0,0:0:0:0:
432,192,91697,5,6,0:0:0:0:
356,192,91772,1,0,0:0:0:0:
280,192,91847,1,0,0:0:0:0:
432,192,91997,1,8,0:0:0:0:
496,196,92147,1,0,0:0:0:0:
292,336,92297,2,0,B|212:136|212:136|196:320|196:320|212:120|212:120|276:320|276:320|276:320|276:320,1,800,4|0,0:0|0:0,0:0:0:0:
140,336,93047,5,4,0:0:0:0:
192,336,93122,1,0,0:0:0:0:
108,336,93197,1,8,0:0:0:0:
192,336,93347,1,0,0:0:0:0:
56,280,93497,1,4,0:0:0:0:
56,224,93647,1,4,0:0:0:0:
160,216,93797,1,8,0:0:0:0:
280,216,93947,1,0,0:0:0:0:
160,216,94097,5,6,0:0:0:0:
288,192,94397,1,8,0:0:0:0:
176,192,94472,1,0,0:0:0:0:
224,192,94547,1,0,0:0:0:0:
176,192,94622,1,0,0:0:0:0:
228,188,94697,1,4,0:0:0:0:
228,188,94772,5,0,0:0:0:0:
180,188,94847,1,4,0:0:0:0:
124,188,94922,1,0,0:0:0:0:
180,188,94997,1,8,0:0:0:0:
124,188,95072,1,0,0:0:0:0:
124,140,95147,1,4,0:0:0:0:
16,144,95297,5,0,0:0:0:0:
64,144,95372,1,0,0:0:0:0:
152,144,95447,1,4,0:0:0:0:
152,96,95522,1,0,0:0:0:0:
208,96,95597,1,8,0:0:0:0:
264,96,95672,1,0,0:0:0:0:
152,96,95747,1,0,0:0:0:0:
152,144,95822,5,0,0:0:0:0:
264,144,95897,1,4,0:0:0:0:
212,144,95972,1,0,0:0:0:0:
264,144,96047,1,4,0:0:0:0:
136,192,96197,1,8,0:0:0:0:
280,192,96347,1,0,0:0:0:0:
420,192,96497,5,12,0:0:0:0:
280,192,96797,1,8,0:0:0:0:
376,144,96947,1,0,0:0:0:0:
320,144,97022,1,0,0:0:0:0:
376,144,97097,2,0,B|216:264|216:264|304:88|304:88|120:184,1,600,6|4,0:0|0:0,0:0:0:0:
256,192,97697,1,0,0:0:0:0:
192,192,97847,5,4,0:0:0:0:
256,192,97997,1,8,0:0:0:0:
120,144,98147,1,0,0:0:0:0:
72,144,98222,1,0,0:0:0:0:
120,144,98297,2,0,B|280:264|280:264|192:88|192:88|364:200,1,600,6|0,0:0|0:0,0:0:0:0:
224,144,98897,5,6,0:0:0:0:
120,144,99047,1,0,0:0:0:0:
224,144,99197,1,8,0:0:0:0:
344,144,99347,1,0,0:0:0:0:
288,144,99422,1,0,0:0:0:0:
344,144,99497,2,0,B|184:264|184:264|272:88|272:88|88:184,1,600,6|4,0:0|0:0,0:0:0:0:
256,192,100247,5,4,0:0:0:0:
88,192,100397,1,8,0:0:0:0:
160,192,100547,1,0,0:0:0:0:
104,192,100622,1,0,0:0:0:0:
160,192,100697,2,0,B|344:288|344:288|232:112|232:112|472:112,1,629.999980773926,6|0,0:0|0:0,0:0:0:0:
232,112,101297,5,6,0:0:0:0:
252,164,101447,1,0,0:0:0:0:
404,152,101597,1,8,0:0:0:0:
484,152,101747,1,0,0:0:0:0:
296,152,101897,1,4,0:0:0:0:
392,336,102047,1,4,0:0:0:0:
488,336,102197,1,8,0:0:0:0:
336,336,102347,2,0,B|256:136|256:136|240:320|240:320|256:120|256:120|336:344|336:344,1,800,4|0,0:0|0:0,0:0:0:0:
384,336,103022,5,0,0:0:0:0:
280,336,103097,2,0,L|256:104,1,200,4|4,0:0|0:0,0:0:0:0:
408,272,103397,2,0,L|496:48,1,200,8|0,0:0|0:0,0:0:0:0:
336,248,103697,5,6,0:0:0:0:
320,200,103772,1,0,0:0:0:0:
272,168,103847,1,0,0:0:0:0:
216,160,103922,1,0,0:0:0:0:
304,136,103997,1,8,0:0:0:0:
248,128,104072,1,0,0:0:0:0:
304,136,104147,1,0,0:0:0:0:
248,128,104222,1,0,0:0:0:0:
192,64,104297,5,4,0:0:0:0:
256,64,104372,1,0,0:0:0:0:
192,64,104447,1,4,0:0:0:0:
128,64,104522,1,0,0:0:0:0:
216,160,104597,1,8,0:0:0:0:
280,160,104672,1,0,0:0:0:0:
216,160,104747,1,4,0:0:0:0:
280,160,104822,1,0,0:0:0:0:
216,160,104897,6,0,B|136:-40|136:-40|120:144|120:144|136:-56|136:-56|184:64|184:64,1,700
40,224,105497,1,4,0:0:0:0:
120,224,105647,1,4,0:0:0:0:
256,144,105797,2,0,L|96:304,1,200,10|0,0:0|0:0,0:0:0:0:
340,272,106097,5,12,0:0:0:0:
404,264,106172,1,0,0:0:0:0:
340,272,106247,1,0,0:0:0:0:
404,264,106322,1,0,0:0:0:0:
340,272,106397,1,8,0:0:0:0:
204,248,106547,5,0,0:0:0:0:
268,240,106622,1,0,0:0:0:0:
204,248,106697,1,4,0:0:0:0:
268,240,106772,1,0,0:0:0:0:
204,248,106847,1,4,0:0:0:0:
340,224,106997,5,8,0:0:0:0:
340,176,107072,1,0,0:0:0:0:
236,160,107147,1,4,0:0:0:0:
292,160,107222,1,0,0:0:0:0:
236,160,107297,5,0,0:0:0:0:
292,160,107372,1,0,0:0:0:0:
184,160,107447,1,4,0:0:0:0:
160,128,107522,1,0,0:0:0:0:
160,72,107597,1,8,0:0:0:0:
184,160,107672,1,0,0:0:0:0:
240,160,107747,5,0,0:0:0:0:
332,160,107897,1,4,0:0:0:0:
492,160,108047,1,4,0:0:0:0:
332,160,108197,1,8,0:0:0:0:
180,160,108347,1,0,0:0:0:0:
288,224,108497,5,6,0:0:0:0:
376,200,108647,1,0,0:0:0:0:
400,128,108797,1,8,0:0:0:0:
376,200,108947,1,0,0:0:0:0:
200,200,109097,1,4,0:0:0:0:
352,200,109247,1,4,0:0:0:0:
200,200,109397,1,8,0:0:0:0:
264,200,109547,1,4,0:0:0:0:
112,200,109697,5,0,0:0:0:0:
264,200,109847,1,4,0:0:0:0:
112,200,109997,1,8,0:0:0:0:
416,200,110297,1,4,0:0:0:0:
416,200,110447,1,4,0:0:0:0:
336,136,110597,2,0,L|504:272,1,200,8|0,0:0|0:0,0:0:0:0:
304,264,110897,1,6,0:0:0:0:
304,224,111047,1,0,0:0:0:0:
224,200,111197,1,8,0:0:0:0:
296,176,111347,1,0,0:0:0:0:
168,136,111497,1,4,0:0:0:0:
232,160,111572,1,0,0:0:0:0:
296,112,111647,1,4,0:0:0:0:
224,96,111797,1,8,0:0:0:0:
400,96,111947,1,4,0:0:0:0:
400,96,112247,5,4,0:0:0:0:
224,96,112397,1,8,0:0:0:0:
224,96,112547,1,0,0:0:0:0:
408,192,112697,1,4,0:0:0:0:
272,192,112847,1,0,0:0:0:0:
320,192,112922,1,0,0:0:0:0:
128,192,113147,1,0,0:0:0:0:
288,192,113297,5,6,0:0:0:0:
384,208,113447,1,0,0:0:0:0:
456,184,113597,1,8,0:0:0:0:
488,152,113747,1,0,0:0:0:0:
320,100,113897,1,4,0:0:0:0:
336,84,113972,1,0,0:0:0:0:
356,68,114047,1,4,0:0:0:0:
424,76,114197,1,8,0:0:0:0:
492,152,114347,1,4,0:0:0:0:
304,160,114497,5,0,0:0:0:0:
196,160,114647,1,4,0:0:0:0:
364,160,114797,1,8,0:0:0:0:
276,160,114947,1,0,0:0:0:0:
456,296,115097,1,4,0:0:0:0:
456,296,115247,1,4,0:0:0:0:
304,304,115397,1,8,0:0:0:0:
240,304,115547,1,0,0:0:0:0:
496,304,115697,5,2,0:0:0:0:
432,264,115847,1,0,0:0:0:0:
432,208,115997,1,2,0:0:0:0:
496,304,116147,1,2,0:0:0:0:
496,256,116297,1,0,0:0:0:0:
432,264,116447,1,2,0:0:0:0:
496,304,116597,1,2,0:0:0:0:
368,304,116897,1,0,0:0:0:0:
496,304,117047,5,0,0:0:0:0:
496,232,117197,1,2,0:0:0:0:
432,264,117347,1,0,0:0:0:0:
368,264,117497,1,2,0:0:0:0:
296,264,117647,1,0,0:0:0:0:
296,208,117722,1,2,0:0:0:0:
24,304,118097,5,2,0:0:0:0:
88,264,118247,1,0,0:0:0:0:
88,208,118397,1,2,0:0:0:0:
24,304,118547,1,0,0:0:0:0:
88,264,118697,1,2,0:0:0:0:
24,304,118847,1,0,0:0:0:0:
24,304,119147,1,0,0:0:0:0:
24,232,119297,5,2,0:0:0:0:
88,264,119447,1,0,0:0:0:0:
152,264,119597,1,2,0:0:0:0:
88,264,119747,1,0,0:0:0:0:
152,264,119913,1,2,0:0:0:0:
88,264,120080,1,0,0:0:0:0:
152,264,120247,5,2,0:0:0:0:
24,264,120589,1,2,0:0:0:0:
128,264,120761,1,0,0:0:0:0:
232,264,120932,1,2,0:0:0:0:
328,248,121104,1,0,0:0:0:0:
376,168,121275,1,2,0:0:0:0:
384,72,121447,1,0,0:0:0:0:
376,168,121618,5,2,0:0:0:0:
328,248,121789,1,0,0:0:0:0:
200,248,121961,1,2,0:0:0:0:
368,256,122688,1,2,0:0:0:0:
288,256,123223,1,2,0:0:0:0:
45,259,123673,5,2,0:0:0:0:
224,232,124218,1,2,0:0:0:0:
304,184,124551,1,2,0:0:0:0:
224,232,124884,1,2,0:0:0:0:
128,232,125338,1,2,0:0:0:0:
368,232,125793,1,2,0:0:0:0:
408,232,125849,5,0,0:0:0:0:
256,192,126020,12,2,132156,0:0:0:0:
