osu file format v14

[General]
AudioFilename: audio.mp3
AudioLeadIn: 0
PreviewTime: 196482
Countdown: 0
SampleSet: Soft
StackLeniency: 0.7
Mode: 2
LetterboxInBreaks: 0
WidescreenStoryboard: 1

[Editor]
Bookmarks: 12596,21739,30882,67454,85739,142882,197196,233767,252053,270338
DistanceSpacing: 1
BeatDivisor: 4
GridSize: 8
TimelineZoom: 2.799999

[Metadata]
Title:Mei (Camellia's "Yomigae" Remix)
TitleUnicode:冥 (かめりあ's “甦" Remix)
Artist:Amuro vs. Killer
ArtistUnicode:Amuro vs. Killer
Creator:Spectator
Version:Rain
Source:beatmania IIDX 12 HAPPY SKY
Tags:cametek beatmania IIDX 20th Anniversary Tribute BEST Electronic Instrumental Video Game HUMAN SEQUENCER 大箭 将也
BeatmapID:2653218
BeatmapSetID:1246989

[Difficulty]
HPDrainRate:3
CircleSize:4
OverallDifficulty:9.2
ApproachRate:9.2
SliderMultiplier:1.6
SliderTickRate:2

[Events]
//Background and Video events
0,0,"bg.jpg",0,0
//Break Periods
2,122511,123598
2,127082,127741
2,143082,149169
//Storyboard Layer 0 (Background)
//Storyboard Layer 1 (Fail)
//Storyboard Layer 2 (Pass)
//Storyboard Layer 3 (Foreground)
//Storyboard Layer 4 (Overlay)
//Storyboard Sound Samples

[TimingPoints]
3454,285.714285714286,4,1,25,50,1,0
3454,-100,4,1,25,50,0,0
12739,-111.111111111111,4,2,1,45,0,0
14882,-125,4,2,1,45,0,0
14954,-111.111111111111,4,2,1,45,0,0
17311,-111.111111111111,4,2,1,25,0,0
17739,-111.111111111111,4,2,1,28,0,0
18311,-111.111111111111,4,2,1,30,0,0
18882,-111.111111111111,4,2,1,32,0,0
19454,-111.111111111111,4,2,1,35,0,0
20025,-111.111111111111,4,2,1,38,0,0
20596,-111.111111111111,4,2,1,42,0,0
21168,-111.111111111111,4,2,1,45,0,0
21454,-78.7401574803149,4,2,26,45,0,0
21739,-78.7401574803149,4,1,5,50,0,0
22025,-78.7401574803149,4,1,5,50,0,0
22454,-78.7401574803149,4,1,5,50,0,0
22882,-78.7401574803149,4,1,6,45,0,0
23311,-86.9565217391304,4,1,6,45,0,0
24025,-78.7401574803149,4,1,5,50,0,0
24311,-78.7401574803149,4,1,5,50,0,0
24739,-78.7401574803149,4,1,5,50,0,0
25168,-78.7401574803149,4,1,6,45,0,0
25454,-86.9565217391304,4,1,6,45,0,0
26311,-78.7401574803149,4,1,5,50,0,0
26596,-78.7401574803149,4,1,5,50,0,0
27025,-78.7401574803149,4,1,5,50,0,0
27454,-78.7401574803149,4,1,1,50,0,0
27739,-78.7401574803149,4,1,1,50,0,0
28025,-83.3333333333333,4,1,1,53,0,0
28311,-83.3333333333333,4,1,1,56,0,0
28596,-83.3333333333333,4,1,1,59,0,0
29168,-83.3333333333333,4,1,1,62,0,0
29454,-78.7401574803149,4,1,1,62,0,0
29739,-78.7401574803149,4,1,0,35,0,0
30596,-78.7401574803149,4,1,1,50,0,0
30882,-80.6451612903226,4,1,27,65,0,0
30954,-80.6451612903226,4,1,7,60,0,0
35204,-80.6451612903226,4,1,7,40,0,0
35454,-80.6451612903226,4,1,7,60,0,0
39311,-80.6451612903226,4,1,28,60,0,0
39739,-80.6451612903226,4,1,7,60,0,0
40025,-80.6451612903226,4,1,27,60,0,0
40096,-80.6451612903226,4,1,7,60,0,0
44346,-80.6451612903226,4,1,7,40,0,0
44596,-80.6451612903226,4,1,27,60,0,0
44668,-80.6451612903226,4,1,1,60,0,0
45025,-80.6451612903226,4,1,7,60,0,0
45168,-80.6451612903226,4,1,7,60,0,0
45204,-80.6451612903226,4,1,7,15,0,0
45311,-80.6451612903226,4,1,7,60,0,0
45346,-80.6451612903226,4,1,7,15,0,0
45454,-80.6451612903226,4,1,7,60,0,0
45489,-80.6451612903226,4,1,7,15,0,0
45596,-80.6451612903226,4,1,7,60,0,0
45632,-80.6451612903226,4,1,7,15,0,0
45739,-80.6451612903226,4,1,7,60,0,0
45775,-80.6451612903226,4,1,7,15,0,0
45882,-80.6451612903226,4,1,7,60,0,0
45918,-80.6451612903226,4,1,7,15,0,0
46025,-80.6451612903226,4,1,7,60,0,0
46061,-80.6451612903226,4,1,7,15,0,0
46168,-80.6451612903226,4,1,7,60,0,0
46204,-80.6451612903226,4,1,7,15,0,0
46311,-80.6451612903226,4,1,29,70,0,0
46346,-80.6451612903226,4,1,29,15,0,0
46454,-80.6451612903226,4,1,29,70,0,0
46489,-80.6451612903226,4,1,29,15,0,0
46596,-80.6451612903226,4,1,29,70,0,0
46632,-80.6451612903226,4,1,29,15,0,0
46739,-80.6451612903226,4,1,29,70,0,0
46775,-80.6451612903226,4,1,29,15,0,0
46882,-80.6451612903226,4,1,7,60,0,0
47168,-80.6451612903226,4,1,28,60,0,0
47204,-80.6451612903226,4,1,1,60,0,0
47454,-80.6451612903226,4,1,29,60,0,0
47489,-80.6451612903226,4,1,29,15,0,0
47596,-80.6451612903226,4,1,29,60,0,0
47632,-80.6451612903226,4,1,29,15,0,0
47739,-80.6451612903226,4,1,29,60,0,0
47775,-80.6451612903226,4,1,29,15,0,0
47882,-80.6451612903226,4,1,29,60,0,0
47918,-80.6451612903226,4,1,29,15,0,0
48025,-80.6451612903226,4,1,6,60,0,0
48882,-80.6451612903226,4,1,7,60,0,0
49168,-80.6451612903226,4,1,27,60,0,0
49596,-80.6451612903226,4,1,7,60,0,0
53168,-80.6451612903226,4,1,30,60,0,0
53739,-80.6451612903226,4,1,7,60,0,0
55775,-80.6451612903226,4,1,7,40,0,0
56025,-80.6451612903226,4,1,7,60,0,0
57168,-80.6451612903226,4,1,7,65,0,0
58311,-80.6451612903226,4,1,27,60,0,0
58382,-80.6451612903226,4,1,7,60,0,0
62311,-80.6451612903226,4,1,30,60,0,0
62882,-80.6451612903226,4,1,31,60,0,0
62954,-80.6451612903226,4,1,1,35,0,0
63168,-80.6451612903226,4,1,31,60,0,0
63239,-80.6451612903226,4,1,1,35,0,0
63454,-80.6451612903226,4,1,31,60,0,0
63525,-80.6451612903226,4,1,1,35,0,0
63739,-80.6451612903226,4,1,31,60,0,0
63775,-80.6451612903226,4,1,1,35,0,0
64025,-80.6451612903226,4,1,7,65,0,0
64882,-80.6451612903226,4,1,6,65,0,0
65168,-80.6451612903226,4,1,1,65,0,0
65454,-80.6451612903226,4,1,1,68,0,0
65739,-80.6451612903226,4,1,1,70,0,0
66025,-80.6451612903226,4,1,1,75,0,0
66311,-80.6451612903226,4,1,32,63,0,0
67168,-80.6451612903226,4,1,1,65,0,0
67454,-90.0900900900901,4,1,27,60,0,0
67525,-90.0900900900901,4,1,1,60,0,0
68596,-90.0900900900901,4,1,1,57,0,0
69168,-90.0900900900901,4,1,1,55,0,0
69739,-90.0900900900901,4,1,1,53,0,0
70882,-90.0900900900901,4,1,1,50,0,0
72025,-90.0900900900901,4,1,1,53,0,0
73168,-90.0900900900901,4,1,1,55,0,0
73739,-90.0900900900901,4,1,1,57,0,0
74025,-90.0900900900901,4,1,1,59,0,0
74311,-90.0900900900901,4,1,6,60,0,0
75454,-90.0900900900901,4,1,1,60,0,0
75739,-90.0900900900901,4,1,1,63,0,0
76311,-90.0900900900901,4,1,29,65,0,0
76596,-90.0900900900901,4,1,31,60,0,0
76882,-90.0900900900901,4,1,1,60,0,0
77311,-90.0900900900901,4,1,31,60,0,0
77739,-90.0900900900901,4,1,6,58,0,0
78311,-90.0900900900901,4,1,6,62,0,0
78596,-90.0900900900901,4,1,6,65,0,0
78882,-90.0900900900901,4,1,31,65,0,0
79168,-90.0900900900901,4,1,1,65,0,0
79596,-90.0900900900901,4,1,31,65,0,0
80025,-90.0900900900901,4,1,6,65,0,0
80454,-90.0900900900901,4,1,6,67,0,0
80882,-90.0900900900901,4,1,6,69,0,0
81168,-90.0900900900901,4,1,31,70,0,0
81454,-90.0900900900901,4,1,1,70,0,0
81882,-90.0900900900901,4,1,31,70,0,0
82311,-90.0900900900901,4,1,6,60,0,0
82596,-90.0900900900901,4,1,6,63,0,0
82882,-90.0900900900901,4,1,6,66,0,0
83168,-90.0900900900901,4,1,6,70,0,0
83382,-90.0900900900901,4,1,1,60,0,0
83454,-90.0900900900901,4,1,1,65,0,0
83882,-90.0900900900901,4,1,1,68,0,0
84311,-90.0900900900901,4,1,1,70,0,0
84346,-90.0900900900901,4,1,1,30,0,0
84596,-90.0900900900901,4,1,1,48,0,0
85168,-90.0900900900901,4,1,1,60,0,0
85454,-90.0900900900901,4,1,70,75,0,0
85525,-90.0900900900901,4,1,1,65,0,0
85739,-90.0900900900901,4,1,27,75,0,0
85811,-90.0900900900901,4,1,1,75,0,0
87739,-90.0900900900901,4,1,29,75,0,0
88025,-90.0900900900901,4,1,1,75,0,0
88596,-90.0900900900901,4,1,1,70,0,0
89239,-90.0900900900901,4,1,1,68,0,0
89811,-90.0900900900901,4,1,32,73,0,0
90311,-90.0900900900901,4,1,1,75,0,0
92311,-90.0900900900901,4,1,28,75,0,0
92346,-90.0900900900901,4,1,1,75,0,0
92596,-90.0900900900901,4,1,1,77,0,0
93739,-90.0900900900901,4,1,33,80,0,0
94596,-90.0900900900901,4,1,30,77,0,0
94811,-90.0900900900901,4,1,1,75,0,0
95739,-90.0900900900901,4,1,1,78,0,0
96311,-90.0900900900901,4,1,1,75,0,0
96596,-90.0900900900901,4,1,1,77,0,0
96882,-90.0900900900901,4,1,29,75,0,0
97025,-90.0900900900901,4,1,1,75,0,0
97168,-90.0900900900901,4,1,32,75,0,0
97454,-90.0900900900901,4,1,1,75,0,0
97882,-90.0900900900901,4,1,1,77,0,0
98525,-90.0900900900901,4,1,1,80,0,0
98882,-90.0900900900901,4,1,6,75,0,0
99168,-90.0900900900901,4,1,29,75,0,0
99454,-90.0900900900901,4,1,31,75,0,0
99525,-90.0900900900901,4,1,1,75,0,0
100025,-90.0900900900901,4,1,1,75,0,0
100061,-90.0900900900901,4,1,1,30,0,0
100168,-90.0900900900901,4,1,1,75,0,0
100204,-90.0900900900901,4,1,1,30,0,0
100311,-90.0900900900901,4,1,1,75,0,0
100346,-90.0900900900901,4,1,1,30,0,0
100454,-90.0900900900901,4,1,1,75,0,0
100489,-90.0900900900901,4,1,1,30,0,0
100596,-90.0900900900901,4,1,1,75,0,0
100632,-90.0900900900901,4,1,1,30,0,0
100739,-90.0900900900901,4,1,1,75,0,0
100775,-90.0900900900901,4,1,1,30,0,0
100882,-90.0900900900901,4,1,1,75,0,0
100918,-90.0900900900901,4,1,1,30,0,0
101025,-90.0900900900901,4,1,1,75,0,0
101061,-90.0900900900901,4,1,1,30,0,0
101168,-90.0900900900901,4,1,29,80,0,0
101204,-90.0900900900901,4,1,29,30,0,0
101311,-90.0900900900901,4,1,29,80,0,0
101346,-90.0900900900901,4,1,29,30,0,0
101454,-90.0900900900901,4,1,29,80,0,0
101489,-90.0900900900901,4,1,1,35,0,0
101739,-90.0900900900901,4,1,1,80,0,0
102168,-90.0900900900901,4,1,6,75,0,0
103025,-90.0900900900901,4,1,6,45,0,0
103311,-90.0900900900901,4,1,6,47,0,0
103596,-90.0900900900901,4,1,6,51,0,0
103739,-90.0900900900901,4,1,6,53,0,0
103882,-90.0900900900901,4,1,6,55,0,0
104025,-90.0900900900901,4,1,27,70,0,0
104096,-90.0900900900901,4,1,1,70,0,0
104882,-90.0900900900901,4,1,1,75,0,0
105739,-90.0900900900901,4,1,1,70,0,0
106882,-90.0900900900901,4,1,32,68,0,0
107346,-90.0900900900901,4,1,1,70,0,0
107596,-90.0900900900901,4,1,32,72,0,0
108025,-90.0900900900901,4,1,1,75,0,0
108239,-90.0900900900901,4,1,1,75,0,0
109168,-90.0900900900901,4,1,1,70,0,0
109739,-90.0900900900901,4,1,1,66,0,0
110382,-90.0900900900901,4,1,1,70,0,0
111454,-90.0900900900901,4,1,32,72,0,0
111739,-90.0900900900901,4,1,32,74,0,0
112168,-90.0900900900901,4,1,29,77,0,0
112918,-90.0900900900901,4,1,29,25,0,0
113168,-90.0900900900901,4,1,27,70,0,0
113239,-90.0900900900901,4,1,29,70,0,0
114168,-90.0900900900901,4,1,29,66,0,0
114596,-90.0900900900901,4,1,29,70,0,0
115168,-90.0900900900901,4,1,1,70,0,0
115454,-90.0900900900901,4,1,1,71,0,0
116025,-90.0900900900901,4,1,1,74,0,0
116596,-90.0900900900901,4,1,1,77,0,0
117311,-90.0900900900901,4,1,1,75,0,0
117596,-90.0900900900901,4,1,1,75,0,0
118168,-90.0900900900901,4,1,31,72,0,0
119739,-90.0900900900901,4,1,28,75,0,0
119775,-90.0900900900901,4,1,1,35,0,0
120025,-90.0900900900901,4,1,1,72,0,0
120168,-90.0900900900901,4,1,1,52,0,0
120239,-90.0900900900901,4,1,1,72,0,0
120382,-90.0900900900901,4,1,1,52,0,0
120454,-90.0900900900901,4,1,1,72,0,0
120525,-90.0900900900901,4,1,1,52,0,0
120668,-90.0900900900901,4,1,1,72,0,0
120811,-90.0900900900901,4,1,1,52,0,0
120882,-90.0900900900901,4,1,1,70,0,0
121168,-90.0900900900901,4,1,1,71,0,0
121311,-90.0900900900901,4,1,1,55,0,0
121382,-90.0900900900901,4,1,1,74,0,0
121525,-90.0900900900901,4,1,1,55,0,0
121596,-90.0900900900901,4,1,1,77,0,0
121739,-90.0900900900901,4,1,1,55,0,0
121811,-90.0900900900901,4,1,1,77,0,0
121954,-90.0900900900901,4,1,1,55,0,0
122025,-90.0900900900901,4,1,1,77,0,0
122311,-100,4,1,71,65,0,0
122382,-100,4,1,1,60,0,0
124168,-100,4,1,6,48,0,0
124311,-100,4,1,6,52,0,0
124454,-100,4,1,6,55,0,0
124596,-90.0900900900901,4,1,72,60,0,0
124668,-90.0900900900901,4,1,1,60,0,0
125025,-90.0900900900901,4,1,1,60,0,0
125061,-90.0900900900901,4,1,1,35,0,0
125168,-90.0900900900901,4,1,1,60,0,0
125204,-90.0900900900901,4,1,1,35,0,0
125311,-90.0900900900901,4,1,1,60,0,0
125346,-90.0900900900901,4,1,1,35,0,0
125454,-90.0900900900901,4,1,1,60,0,0
125489,-90.0900900900901,4,1,1,35,0,0
125596,-90.0900900900901,4,1,1,60,0,0
125632,-90.0900900900901,4,1,1,35,0,0
125739,-90.0900900900901,4,1,28,60,0,0
125775,-90.0900900900901,4,1,1,35,0,0
125882,-90.0900900900901,4,1,1,60,0,0
125918,-90.0900900900901,4,1,1,35,0,0
126025,-90.0900900900901,4,1,1,60,0,0
126061,-90.0900900900901,4,1,1,35,0,0
126168,-90.0900900900901,4,1,1,60,0,0
126204,-90.0900900900901,4,1,1,35,0,0
126311,-90.0900900900901,4,1,33,70,0,0
126346,-90.0900900900901,4,1,1,35,0,0
126454,-90.0900900900901,4,1,33,70,0,0
126489,-90.0900900900901,4,1,1,35,0,0
126596,-90.0900900900901,4,1,33,70,0,0
126632,-90.0900900900901,4,1,1,35,0,0
126739,-90.0900900900901,4,1,33,70,0,0
126775,-90.0900900900901,4,1,1,35,0,0
126846,-90.0900900900901,4,1,71,60,0,0
126918,-90.0900900900901,4,1,1,60,0,0
128311,-90.0900900900901,4,1,6,60,0,0
128882,-90.0900900900901,4,1,6,60,0,0
129168,-90.0900900900901,4,1,73,60,0,0
129239,-90.0900900900901,4,1,1,60,0,0
129454,-90.0900900900901,4,1,6,60,0,0
129739,-90.0900900900901,4,1,1,60,0,0
129775,-90.0900900900901,4,1,1,35,0,0
129882,-90.0900900900901,4,1,1,60,0,0
129918,-90.0900900900901,4,1,1,35,0,0
130025,-90.0900900900901,4,1,1,60,0,0
130061,-90.0900900900901,4,1,1,35,0,0
130168,-90.0900900900901,4,1,1,60,0,0
130204,-90.0900900900901,4,1,1,35,0,0
130311,-90.0900900900901,4,1,1,60,0,0
130346,-90.0900900900901,4,1,1,35,0,0
130454,-90.0900900900901,4,1,33,70,0,0
130489,-90.0900900900901,4,1,1,35,0,0
130596,-90.0900900900901,4,1,7,60,0,0
130882,-90.0900900900901,4,1,29,75,0,0
131025,-90.0900900900901,4,1,29,5,0,0
131096,-90.0900900900901,4,1,29,75,0,0
131168,-90.0900900900901,4,1,29,5,0,0
131311,-90.0900900900901,4,1,29,75,0,0
131454,-90.0900900900901,4,1,31,50,0,0
131596,-90.0900900900901,4,1,31,20,0,0
131739,-90.0900900900901,4,1,31,50,0,0
131882,-90.0900900900901,4,1,31,20,0,0
132025,-90.0900900900901,4,1,31,53,0,0
132454,-90.0900900900901,4,1,31,20,0,0
132596,-90.0900900900901,4,1,31,54,0,0
132739,-90.0900900900901,4,1,31,20,0,0
132882,-90.0900900900901,4,1,31,57,0,0
133025,-90.0900900900901,4,1,6,58,0,0
133168,-90.0900900900901,4,1,6,60,0,0
133454,-90.0900900900901,4,1,6,67,0,0
133739,-90.0900900900901,4,1,72,70,0,0
133882,-90.0900900900901,4,1,1,50,0,0
134025,-90.0900900900901,4,1,1,60,0,0
134061,-90.0900900900901,4,1,1,20,0,0
134168,-90.0900900900901,4,1,1,60,0,0
134204,-90.0900900900901,4,1,1,20,0,0
134311,-90.0900900900901,4,1,1,60,0,0
134346,-90.0900900900901,4,1,1,20,0,0
134454,-90.0900900900901,4,1,6,60,0,0
134489,-90.0900900900901,4,1,1,20,0,0
134596,-90.0900900900901,4,1,6,60,0,0
134632,-90.0900900900901,4,1,1,20,0,0
134739,-90.0900900900901,4,1,6,60,0,0
134775,-90.0900900900901,4,1,1,20,0,0
134882,-90.0900900900901,4,1,1,60,0,0
134918,-90.0900900900901,4,1,1,20,0,0
135025,-90.0900900900901,4,1,1,60,0,0
135061,-90.0900900900901,4,1,1,20,0,0
135168,-90.0900900900901,4,1,1,60,0,0
135204,-90.0900900900901,4,1,1,20,0,0
135311,-90.0900900900901,4,1,1,60,0,0
135346,-90.0900900900901,4,1,1,20,0,0
135454,-90.0900900900901,4,1,33,70,0,0
135489,-90.0900900900901,4,1,1,20,0,0
135596,-90.0900900900901,4,1,33,70,0,0
135632,-90.0900900900901,4,1,1,20,0,0
135739,-90.0900900900901,4,1,33,70,0,0
135775,-90.0900900900901,4,1,1,20,0,0
135882,-90.0900900900901,4,1,33,70,0,0
135918,-90.0900900900901,4,1,1,20,0,0
136025,-90.0900900900901,4,1,31,55,0,0
136168,-90.0900900900901,4,1,31,30,0,0
136311,-90.0900900900901,4,1,31,55,0,0
136454,-90.0900900900901,4,1,31,30,0,0
136596,-90.0900900900901,4,1,31,58,0,0
137025,-90.0900900900901,4,1,31,35,0,0
137168,-90.0900900900901,4,1,31,58,0,0
137739,-90.0900900900901,4,1,28,65,0,0
137775,-90.0900900900901,4,1,7,35,0,0
138025,-90.0900900900901,4,1,29,65,0,0
138061,-90.0900900900901,4,1,1,35,0,0
138168,-90.0900900900901,4,1,29,65,0,0
138204,-90.0900900900901,4,1,1,35,0,0
138311,-90.0900900900901,4,1,31,46,0,0
138596,-90.0900900900901,4,1,31,48,0,0
138882,-90.0900900900901,4,1,31,51,0,0
139168,-90.0900900900901,4,1,31,53,0,0
139454,-90.0900900900901,4,1,31,55,0,0
139739,-90.0900900900901,4,1,31,57,0,0
140025,-90.0900900900901,4,1,31,59,0,0
140311,-90.0900900900901,4,1,31,62,0,0
140596,-90.0900900900901,4,1,6,60,0,0
141168,-90.0900900900901,4,1,1,60,0,0
141204,-90.0900900900901,4,1,1,35,0,0
141454,-90.0900900900901,4,1,28,35,0,0
141471,-90.0900900900901,4,1,28,25,0,0
141739,-90.0900900900901,4,1,6,60,0,0
142882,571.428571428571,4,1,71,60,1,0
142882,-100,4,1,71,60,0,0
149739,-50,4,1,6,40,0,0
151453,-50,4,1,6,50,0,0
151739,-50,4,1,6,55,0,0
152025,521.739130434783,4,1,8,60,1,0
152025,-50,4,1,8,60,0,0
154111,480,4,1,8,60,1,0
154111,-58.8235294117647,4,1,8,60,0,0
155131,-58.8235294117647,4,1,8,40,0,0
155431,-58.8235294117647,4,1,8,60,0,0
155491,-58.8235294117647,4,1,8,40,0,0
155791,-58.8235294117647,4,1,8,60,0,0
156031,444.444444444444,4,1,8,60,1,0
156031,-66.6666666666667,4,1,8,60,0,0
156947,-66.6666666666667,4,1,8,40,0,0
157169,-76.9230769230769,4,1,8,60,0,0
157308,-76.9230769230769,4,1,8,40,0,0
157531,-90.9090909090909,4,1,8,60,0,0
157808,413.793103448276,4,1,8,60,1,0
157808,-76.9230769230769,4,1,8,60,0,0
158221,-71.4285714285714,4,1,8,60,0,0
159462,387.096774193548,4,1,8,60,1,0
159462,-76.9230769230769,4,1,8,60,0,0
160574,-76.9230769230769,4,1,8,40,0,0
160768,-76.9230769230769,4,1,8,60,0,0
161010,363.636363636364,4,1,8,60,1,0
161010,-76.9230769230769,4,1,8,60,0,0
161782,-76.9230769230769,4,1,8,40,0,0
162010,-76.9230769230769,4,1,8,60,0,0
162055,-76.9230769230769,4,1,8,40,0,0
162260,-76.9230769230769,4,1,8,60,0,0
162464,342.857142857143,4,1,8,60,1,0
162464,-80,4,1,8,60,0,0
163835,324.324324324324,4,1,8,60,1,0
163835,-86.9565217391304,4,1,8,60,0,0
165132,315.789473684211,4,1,8,60,1,0
165132,-100,4,1,8,60,0,0
165763,307.692307692308,4,1,8,60,1,0
165763,-100,4,1,8,60,0,0
166378,292.682926829268,4,1,8,60,1,0
166378,-100,4,1,8,60,0,0
166963,-100,4,1,8,60,0,0
167109,-100,4,1,1,35,0,0
167256,-100,4,1,8,60,0,0
167402,-100,4,1,1,35,0,0
167548,279.06976744186,4,1,8,60,1,0
167548,-100,4,1,8,60,0,0
168664,266.666666666667,4,1,8,60,1,0
168664,-100,4,1,8,60,0,0
169064,-105.263157894737,4,1,1,60,0,0
169464,-105.263157894737,4,1,1,60,0,0
169730,255.31914893617,4,1,31,60,1,0
169730,-100,4,1,31,60,0,0
170049,-100,4,1,31,20,0,0
170112,-100,4,1,31,60,0,0
170240,-100,4,1,1,60,0,0
170751,240,4,1,1,60,1,0
170751,-100,4,1,1,60,0,0
171231,230.769230769231,4,1,1,60,1,0
171231,-100,4,1,1,60,0,0
171692,222.222222222222,4,1,1,60,1,0
171692,-100,4,1,1,60,0,0
172136,214.285714285714,4,1,1,60,1,0
172136,-100,4,1,1,60,0,0
172564,206.896551724138,4,1,1,60,1,0
172564,-100,4,1,1,60,0,0
172977,200,4,1,1,60,1,0
172977,-100,4,1,1,60,0,0
173377,193.548387096774,4,1,1,60,1,0
173377,-100,4,1,1,60,0,0
173764,187.5,4,1,1,60,1,0
173764,-100,4,1,1,60,0,0
174139,181.818181818182,4,1,1,60,1,0
174139,-100,4,1,1,60,0,0
174502,176.470588235294,4,1,1,60,1,0
174502,-100,4,1,1,60,0,0
174854,171.428571428571,4,1,1,60,1,0
174854,-100,4,1,1,60,0,0
175196,166.666666666667,4,1,1,60,1,0
175196,-100,4,1,1,60,0,0
175529,162.162162162162,4,1,1,60,1,0
175529,-100,4,1,1,60,0,0
175853,157.894736842105,4,1,1,60,1,0
175853,-100,4,1,1,60,0,0
176010,-100,4,1,1,60,0,0
176168,153.846153846154,4,1,1,60,1,0
176168,-100,4,1,1,60,0,0
176475,150,4,1,1,60,1,0
176475,-100,4,1,1,60,0,0
176775,146.341463414634,4,1,1,60,1,0
176775,-100,4,1,1,60,0,0
177067,142.857142857143,4,1,1,60,1,0
177067,-100,4,1,1,60,0,0
177352,139.53488372093,4,1,1,60,1,0
177352,-100,4,1,1,60,0,0
177631,136.363636363636,4,1,1,60,1,0
177631,-100,4,1,1,60,0,0
177903,133.333333333333,4,1,1,60,1,0
177903,-100,4,1,1,60,0,0
178036,-100,4,1,28,45,0,0
178069,-100,4,1,28,60,0,0
178169,127.659574468085,4,1,1,60,1,0
178169,-100,4,1,1,60,0,0
178296,122.448979591837,4,1,1,60,1,0
178296,-100,4,1,1,60,0,0
178418,113.207547169811,4,1,31,60,1,0
178418,-100,4,1,31,60,0,0
179323,95.2380952380952,4,1,31,60,1,0
179323,-100,4,1,31,60,0,0
180084,86.9565217391304,4,1,31,60,1,0
180084,-100,4,1,31,60,0,0
180779,77.9220779220779,4,1,31,60,1,0
180779,-100,4,1,31,60,0,0
181402,71.4285714285714,4,1,31,60,1,0
181402,-100,4,1,31,60,0,0
181973,62.5,4,1,31,60,1,0
181973,-100,4,1,31,60,0,0
182473,58.8235294117647,4,1,31,60,1,0
182473,-100,4,1,31,60,0,0
182943,54.5454545454545,4,1,31,60,1,0
182943,-100,4,1,31,60,0,0
183379,51.9480519480519,4,1,31,60,1,0
183379,-100,4,1,31,60,0,0
183430,-100,4,1,31,45,0,0
183586,-100,4,1,31,46,0,0
183742,-100,4,1,31,47,0,0
183898,-100,4,1,31,48,0,0
184054,-100,4,1,31,49,0,0
184210,-100,4,1,31,50,0,0
184366,-100,4,1,31,51,0,0
184521,-100,4,1,31,52,0,0
184677,-100,4,1,31,53,0,0
184833,-100,4,1,31,54,0,0
184989,-100,4,1,31,55,0,0
185145,-100,4,1,31,56,0,0
185301,-100,4,1,31,57,0,0
185456,-100,4,1,31,58,0,0
185612,-100,4,1,31,59,0,0
185768,-100,4,1,31,60,0,0
185924,-100,4,1,31,61,0,0
186080,-100,4,1,31,62,0,0
186236,-100,4,1,31,63,0,0
186391,-100,4,1,31,64,0,0
186547,-100,4,1,31,65,0,0
186703,-100,4,1,31,35,0,0
186911,285.714285714286,4,1,1,45,1,0
186911,-90.9090909090909,4,1,1,45,0,0
187482,-90.9090909090909,4,1,1,48,0,0
188053,-90.9090909090909,4,1,1,50,0,0
188339,-90.9090909090909,4,1,1,52,0,0
188625,-90.9090909090909,4,1,1,54,0,0
188911,-90.9090909090909,4,1,1,55,0,0
189196,-90.9090909090909,4,1,1,57,0,0
189768,-90.9090909090909,4,1,1,60,0,0
190339,-90.9090909090909,4,1,1,62,0,0
190625,-90.9090909090909,4,1,1,63,0,0
190911,-90.9090909090909,4,1,1,64,0,0
191196,-90.9090909090909,4,1,1,65,0,0
191482,-90.9090909090909,4,1,25,48,0,0
191625,-90.9090909090909,4,1,1,45,0,0
192053,-90.9090909090909,4,1,1,48,0,0
192482,-90.9090909090909,4,1,1,50,0,0
192911,-90.9090909090909,4,1,1,53,0,0
193196,-90.9090909090909,4,1,1,55,0,0
193411,-90.9090909090909,4,1,1,57,0,0
193625,-90.9090909090909,4,1,1,35,0,0
194339,-90.9090909090909,4,1,1,38,0,0
194911,-90.9090909090909,4,1,1,40,0,0
195196,-90.9090909090909,4,1,1,42,0,0
195482,-90.9090909090909,4,1,1,45,0,0
195768,-90.9090909090909,4,1,1,48,0,0
196053,-90.9090909090909,4,1,31,50,0,0
196482,-90.9090909090909,4,1,1,60,0,0
197196,-85.4700854700855,4,1,27,70,0,1
197268,-85.4700854700855,4,1,27,70,0,0
197338,-85.4700854700855,4,1,1,80,0,0
199196,-85.4700854700855,4,1,29,80,0,0
199481,-85.4700854700855,4,1,1,80,0,0
201196,-85.4700854700855,4,1,34,80,0,0
201767,-85.4700854700855,4,1,1,80,0,0
203767,-85.4700854700855,4,1,28,80,0,0
204053,-85.4700854700855,4,1,1,80,0,0
205481,-85.4700854700855,4,1,28,85,0,0
205624,-85.4700854700855,4,1,1,80,0,0
205767,-85.4700854700855,4,1,32,80,0,0
206053,-85.4700854700855,4,1,1,80,0,0
206338,-85.4700854700855,4,1,27,80,0,0
206481,-85.4700854700855,4,1,1,80,0,0
206910,-85.4700854700855,4,1,32,80,0,0
207481,-85.4700854700855,4,1,1,80,0,0
208053,-85.4700854700855,4,1,32,80,0,0
208481,-85.4700854700855,4,1,29,90,0,0
208624,-85.4700854700855,4,1,1,80,0,0
209196,-85.4700854700855,4,1,32,80,0,0
210338,-85.4700854700855,4,1,34,80,0,0
210910,-85.4700854700855,4,1,1,80,0,0
211481,-85.4700854700855,4,1,29,85,0,0
211981,-85.4700854700855,4,1,29,80,0,0
212624,-85.4700854700855,4,1,33,70,0,0
212767,-85.4700854700855,4,1,33,80,0,0
212838,-85.4700854700855,4,1,33,70,0,0
212981,-85.4700854700855,4,1,33,80,0,0
213053,-85.4700854700855,4,1,33,70,0,0
213124,-85.4700854700855,4,1,1,80,0,0
213196,-85.4700854700855,4,1,1,75,0,0
214053,-85.4700854700855,4,1,30,75,0,0
214338,-85.4700854700855,4,1,30,70,0,0
214910,-85.4700854700855,4,1,1,80,0,0
215482,-85.4700854700855,4,1,27,80,0,1
215553,-85.4700854700855,4,1,27,80,0,0
215624,-85.4700854700855,4,1,1,80,0,0
217481,-85.4700854700855,4,1,29,80,0,0
217767,-85.4700854700855,4,1,1,80,0,0
220053,-85.4700854700855,4,1,1,80,0,0
222910,-85.4700854700855,4,1,31,80,0,0
223100,-85.4700854700855,4,1,32,80,0,0
223124,-85.4700854700855,4,1,32,80,0,0
223481,-85.4700854700855,4,1,31,80,0,0
223672,-85.4700854700855,4,1,32,80,0,0
223696,-85.4700854700855,4,1,32,80,0,0
223862,-85.4700854700855,4,1,1,80,0,0
223910,-85.4700854700855,4,1,1,80,0,0
224053,-85.4700854700855,4,1,35,80,0,0
224196,-85.4700854700855,4,1,1,80,0,0
224481,-85.4700854700855,4,1,1,80,0,0
224624,-85.4700854700855,4,1,31,80,0,0
224696,-85.4700854700855,4,1,1,80,0,0
226624,-85.4700854700855,4,1,29,80,0,0
226910,-85.4700854700855,4,1,31,80,0,0
227053,-85.4700854700855,4,1,1,80,0,0
228624,-85.4700854700855,4,1,32,80,0,0
229053,-85.4700854700855,4,1,29,80,0,0
229196,-85.4700854700855,4,1,1,75,0,0
230338,-85.4700854700855,4,1,1,80,0,0
230910,-85.4700854700855,4,1,1,82,0,0
231481,-85.4700854700855,4,1,1,85,0,0
232338,-85.4700854700855,4,1,74,88,0,0
232624,-85.4700854700855,4,1,1,60,0,0
232767,-85.4700854700855,4,1,6,53,0,0
233338,-85.4700854700855,4,1,6,56,0,0
233481,-85.4700854700855,4,1,6,60,0,0
233768,-58.8235294117647,4,1,35,75,0,1
235910,-85.4700854700855,4,1,1,65,0,1
236053,-85.4700854700855,4,1,1,65,0,0
236624,-85.4700854700855,4,1,29,70,0,0
237196,-85.4700854700855,4,1,6,75,0,0
237767,-85.4700854700855,4,1,6,80,0,0
238339,-58.8235294117647,4,1,36,75,0,1
240481,-85.4700854700855,4,1,1,65,0,1
240625,-85.4700854700855,4,1,1,65,0,0
241196,-85.4700854700855,4,1,1,63,0,0
241481,-85.4700854700855,4,1,33,65,0,0
241767,-85.4700854700855,4,1,6,67,0,0
242338,-85.4700854700855,4,1,34,72,0,0
242624,-85.4700854700855,4,1,29,72,0,0
242911,-58.8235294117647,4,1,35,75,0,1
245053,-85.4700854700855,4,1,1,70,0,1
245196,-85.4700854700855,4,1,1,70,0,0
245767,-85.4700854700855,4,1,1,73,0,0
246338,-85.4700854700855,4,1,1,75,0,0
246910,-85.4700854700855,4,1,29,80,0,0
247481,-85.4700854700855,4,1,1,55,0,0
248053,-85.4700854700855,4,1,1,58,0,0
248624,-85.4700854700855,4,1,1,63,0,0
249196,-85.4700854700855,4,1,1,66,0,0
249767,-85.4700854700855,4,1,1,68,0,0
250196,-85.4700854700855,4,1,1,70,0,0
250624,-85.4700854700855,4,1,1,72,0,0
250660,-85.4700854700855,4,1,1,50,0,0
250910,-85.4700854700855,4,1,6,50,0,0
251196,-85.4700854700855,4,1,6,52,0,0
251481,-85.4700854700855,4,1,6,55,0,0
251624,-85.4700854700855,4,1,1,60,0,0
251767,-85.4700854700855,4,1,74,63,0,0
251838,-85.4700854700855,4,1,1,65,0,0
252053,-85.4700854700855,4,1,27,70,0,0
252124,-85.4700854700855,4,1,1,70,0,0
254053,-85.4700854700855,4,1,28,74,0,0
254124,-85.4700854700855,4,1,28,70,0,0
254338,-85.4700854700855,4,1,1,70,0,0
255231,-85.4700854700855,4,1,1,40,0,0
255338,-85.4700854700855,4,1,1,70,0,0
255481,-85.4700854700855,4,1,1,74,0,0
255910,-85.4700854700855,4,1,1,70,0,0
256196,-85.4700854700855,4,1,1,65,0,0
256624,-85.4700854700855,4,1,31,70,0,0
256696,-85.4700854700855,4,1,1,70,0,0
258624,-85.4700854700855,4,1,1,75,0,0
259053,-85.4700854700855,4,1,6,72,0,0
259767,-85.4700854700855,4,1,29,75,0,0
259803,-85.4700854700855,4,1,1,35,0,0
260053,-85.4700854700855,4,1,1,70,0,0
260624,-85.4700854700855,4,1,28,80,0,0
260660,-85.4700854700855,4,1,28,25,0,0
261196,-85.4700854700855,4,1,27,70,0,0
261267,-85.4700854700855,4,1,1,70,0,0
263196,-85.4700854700855,4,1,28,70,0,0
263267,-85.4700854700855,4,1,1,70,0,0
263624,-85.4700854700855,4,1,6,70,0,0
263767,-85.4700854700855,4,1,1,70,0,0
265196,-85.4700854700855,4,1,35,70,0,0
265231,-85.4700854700855,4,1,1,35,0,0
265481,-85.4700854700855,4,1,28,70,0,0
265517,-85.4700854700855,4,1,1,35,0,0
265767,-85.4700854700855,4,1,1,75,0,0
266196,-85.4700854700855,4,1,1,75,0,0
266338,-85.4700854700855,4,1,1,75,0,0
266767,-85.4700854700855,4,1,1,75,0,0
268053,-85.4700854700855,4,1,31,75,0,0
269196,-85.4700854700855,4,1,31,55,0,0
269481,-85.4700854700855,4,1,31,58,0,0
269767,-85.4700854700855,4,1,31,62,0,0
270053,-85.4700854700855,4,1,31,70,0,0
270339,-85.4700854700855,4,1,27,80,0,1
270411,-85.4700854700855,4,2,1,75,0,0
270910,-85.4700854700855,4,2,1,72,0,0
271481,-85.4700854700855,4,2,1,68,0,0
272624,-85.4700854700855,4,2,1,65,0,0
273196,-85.4700854700855,4,2,1,63,0,0
273767,-85.4700854700855,4,2,1,60,0,0
274910,-100,4,2,1,58,0,0
276624,-100,4,2,1,55,0,0
277196,-100,4,2,1,53,0,0
278338,-100,4,2,1,50,0,0
279481,300,4,2,88,55,1,0
279481,-100,4,2,88,55,0,0
279631,-100,4,2,1,45,0,0
281881,315.789473684211,4,2,1,45,1,0
281881,-100,4,2,1,45,0,0
284407,333.333333333333,4,2,1,45,1,0
284407,-100,4,2,1,45,0,0
287406,530.973451327434,4,2,1,45,1,0
287406,-100,4,2,1,45,0,0
287911,600,4,2,1,45,1,0
287911,-100,4,2,1,45,0,0
288446,530.973451327434,4,2,1,45,1,0
288446,-100,4,2,1,45,0,0
288976,434.782608695652,4,2,1,45,1,0
288976,-100,4,2,1,45,0,0
289519,434.782608695652,4,1,31,55,1,1
289519,-100,4,1,31,55,0,1
289627,-100,4,1,31,55,0,0
289736,-100,4,2,1,8,0,0
291258,-100,4,2,1,6,0,0
292997,-100,4,2,1,5,0,0
298214,-100,4,2,90,5,0,0

[Colours]
Combo1 : 80,197,235
Combo2 : 207,207,207
Combo3 : 109,151,192
Combo4 : 140,236,236

[HitObjects]
256,189,12596,5,4,1:0:0:0:
111,193,13168,6,0,L|421:193,2,287.999991210938,2|2|2,0:0|0:0|0:0,0:0:0:0:
346,377,14882,6,0,P|432:337|339:17,1,512,2|2,0:0|0:0,0:0:0:0:
83,26,16596,1,2,0:0:0:0:
428,26,17168,1,2,0:0:0:0:
256,192,17311,12,0,21454,0:0:0:0:
198,255,21739,6,0,P|133:217|212:144,1,203.199998449707,4|8,0:0|0:0,0:0:0:0:
317,140,22168,2,0,L|318:250,1,101.599999224854
117,252,22454,2,0,P|52:214|131:141,1,203.199998449707,4|0,0:0|0:0,0:0:0:0:
341,337,22882,6,0,P|419:313|458:188,1,203.199998449707,2|8,0:0|0:0,0:0:0:0:
330,181,23311,2,0,L|225:179,2,92.0000017547608,2|2|4,0:0|0:0|0:0,0:0:0:0:
469,116,23739,2,0,L|480:223,1,92.0000017547608,8|2,0:0|0:0,0:0:0:0:
249,124,24025,6,0,L|41:124,1,203.199998449707,4|8,0:0|0:0,0:0:0:0:
162,151,24454,2,0,L|174:264,1,101.599999224854
386,337,24739,2,0,L|178:337,1,203.199998449707,4|0,0:0|0:0,0:0:0:0:
462,176,25168,6,0,P|432:83|341:47,1,203.199998449707,4|8,0:0|0:0,0:0:0:0:
196,210,25596,2,0,L|302:211,2,92.0000017547608,2|2|4,0:0|0:0|0:0,0:0:0:0:
56,210,26025,2,0,L|47:342,1,92.0000017547608,8|2,0:0|0:0,0:0:0:0:
329,324,26311,6,0,P|394:286|315:213,1,203.199998449707,4|8,0:0|0:0,0:0:0:0:
195,209,26740,2,0,L|190:318,1,101.599999224854
425,323,27026,2,0,P|490:285|411:212,1,203.199998449707,4|0,0:0|0:0,0:0:0:0:
178,331,27454,5,4,0:0:0:0:
105,275,27596,1,0,0:0:0:0:
88,184,27739,1,8,0:0:0:0:
121,99,27882,1,0,0:0:0:0:
263,112,28025,2,0,L|272:-7,1,95.9999970703126,0|4,0:0|0:0,0:0:0:0:
124,23,28311,2,0,L|219:22,1,95.9999970703126,8|0,0:0|0:0,0:0:0:0:
454,328,28596,6,0,L|468:199,1,95.9999970703126,4|4,0:0|0:0,0:0:0:0:
226,262,28882,2,0,L|96:263,1,95.9999970703126,4|4,0:0|0:0,0:0:0:0:
376,148,29168,2,0,L|506:149,1,95.9999970703126,4|4,0:0|0:0,0:0:0:0:
241,136,29454,2,0,L|172:136,1,50.7999996124268,4|0,0:0|0:0,0:0:0:0:
190,136,29596,2,0,L|251:136,1,50.7999996124268,4|0,0:0|0:0,0:0:0:0:
441,216,29739,6,0,L|451:338,1,101.599999224854,2|2,0:2|0:2,0:0:0:0:
314,317,30025,1,2,0:2:0:0:
183,315,30168,2,0,P|116:276|197:216,1,203.199998449707,2|2,0:2|1:2,0:0:0:0:
311,209,30596,1,4,0:0:0:0:
435,206,30739,1,4,0:0:0:0:
181,278,30882,6,0,P|124:243|201:155,1,198.399992128907,12|10,0:0|0:0,0:0:0:0:
304,148,31311,1,2,0:0:0:0:
180,161,31454,2,0,L|168:268,1,99.1999960644533,4|4,0:0|0:0,0:0:0:0:
306,239,31739,2,0,L|413:236,1,99.1999960644533,8|0,0:0|0:0,0:0:0:0:
188,303,32025,6,0,L|81:300,2,99.1999960644533,6|2|10,0:0|0:0|0:0,0:0:0:0:
315,233,32454,2,0,L|77:225,1,198.399992128907,2|4,0:0|0:0,0:0:0:0:
235,230,32882,1,8,0:0:0:0:
121,227,33025,1,0,0:0:0:0:
376,330,33168,6,0,P|441:300|366:234,1,198.399992128907,6|10,0:0|0:0,0:0:0:0:
267,205,33596,1,2,0:0:0:0:
157,186,33739,2,0,L|150:313,1,99.1999960644533,4|4,0:0|0:0,0:0:0:0:
282,288,34025,1,8,0:0:0:0:
412,291,34168,1,0,0:0:0:0:
201,290,34311,5,6,0:0:0:0:
71,293,34454,1,2,0:0:0:0:
201,290,34596,1,10,0:0:0:0:
332,283,34739,2,0,P|392:241|322:160,1,198.399992128907,2|4,0:1|0:0,0:0:0:0:
213,102,35168,2,0,L|339:110,1,99.1999960644533,8|0,0:0|0:0,0:0:0:0:
57,107,35454,6,0,L|41:313,1,198.399992128907,6|10,0:0|0:0,0:0:0:0:
160,294,35882,1,2,0:0:0:0:
278,263,36025,2,0,L|290:370,1,99.1999960644533,4|4,0:0|0:0,0:0:0:0:
139,339,36311,2,0,L|32:336,1,99.1999960644533,8|0,0:0|0:0,0:0:0:0:
261,174,36596,6,0,L|368:171,2,99.1999960644533,6|2|10,0:0|0:0|0:0,0:0:0:0:
131,184,37025,2,0,P|143:108|257:63,1,198.399992128907,2|4,0:0|0:0,0:0:0:0:
386,106,37454,2,0,L|493:103,1,99.1999960644533,8|0,0:0|0:0,0:0:0:0:
265,322,37739,6,0,P|207:281|287:198,1,198.399992128907,6|10,0:0|0:0,0:0:0:0:
396,197,38168,1,2,0:0:0:0:
266,194,38311,2,0,L|257:300,1,99.1999960644533,4|4,0:0|0:0,0:0:0:0:
390,291,38596,1,8,0:0:0:0:
257,292,38739,1,2,1:2:0:0:
108,289,38882,6,0,L|105:174,1,99.1999960644533,4|6,0:0|1:1,0:0:0:0:
241,186,39168,1,8,0:0:0:0:
466,90,39311,2,0,L|475:176,1,49.5999980322266,10|0,0:0|0:0,0:0:0:0:
347,179,39525,2,0,L|278:179,1,49.5999980322266,6|0,0:0|0:0,0:0:0:0:
463,179,39739,1,8,0:0:0:0:
473,283,39882,1,4,0:0:0:0:
235,280,40025,6,0,L|14:262,1,198.399992128907,12|10,0:0|0:0,0:0:0:0:
162,243,40454,1,2,0:0:0:0:
285,214,40596,2,0,L|290:101,1,99.1999960644533,4|4,1:0|1:0,0:0:0:0:
141,89,40882,2,0,L|34:94,1,99.1999960644533,8|0,0:0|0:0,0:0:0:0:
252,257,41168,6,0,L|359:262,2,99.1999960644533,6|2|10,0:0|0:0|0:0,0:0:0:0:
108,277,41596,2,0,P|128:205|256:155,1,198.399992128907,2|4,0:0|0:0,0:0:0:0:
92,122,42025,2,0,L|83:247,1,99.1999960644533,8|0,0:0|0:0,0:0:0:0:
302,282,42311,6,0,P|356:241|295:139,1,198.399992128907,6|10,0:0|0:0,0:0:0:0:
196,134,42739,1,2,0:0:0:0:
343,81,42882,2,0,L|346:209,1,99.1999960644533,4|4,0:0|0:0,0:0:0:0:
210,181,43168,1,8,0:0:0:0:
345,180,43311,1,0,0:0:0:0:
41,81,43454,5,6,0:0:0:0:
157,79,43597,1,2,0:0:0:0:
41,81,43739,1,10,0:0:0:0:
279,244,43882,2,0,L|497:257,1,198.399992128907,2|4,0:0|0:0,0:0:0:0:
342,277,44311,1,8,0:0:0:0:
337,176,44454,1,0,0:0:0:0:
125,239,44596,6,0,P|48:189|140:38,1,297.59998819336,12|0,0:0|0:0,0:0:0:0:
367,60,45168,1,8,0:0:0:0:
375,157,45311,1,0,0:0:0:0:
253,161,45454,1,0,0:0:0:0:
261,258,45597,1,0,0:0:0:0:
55,65,45739,5,4,0:0:0:0:
47,162,45882,1,0,0:0:0:0:
169,166,46025,1,0,0:0:0:0:
161,263,46168,1,4,0:0:0:0:
425,203,46311,5,10,0:0:0:0:
299,202,46454,1,2,0:0:0:0:
37,311,46596,1,2,0:0:0:0:
163,310,46739,1,6,0:0:0:0:
422,311,46882,6,0,L|489:312,2,49.5999980322266,4|0|0,0:0|0:0|0:0,0:0:0:0:
218,198,47168,2,0,L|99:198,1,99.1999960644533,10|0,0:0|0:0,0:0:0:0:
457,65,47454,5,2,0:0:0:0:
465,162,47597,1,2,0:0:0:0:
343,166,47740,1,2,0:0:0:0:
351,263,47883,1,2,0:0:0:0:
136,325,48025,6,0,P|63:280|126:197,1,198.399992128907,2|8,0:0|0:0,0:0:0:0:
237,209,48454,2,0,P|310:164|247:81,1,198.399992128907,2|2,0:0|0:0,0:0:0:0:
119,88,48882,2,0,L|14:92,1,99.1999960644533,4|4,0:0|0:0,0:0:0:0:
229,351,49168,6,0,P|318:295|213:69,1,396.799984257813,12|4,0:0|0:0,0:0:0:0:
349,55,49882,1,4,0:0:0:0:
117,131,50025,2,0,L|105:269,1,99.1999960644533,8|0,0:0|0:0,0:0:0:0:
324,303,50311,6,0,L|431:300,2,99.1999960644533,6|0|10,0:0|0:0|0:0,0:0:0:0:
197,233,50740,2,0,L|435:225,1,198.399992128907,2|4,0:0|0:0,0:0:0:0:
270,157,51168,2,0,L|163:161,1,99.1999960644533,8|0,0:0|0:0,0:0:0:0:
445,142,51454,6,0,L|457:34,1,99.1999960644533,6|0,0:0|0:0,0:0:0:0:
331,201,51739,2,0,L|216:203,1,99.1999960644533,10|0,0:0|0:0,0:0:0:0:
369,293,52025,2,0,L|484:295,1,99.1999960644533,0|4,0:0|0:0,0:0:0:0:
339,294,52311,1,8,0:0:0:0:
469,295,52454,1,0,0:0:0:0:
166,182,52596,5,6,0:0:0:0:
281,184,52739,1,0,0:0:0:0:
166,182,52882,1,10,0:0:0:0:
425,150,53025,1,2,0:0:0:0:
309,63,53168,2,0,L|144:52,2,148.79999409668,6|2|2,0:0|0:0|0:0,0:0:0:0:
96,320,53739,6,0,P|40:282|113:189,1,198.399992128907,6|10,0:0|0:0,0:0:0:0:
217,188,54168,1,2,0:0:0:0:
345,187,54311,2,0,L|350:300,1,99.1999960644533,4|4,0:0|0:0,0:0:0:0:
215,327,54596,2,0,L|101:328,1,99.1999960644533,8|0,0:0|0:0,0:0:0:0:
340,184,54882,6,0,L|345:297,1,99.1999960644533,6|0,0:0|0:0,0:0:0:0:
218,281,55168,1,10,0:0:0:0:
346,280,55311,2,0,P|410:252|331:190,1,198.399992128907,2|4,0:0|0:0,0:0:0:0:
208,140,55739,2,0,L|307:139,1,99.1999960644533,8|0,0:0|0:0,0:0:0:0:
68,285,56025,6,0,L|276:280,1,198.399992128907,6|10,0:0|0:0,0:0:0:0:
145,255,56454,1,2,0:0:0:0:
265,219,56596,2,0,L|274:362,1,99.1999960644533,4|4,0:0|0:0,0:0:0:0:
132,359,56882,2,0,L|254:354,1,99.1999960644533,8|0,0:0|0:0,0:0:0:0:
463,182,57168,6,0,L|468:287,1,99.1999960644533,4|0,0:0|0:0,0:0:0:0:
351,277,57454,1,8,0:0:0:0:
111,108,57596,2,0,L|180:106,1,49.5999980322266,0|8,0:0|0:0,0:0:0:0:
278,177,57811,2,0,L|202:180,1,49.5999980322266,4|8,0:0|0:0,0:0:0:0:
93,258,58025,2,0,L|237:249,1,99.1999960644533,8|4,0:0|0:0,0:0:0:0:
465,360,58311,6,0,L|467:45,1,297.59998819336,12|0,0:0|0:0,0:0:0:0:
184,296,58882,2,0,L|182:175,1,99.1999960644533,4|4,0:0|0:0,0:0:0:0:
315,237,59168,2,0,L|429:236,1,99.1999960644533,8|0,0:0|0:0,0:0:0:0:
164,300,59454,6,0,L|57:305,2,99.1999960644533,6|0|10,0:0|0:0|0:0,0:0:0:0:
301,320,59882,2,0,P|281:248|153:198,1,198.399992128907,2|4,0:0|0:0,0:0:0:0:
310,165,60311,2,0,L|319:290,1,99.1999960644533,8|0,0:0|0:0,0:0:0:0:
54,144,60596,6,0,L|262:135,1,198.399992128907,6|10,0:0|0:0,0:0:0:0:
377,91,61025,1,2,0:0:0:0:
249,98,61168,2,0,L|231:237,1,99.1999960644533,4|4,0:0|0:0,0:0:0:0:
366,200,61454,1,8,0:0:0:0:
493,198,61596,1,0,0:0:0:0:
206,309,61739,5,6,0:0:0:0:
333,307,61881,1,0,0:0:0:0:
206,309,62025,1,10,0:0:0:0:
333,307,62168,1,2,0:0:0:0:
93,251,62311,2,0,L|92:129,1,99.1999960644533,6|4,0:0|0:0,0:0:0:0:
185,59,62596,2,0,L|253:68,1,49.5999980322266,8|0,0:0|0:0,0:0:0:0:
162,112,62739,2,0,L|94:121,1,49.5999980322266,8|4,0:0|0:0,0:0:0:0:
246,158,62882,6,0,L|357:170,1,99.1999960644533,6|0,0:0|0:0,0:0:0:0:
471,106,63168,2,0,L|373:98,1,99.1999960644533,6|0,0:0|0:0,0:0:0:0:
249,165,63454,2,0,L|254:278,1,99.1999960644533,6|0,0:0|0:0,0:0:0:0:
390,121,63739,2,0,L|500:131,1,99.1999960644533,6|0,0:0|0:0,0:0:0:0:
160,233,64025,6,0,L|165:346,1,99.1999960644533,6|2,0:0|0:0,0:0:0:0:
302,188,64311,2,0,L|412:198,1,99.1999960644533,4|6,0:0|0:0,0:0:0:0:
254,165,64596,1,4,0:0:0:0:
254,165,64739,1,4,0:0:0:0:
485,162,64882,2,0,L|365:161,1,99.1999960644533,2|8,0:0|0:0,0:0:0:0:
96,346,65168,6,0,L|90:240,1,99.1999960644533,4|4,0:0|0:0,0:0:0:0:
235,205,65454,2,0,L|126:204,1,99.1999960644533,12|4,0:0|0:0,0:0:0:0:
385,280,65739,2,0,L|498:279,1,99.1999960644533,12|4,0:0|0:0,0:0:0:0:
218,111,66025,2,0,L|331:110,1,99.1999960644533,12|4,0:0|0:0,0:0:0:0:
87,271,66311,5,6,0:0:0:0:
42,244,66382,1,0,0:0:0:0:
23,191,66454,1,6,0:0:0:0:
42,138,66525,1,0,0:0:0:0:
87,111,66596,1,6,0:0:0:0:
293,183,66739,5,6,0:0:0:0:
338,156,66810,1,0,0:0:0:0:
357,103,66882,1,6,0:0:0:0:
338,50,66953,1,0,0:0:0:0:
293,23,67024,1,6,0:0:0:0:
148,61,67168,6,0,L|81:63,2,49.5999980322266
441,300,67454,6,0,L|441:107,1,177.600004335938,12|10,0:0|0:2,0:0:0:0:
321,120,67882,1,0,0:2:0:0:
201,118,68025,2,0,L|200:229,1,88.8000021679688,4|2,0:1|0:2,0:0:0:0:
337,200,68311,2,0,L|438:201,1,88.8000021679688,8|2,0:0|0:2,0:0:0:0:
203,349,68596,5,4,0:0:0:0:
118,300,68739,1,0,0:0:0:0:
91,205,68882,1,8,0:0:0:0:
132,116,69025,1,0,0:0:0:0:
273,316,69168,1,4,0:0:0:0:
358,267,69311,1,0,0:0:0:0:
385,172,69454,1,8,0:0:0:0:
344,83,69597,1,4,0:0:0:0:
112,49,69739,6,0,L|15:39,2,88.8000021679688,4|2|10,0:2|0:2|0:2,0:0:0:0:
248,181,70168,2,0,P|297:139|235:56,1,177.600004335938,2|0,0:2|0:0,0:0:0:0:
117,94,70596,2,0,L|115:198,1,88.8000021679688,8|0,0:0|0:0,0:0:0:0:
348,262,70882,5,4,0:0:0:0:
435,218,71025,1,0,0:0:0:0:
456,122,71168,1,8,0:0:0:0:
431,27,71311,1,4,0:0:0:0:
292,23,71454,1,4,0:0:0:0:
121,58,71882,1,4,0:0:0:0:
255,101,72025,6,0,P|306:140|251:222,1,177.600004335938,2|8,0:2|0:0,0:0:0:0:
121,101,72454,2,0,P|70:140|125:222,1,177.600004335938,2|0,0:2|0:0,0:0:0:0:
252,192,72882,2,0,L|382:206,1,88.8000021679688,10|0,0:2|0:0,0:0:0:0:
125,359,73168,5,4,0:0:0:0:
45,302,73311,1,0,0:0:0:0:
28,205,73454,1,10,0:2:0:0:
63,114,73596,1,0,0:0:0:0:
151,72,73739,1,4,0:0:0:0:
262,72,73882,1,0,0:0:0:0:
127,72,74025,1,10,0:2:0:0:
262,72,74168,1,2,0:2:0:0:
476,74,74311,6,0,L|483:204,1,88.8000021679688,2|8,0:0|0:0,0:0:0:0:
345,197,74596,2,0,L|252:183,1,88.8000021679688,4|8,0:0|0:0,0:0:0:0:
381,276,74882,2,0,P|451:245|425:143,1,177.600004335938,4|2,0:0|0:0,0:0:0:0:
327,159,75311,1,2,0:1:0:0:
105,251,75454,5,4,0:0:0:0:
93,162,75596,1,4,0:0:0:0:
330,146,75739,1,12,0:0:0:0:
342,57,75881,1,4,0:0:0:0:
106,160,76025,1,12,0:0:0:0:
94,71,76167,1,4,0:0:0:0:
326,186,76311,1,10,0:1:0:0:
466,181,76454,1,6,0:0:0:0:
101,236,76596,6,0,P|49:194|128:120,1,177.600004335938,6|8,0:0|0:0,0:0:0:0:
240,154,77025,2,0,L|354:153,1,88.8000021679688,4|4,0:0|0:0,0:0:0:0:
101,236,77311,2,0,P|49:194|128:120,1,177.600004335938,6|0,0:0|0:0,0:0:0:0:
341,68,77739,6,0,L|350:184,1,88.8000021679688,4|4,0:0|0:0,0:0:0:0:
213,138,78025,1,8,0:0:0:0:
348,156,78168,2,0,P|420:176|458:292,1,177.600004335938,2|4,0:0|0:0,0:0:0:0:
338,266,78596,1,8,0:0:0:0:
214,267,78739,1,2,0:0:0:0:
483,211,78882,6,0,L|285:183,1,177.600004335938,6|8,0:0|0:0,0:0:0:0:
165,233,79311,1,4,0:0:0:0:
165,233,79454,1,0,0:0:0:0:
429,291,79596,2,0,L|231:263,1,177.600004335938,6|0,0:0|0:0,0:0:0:0:
457,124,80025,6,0,L|467:241,1,88.8000021679688,4|4,0:0|0:0,0:0:0:0:
339,220,80311,1,8,0:0:0:0:
215,219,80454,2,0,L|419:221,1,177.600004335938,0|4,0:0|0:0,0:0:0:0:
263,218,80882,1,8,0:0:0:0:
133,220,81025,1,4,0:0:0:0:
337,314,81168,6,0,P|396:293|371:171,1,177.600004335938,6|8,0:0|0:0,0:0:0:0:
260,147,81596,2,0,L|145:148,1,88.8000021679688,4|0,0:0|0:0,0:0:0:0:
396,324,81882,2,0,P|455:303|430:181,1,177.600004335938,6|0,0:0|0:0,0:0:0:0:
191,60,82311,6,0,L|185:172,1,88.8000021679688,2|0,0:0|0:0,0:0:0:0:
312,152,82596,1,8,0:0:0:0:
185,149,82739,1,0,0:0:0:0:
330,236,82882,1,0,0:0:0:0:
461,233,83025,1,2,0:0:0:0:
330,236,83168,1,8,0:0:0:0:
461,233,83311,1,0,0:0:0:0:
126,342,83454,5,4,0:0:0:0:
83,331,83525,1,0,0:0:0:0:
49,303,83596,1,4,0:0:0:0:
31,263,83668,1,0,0:0:0:0:
32,219,83739,1,4,0:0:0:0:
52,180,83811,1,0,0:0:0:0:
88,154,83882,1,4,0:0:0:0:
131,146,83953,1,0,0:0:0:0:
307,243,84025,5,4,0:0:0:0:
349,232,84096,1,0,0:0:0:0:
383,204,84167,1,4,0:0:0:0:
401,164,84239,1,0,0:0:0:0:
400,120,84310,1,4,0:0:0:0:
380,81,84382,1,0,0:0:0:0:
344,55,84453,1,0,0:0:0:0:
301,47,84524,1,0,0:0:0:0:
133,68,84596,5,2,0:2:0:0:
126,165,84739,1,2,0:2:0:0:
268,154,84882,1,2,0:2:0:0:
275,251,85025,1,2,0:2:0:0:
100,322,85311,2,0,L|92:263,5,44.4000010839844,4|0|8|0|0|0,0:0|0:0|0:0|0:0|0:0|0:0,0:0:0:0:
278,145,85739,6,0,L|384:146,1,88.8000021679688,12|0,0:0|0:0,0:0:0:0:
224,212,86025,2,0,L|129:214,1,88.8000021679688,8|0,0:0|0:0,0:0:0:0:
280,244,86311,2,0,P|362:220|358:111,1,177.600004335938,4|8,0:0|0:0,0:0:0:0:
242,139,86739,1,0,0:0:0:0:
462,349,86882,6,0,L|468:236,1,88.8000021679688,4|0,0:0|0:0,0:0:0:0:
330,288,87168,2,0,L|241:288,1,88.8000021679688,8|0,0:0|0:0,0:0:0:0:
378,197,87454,2,0,L|466:197,1,88.8000021679688,4|4,0:0|0:0,0:0:0:0:
181,206,87739,1,10,0:0:0:0:
38,209,87882,1,2,0:0:0:0:
329,160,88025,6,0,L|417:160,1,88.8000021679688,4|0,0:0|0:0,0:0:0:0:
279,215,88311,2,0,L|274:335,1,88.8000021679688,8|0,0:0|0:0,0:0:0:0:
409,355,88596,2,0,P|475:327|464:216,1,177.600004335938,4|8,0:0|0:0,0:0:0:0:
353,227,89025,1,0,0:0:0:0:
148,201,89168,6,0,P|99:167|162:83,1,177.600004335938,4|8,0:0|0:0,0:0:0:0:
274,75,89596,1,4,0:0:0:0:
400,73,89739,2,0,L|411:168,1,88.8000021679688,4|2,0:0|0:0,0:0:0:0:
151,227,90025,2,0,L|62:229,1,88.8000021679688,8|6,0:0|0:0,0:0:0:0:
330,330,90311,6,0,L|499:326,2,133.200003251953,4|0|0,0:1|0:0|0:0,0:0:0:0:
197,228,90882,2,0,L|190:338,1,88.8000021679688,4|0,0:0|0:0,0:0:0:0:
330,241,91168,2,0,L|419:239,1,88.8000021679688,8|0,0:0|0:0,0:0:0:0:
139,105,91454,6,0,L|132:215,1,88.8000021679688,4|0,0:0|0:0,0:0:0:0:
269,184,91739,2,0,L|276:294,1,88.8000021679688,8|0,0:0|0:0,0:0:0:0:
137,289,92025,2,0,L|25:298,1,88.8000021679688,4|0,0:0|0:0,0:0:0:0:
327,332,92311,2,0,L|439:341,1,88.8000021679688,10|0,0:0|0:0,0:0:0:0:
185,100,92596,6,0,L|73:109,2,88.8000021679688,4|0|8,0:0|0:0|0:0,0:0:0:0:
333,159,93025,1,0,0:0:0:0:
333,159,93096,1,0,0:0:0:0:
333,159,93168,1,4,0:0:0:0:
189,203,93311,2,0,L|178:301,1,88.8000021679688,0|8,0:0|0:0,0:0:0:0:
311,292,93596,1,4,0:0:0:0:
68,336,93739,6,0,L|57:168,1,133.200003251953,2|2,0:1|0:1,0:0:0:0:
419,187,94168,2,0,L|430:19,1,133.200003251953,2|2,0:1|0:1,0:0:0:0:
223,123,94596,1,6,0:0:0:0:
98,120,94739,1,4,0:0:0:0:
337,255,94882,6,0,P|396:234|316:199,1,177.600004335938,4|8,0:2|0:0,0:0:0:0:
197,179,95311,1,0,0:0:0:0:
447,112,95454,2,0,L|458:226,1,88.8000021679688,4|0,0:0|0:0,0:0:0:0:
317,222,95739,2,0,L|211:211,1,88.8000021679688,8|0,0:0|0:0,0:0:0:0:
430,313,96025,6,0,L|484:308,2,44.4000010839844,4|0|0,0:0|0:0|0:0,0:0:0:0:
294,232,96311,1,8,0:0:0:0:
346,233,96382,1,0,0:0:0:0:
399,234,96454,1,0,0:0:0:0:
268,321,96596,2,0,L|162:317,1,88.8000021679688,4|4,0:0|0:0,0:0:0:0:
431,85,96882,1,10,0:0:0:0:
440,184,97025,1,0,0:0:0:0:
203,93,97168,6,0,L|121:95,1,44.4000010839844,4|2,0:0|0:0,0:0:0:0:
292,160,97382,2,0,L|345:160,1,44.4000010839844,6|8,0:0|0:0,0:0:0:0:
203,211,97596,1,4,0:0:0:0:
471,364,97739,2,0,L|477:269,1,88.8000021679688,4|4,0:0|0:0,0:0:0:0:
343,257,98025,2,0,L|448:262,1,88.8000021679688,8|2,0:0|0:2,0:0:0:0:
171,93,98311,6,0,L|276:98,1,88.8000021679688,4|2,0:0|0:2,0:0:0:0:
402,70,98596,2,0,L|290:64,1,88.8000021679688,8|0,0:0|0:0,0:0:0:0:
170,157,98882,2,0,L|163:35,1,88.8000021679688,6|6,0:0|0:1,0:0:0:0:
372,268,99168,1,10,0:0:0:0:
491,261,99311,1,4,0:0:0:0:
203,348,99454,6,0,P|114:291|231:225,1,266.400006503906,6|0,0:0|0:0,0:0:0:0:
354,215,100025,1,8,0:0:0:0:
364,120,100168,1,0,0:0:0:0:
131,232,100311,1,0,0:0:0:0:
121,137,100454,1,0,0:0:0:0:
356,120,100596,5,4,0:0:0:0:
478,121,100739,1,0,0:0:0:0:
356,120,100882,1,4,0:0:0:0:
478,121,101025,1,0,0:0:0:0:
261,47,101168,1,10,0:0:0:0:
139,48,101311,1,2,0:0:0:0:
358,244,101454,2,0,P|394:199|342:135,1,133.200003251953,2|0,0:0|0:0,0:0:0:0:
152,137,101739,6,0,L|143:324,1,177.600004335938,4|0,0:2|0:0,0:0:0:0:
279,230,102168,1,0,0:0:0:0:
132,267,102311,2,0,L|123:127,1,133.200003251953,2|2,0:0|0:0,0:0:0:0:
303,129,102596,1,2,0:0:0:0:
428,133,102739,1,2,0:0:0:0:
144,199,102882,5,4,0:1:0:0:
256,192,103025,12,0,103882,0:0:0:0:
276,277,104025,6,0,L|467:262,2,177.600004335938,12|8|4,0:0|0:0|0:0,0:0:0:0:
147,207,104739,1,4,0:0:0:0:
401,128,104882,2,0,L|504:137,1,88.8000021679688,8|0,0:0|0:0,0:0:0:0:
275,330,105168,6,0,P|216:306|199:198,1,177.600004335938,4|8,0:0|0:0,0:0:0:0:
328,187,105596,1,0,0:0:0:0:
460,159,105739,2,0,L|471:259,1,88.8000021679688,4|4,0:0|0:0,0:0:0:0:
194,318,106025,2,0,L|91:327,1,88.8000021679688,8|0,0:0|0:0,0:0:0:0:
377,339,106311,6,0,P|425:316|361:229,1,177.600004335938,4|8,0:0|0:0,0:0:0:0:
244,291,106739,2,0,L|236:188,1,88.8000021679688,0|4,0:0|0:0,0:0:0:0:
362,188,107025,1,0,0:0:0:0:
226,152,107168,2,0,L|219:44,1,88.8000021679688,8|2,0:0|0:0,0:0:0:0:
364,50,107454,1,4,0:0:0:0:
95,279,107596,6,0,P|42:237|103:166,1,177.600004335938,2|0,0:0|0:0,0:0:0:0:
239,100,108025,2,0,L|142:90,1,88.8000021679688,4|0,0:0|0:0,0:0:0:0:
292,192,108311,2,0,L|389:182,1,88.8000021679688,8|4,0:0|0:0,0:0:0:0:
125,336,108596,6,0,L|320:318,1,177.600004335938,4|8,0:2|0:0,0:0:0:0:
441,263,109025,2,0,L|338:249,1,88.8000021679688,4|4,0:0|0:0,0:0:0:0:
211,272,109311,1,0,0:0:0:0:
353,251,109454,2,0,L|363:346,1,88.8000021679688,8|0,0:0|0:0,0:0:0:0:
106,326,109739,6,0,L|197:340,1,88.8000021679688,4|0,0:0|0:0,0:0:0:0:
58,267,110025,2,0,P|73:206|180:159,1,177.600004335938,8|0,0:0|0:0,0:0:0:0:
304,161,110454,1,4,0:0:0:0:
169,157,110596,2,0,L|70:152,1,88.8000021679688,8|4,0:0|0:0,0:0:0:0:
327,86,110882,6,0,L|331:194,1,88.8000021679688,4|0,0:2|0:0,0:0:0:0:
195,142,111168,2,0,L|131:141,2,44.4000010839844,8|0|4,0:0|0:0|0:0,0:0:0:0:
331,248,111454,2,0,L|445:246,2,88.8000021679688,0|2|8,0:0|0:0|0:0,0:0:0:0:
189,277,111882,2,0,L|125:276,2,44.4000010839844,2|4|4,0:0|0:0|0:0,0:0:0:0:
476,332,112168,6,0,L|380:334,1,88.8000021679688,2|8,0:0|0:0,0:0:0:0:
156,177,112454,2,0,L|252:177,1,88.8000021679688,6|8,0:0|0:0,0:0:0:0:
389,126,112739,1,6,0:0:0:0:
130,294,112882,2,0,L|123:189,1,88.8000021679688,8|0,0:0|0:0,0:0:0:0:
371,246,113168,6,0,L|467:238,1,88.8000021679688,12|0,0:0|0:0,0:0:0:0:
326,150,113454,2,0,L|422:142,1,88.8000021679688,8|0,0:0|0:0,0:0:0:0:
281,74,113739,2,0,L|275:186,1,88.8000021679688,4|4,0:0|0:0,0:0:0:0:
420,216,114025,2,0,L|426:328,1,88.8000021679688,8|0,0:0|0:0,0:0:0:0:
205,224,114311,6,0,L|94:226,2,88.8000021679688,4|0|8,0:0|0:0|0:0,0:0:0:0:
455,334,114739,2,0,L|339:341,1,88.8000021679688,4|0,0:0|0:0,0:0:0:0:
130,305,115025,1,4,0:0:0:0:
259,298,115168,1,8,0:0:0:0:
130,305,115311,1,4,0:0:0:0:
366,281,115454,5,4,0:2:0:0:
453,242,115596,1,0,0:0:0:0:
478,149,115739,1,8,0:0:0:0:
448,57,115882,1,0,0:0:0:0:
310,98,116025,2,0,L|216:102,1,88.8000021679688,4|4,0:0|0:0,0:0:0:0:
369,225,116311,2,0,L|463:229,1,88.8000021679688,8|0,0:0|0:0,0:0:0:0:
165,325,116596,6,0,P|116:295|185:239,1,177.600004335938,4|8,0:0|0:0,0:0:0:0:
327,246,117025,2,0,L|336:147,1,88.8000021679688,4|0,0:0|0:0,0:0:0:0:
200,157,117311,1,4,0:0:0:0:
66,157,117454,2,0,L|57:245,1,88.8000021679688,8|4,0:0|0:0,0:0:0:0:
362,301,117739,6,0,P|413:277|371:176,1,177.600004335938,4|0,0:2|0:0,0:0:0:0:
271,119,118168,2,0,L|201:120,2,44.4000010839844,4|0|6,0:0|0:0|0:0,0:0:0:0:
403,114,118454,2,0,L|473:115,2,44.4000010839844,0|0|10,0:0|0:0|0:0,0:0:0:0:
185,259,118739,6,0,L|115:260,2,44.4000010839844,0|0|6,0:0|0:0|0:0,0:0:0:0:
317,254,119025,2,0,L|387:255,2,44.4000010839844,0|0|10,0:0|0:0|0:0,0:0:0:0:
182,336,119311,6,0,L|124:335,1,44.4000010839844
321,340,119454,2,0,L|430:337,1,88.8000021679688,6|0,0:0|0:0,0:0:0:0:
181,177,119739,6,0,L|158:171,6,22.2000005419922,2|0|0|0|0|0|0,0:0|0:0|0:0|0:0|0:0|0:0|0:0,0:0:0:0:
356,243,120025,6,0,L|494:238,3,133.200003251953,4|4|4|4,0:2|0:2|0:2|0:2,0:0:0:0:
152,290,120882,1,4,0:0:0:0:
152,290,121025,1,4,0:0:0:0:
380,160,121168,6,0,L|518:155,1,133.200003251953,4|4,0:2|0:2,0:0:0:0:
201,277,121596,2,0,L|63:272,1,133.200003251953,4|4,0:2|0:2,0:0:0:0:
254,314,122025,2,0,L|263:256,3,44.4000010839844,4|0|0|0,0:2|0:0|0:0|0:0,0:0:0:0:
455,198,122311,1,8,0:0:0:0:
270,117,124168,6,0,L|379:109,2,80,2|8|8,0:0|0:0|0:0,0:0:0:0:
67,229,124596,6,0,P|86:161|200:124,1,177.600004335938,8|0,0:0|0:0,0:0:0:0:
308,124,125025,1,4,0:0:0:0:
66,303,125168,1,8,0:0:0:0:
174,304,125311,2,0,L|195:216,2,88.8000021679688,0|4|0,0:0|0:0|0:0,0:0:0:0:
377,154,125739,5,6,0:0:0:0:
269,155,125882,2,0,L|248:67,2,88.8000021679688,0|4|0,0:0|0:0|0:0,0:0:0:0:
480,268,126311,2,0,L|366:269,1,88.8000021679688,10|2,0:0|0:0,0:0:0:0:
184,332,126596,2,0,L|70:333,1,88.8000021679688,2|6,0:0|0:0,0:0:0:0:
393,173,126882,1,8,0:0:0:0:
174,71,128311,6,0,L|160:189,1,88.8000021679688,2|4,0:0|0:0,0:0:0:0:
311,162,128596,2,0,L|325:280,1,88.8000021679688,0|4,0:0|0:0,0:0:0:0:
190,291,128882,2,0,L|183:362,3,44.4000010839844,2|0|4|4,0:0|0:0|0:0|0:0,0:0:0:0:
367,323,129168,6,0,P|430:298|407:201,1,177.600004335938,8|2,0:0|0:0,0:0:0:0:
365,180,129525,1,2,0:0:0:0:
340,137,129596,1,2,0:0:0:0:
358,84,129668,1,2,0:0:0:0:
409,67,129739,1,8,0:0:0:0:
272,89,129882,2,0,L|259:185,2,88.8000021679688
25,330,130311,6,0,L|135:323,1,88.8000021679688,4|2,0:0|0:0,0:0:0:0:
245,274,130596,2,0,L|258:203,2,44.4000010839844,2|2|2,0:0|0:0|0:0,0:0:0:0:
492,198,130882,2,0,L|331:183,2,133.200003251953,10|2|2,0:0|0:0|0:0,0:0:0:0:
271,271,131454,6,0,L|79:291,2,177.600004335938,6|10|6,0:0|0:0|0:0,0:0:0:0:
394,290,132168,1,2,0:0:0:0:
272,204,132311,2,0,L|260:319,1,88.8000021679688,10|0,0:0|0:0,0:0:0:0:
480,169,132596,6,0,L|371:155,1,88.8000021679688,6|0,0:0|0:0,0:0:0:0:
278,272,132882,2,0,L|387:258,1,88.8000021679688,10|4,0:0|0:0,0:0:0:0:
136,312,133168,2,0,L|127:190,1,88.8000021679688,2|2,0:0|0:0,0:0:0:0:
366,349,133454,1,10,0:0:0:0:
489,347,133596,1,4,0:0:0:0:
266,276,133739,6,0,P|214:238|294:168,1,177.600004335938,8|4,0:1|0:0,0:0:0:0:
392,161,134168,1,0,0:0:0:0:
140,319,134311,1,8,0:0:0:0:
248,320,134454,2,0,L|269:232,2,88.8000021679688,8|8|8,0:0|0:0|0:0,0:0:0:0:
451,170,134882,5,4,0:0:0:0:
343,171,135025,2,0,L|322:83,2,88.8000021679688,0|4|0,0:0|0:0|0:0,0:0:0:0:
141,157,135454,1,2,0:0:0:0:
26,159,135596,1,2,0:0:0:0:
283,324,135739,1,2,0:0:0:0:
398,326,135881,1,2,0:0:0:0:
143,346,136025,6,0,P|92:300|161:227,1,177.600004335938,6|10,0:0|0:0,0:0:0:0:
265,199,136454,1,0,0:0:0:0:
388,156,136596,2,0,L|394:251,1,88.8000021679688,6|2,0:0|0:0,0:0:0:0:
249,300,136882,2,0,L|142:291,1,88.8000021679688,10|0,0:0|0:0,0:0:0:0:
400,349,137168,6,0,L|520:342,1,88.8000021679688,6|2,0:0|0:0,0:0:0:0:
386,270,137454,2,0,L|506:263,1,88.8000021679688,10|2,0:0|0:0,0:0:0:0:
236,216,137739,5,2,0:0:0:0:
214,211,137774,1,0,0:0:0:0:
196,198,137810,1,0,0:0:0:0:
185,179,137846,1,0,0:0:0:0:
182,157,137881,1,0,0:0:0:0:
188,136,137917,1,0,0:0:0:0:
202,119,137953,1,0,0:0:0:0:
291,89,138025,6,0,L|332:91,6,22.2000005419922,10|0|0|0|2|0|0,0:0|0:0|0:0|0:0|0:0|0:0|0:0,0:0:0:0:
67,178,138311,6,0,L|54:286,1,88.8000021679688,6|0,0:0|0:0,0:0:0:0:
195,246,138596,2,0,L|208:354,1,88.8000021679688,10|0,0:0|0:0,0:0:0:0:
341,178,138882,2,0,L|328:286,1,88.8000021679688,6|4,0:0|0:0,0:0:0:0:
469,246,139168,2,0,L|482:354,1,88.8000021679688,10|0,0:0|0:0,0:0:0:0:
228,95,139454,6,0,L|108:101,1,88.8000021679688,6|0,0:0|0:0,0:0:0:0:
285,163,139739,2,0,L|405:169,1,88.8000021679688,10|4,0:0|0:0,0:0:0:0:
133,250,140025,2,0,L|13:256,1,88.8000021679688,2|4,0:0|0:0,0:0:0:0:
302,335,140311,2,0,L|422:341,1,88.8000021679688,10|4,0:0|0:0,0:0:0:0:
136,361,140596,5,4,0:0:0:0:
86,340,140668,1,0,0:0:0:0:
46,304,140739,1,2,0:0:0:0:
32,252,140811,1,0,0:0:0:0:
38,199,140882,1,8,0:0:0:0:
71,156,140954,1,0,0:0:0:0:
121,140,141025,1,0,0:0:0:0:
173,133,141096,1,0,0:0:0:0:
352,104,141168,6,0,L|362:172,3,44.4000010839844
188,228,141454,2,0,L|178:296,3,44.4000010839844
373,217,141739,5,2,0:0:0:0:
494,214,141882,1,4,0:0:0:0:
373,217,142025,1,8,0:0:0:0:
494,214,142168,1,2,0:0:0:0:
236,138,142454,1,4,0:0:0:0:
367,76,142596,2,0,L|371:151,3,44.4000010839844,8|4|0|0,0:0|0:0|0:0|0:0,0:0:0:0:
144,117,142882,1,8,0:0:0:0:
190,77,149739,6,0,L|176:256,1,160,2|2,0:0|0:0,0:0:0:0:
321,171,150167,2,0,L|384:165,2,40,0|0|4,0:0|0:0|0:0,0:0:0:0:
197,184,150453,1,4,0:0:0:0:
420,234,150596,1,8,0:0:0:0:
165,253,151024,5,2,0:0:0:0:
388,303,151167,1,8,0:0:0:0:
189,345,151453,2,0,P|142:305|196:216,1,160,8|4,0:0|0:0,0:0:0:0:
297,221,151882,1,4,0:0:0:0:
87,208,152025,6,0,P|92:152|181:95,1,160,4|8,0:0|0:0,0:0:0:0:
286,125,152416,2,0,L|117:107,1,160,0|8,0:0|0:0,0:0:0:0:
289,283,152938,1,0,0:0:0:0:
195,321,153068,2,0,L|390:310,1,160,8|0,0:0|0:0,0:0:0:0:
468,330,153459,2,0,P|456:258|367:209,1,160,8|0,0:0|0:0,0:0:0:0:
257,248,153851,2,0,L|171:241,1,80,2|2,0:0|0:0,0:0:0:0:
386,297,154111,6,0,P|437:262|415:188,1,136.000002593994,4|8,0:0|0:0,0:0:0:0:
312,169,154471,2,0,L|475:161,1,136.000002593994,0|8,0:0|0:0,0:0:0:0:
279,131,154951,1,0,0:0:0:0:
166,155,155071,2,0,L|159:304,1,136.000002593994,8|0,0:0|0:0,0:0:0:0:
277,248,155431,2,0,L|444:251,1,136.000002593994,8|0,0:0|0:0,0:0:0:0:
305,193,155791,2,0,L|293:279,1,68.0000012969971,2|2,0:0|0:0,0:0:0:0:
102,239,156031,6,0,P|53:210|57:140,1,120.000004577637,4|8,0:0|0:0,0:0:0:0:
136,140,156364,2,0,L|274:145,1,120.000004577637,0|8,0:0|0:0,0:0:0:0:
343,118,156697,1,0,0:0:0:0:
348,194,156808,1,0,0:0:0:0:
269,243,156919,2,0,L|129:254,1,120.000004577637,8|0,0:0|0:0,0:0:0:0:
244,327,157253,2,0,L|364:334,1,103.999995239258,8|0,0:0|0:0,0:0:0:0:
446,282,157586,2,0,L|450:340,1,44.0000013427735,10|2,0:0|0:0,0:0:0:0:
257,234,157808,6,0,P|217:215|219:148,1,103.999995239258,4|8,0:0|0:0,0:0:0:0:
290,134,158118,1,0,0:0:0:0:
380,108,158221,2,0,L|383:187,1,55.9999982910157,0|8,0:0|0:0,0:0:0:0:
304,212,158428,2,0,L|248:214,1,55.9999982910157
75,310,158635,6,0,P|35:291|37:224,1,111.999996582031,12|0,0:0|0:0,0:0:0:0:
110,210,158945,2,0,L|240:210,1,111.999996582031,8|0,0:0|0:0,0:0:0:0:
152,210,159256,1,8,0:0:0:0:
84,211,159359,1,2,0:0:0:0:
300,329,159462,6,0,P|353:310|356:252,1,103.999995239258,4|8,0:0|0:0,0:0:0:0:
303,203,159752,2,0,L|200:199,1,103.999995239258,0|8,0:0|0:0,0:0:0:0:
271,137,160042,1,0,0:0:0:0:
419,54,160236,5,8,0:0:0:0:
470,88,160332,1,0,0:0:0:0:
490,147,160429,1,0,0:0:0:0:
487,209,160526,1,8,0:0:0:0:
462,266,160623,1,0,0:0:0:0:
407,296,160720,1,0,0:0:0:0:
345,305,160816,1,8,0:0:0:0:
69,217,161010,6,0,L|57:338,1,103.999995239258,4|8,0:0|0:0,0:0:0:0:
143,301,161282,2,0,L|261:294,1,103.999995239258,0|8,0:0|0:0,0:0:0:0:
170,247,161555,1,0,0:0:0:0:
94,251,161646,1,0,0:0:0:0:
273,212,161737,2,0,P|317:182|320:117,1,103.999995239258,8|0,0:0|0:0,0:0:0:0:
248,90,162010,2,0,L|124:94,1,103.999995239258,8|0,0:0|0:0,0:0:0:0:
222,78,162282,1,8,0:0:0:0:
471,172,162464,6,0,L|477:278,1,100,4|8,0:0|0:0,0:0:0:0:
397,283,162721,2,0,L|286:284,1,100,0|8,0:0|0:0,0:0:0:0:
375,283,162978,1,0,0:0:0:0:
205,125,163149,5,8,0:0:0:0:
151,134,163235,1,0,0:0:0:0:
110,171,163321,1,0,0:0:0:0:
91,223,163407,1,8,0:0:0:0:
100,277,163492,1,0,0:0:0:0:
131,323,163578,1,0,0:0:0:0:
179,351,163664,1,8,0:0:0:0:
425,160,163835,6,0,L|429:274,1,92.0000017547608,4|8,0:0|0:0,0:0:0:0:
367,252,164078,1,0,0:0:0:0:
234,298,164240,1,8,0:0:0:0:
173,301,164321,1,0,0:0:0:0:
479,78,164483,5,12,0:0:0:0:
303,74,164726,1,12,0:0:0:0:
479,78,164970,1,12,0:0:0:0:
205,124,165132,6,0,P|162:176|225:249,1,160,4|0,0:0|0:0,0:0:0:0:
327,217,165605,1,0,0:0:0:0:
79,197,165763,6,0,P|36:249|99:322,1,160,4|0,0:0|0:0,0:0:0:0:
201,290,166224,1,0,0:0:0:0:
448,300,166378,6,0,P|432:241|341:183,1,160,4|0,0:0|0:0,0:0:0:0:
248,184,166817,1,0,0:0:0:0:
472,93,166963,6,0,L|472:182,1,80,4|0,0:0|0:0,0:0:0:0:
229,283,167256,2,0,L|149:284,1,80,4|0,0:0|0:0,0:0:0:0:
394,349,167548,6,0,P|436:315|380:231,1,160,4|0,0:0|0:0,0:0:0:0:
283,234,167966,1,0,0:0:0:0:
72,228,168106,6,0,P|30:194|86:110,1,160,12|0,0:0|0:0,0:0:0:0:
183,113,168524,1,0,0:0:0:0:
439,317,168664,6,0,P|426:257|317:206,1,160,4|0,0:0|0:0,0:0:0:0:
118,284,169064,2,0,L|289:274,1,151.999995941162,4|0,0:0|0:0,0:0:0:0:
472,139,169464,2,0,L|480:235,1,75.9999979705811,12|0,0:0|0:0,0:0:0:0:
249,178,169730,6,0,L|66:160,1,160,2|8,0:0|0:0,0:0:0:0:
435,110,170240,2,0,P|468:171|408:254,1,160,4|8,0:0|0:0,0:0:0:0:
77,110,170751,6,0,P|44:171|104:254,1,160,4|8,0:0|0:0,0:0:0:0:
180,220,171111,1,0,0:0:0:0:
383,120,171231,2,0,L|480:132,1,80,4|0,0:0|0:0,0:0:0:0:
236,337,171461,2,0,L|139:349,1,80,4|0,0:0|0:0,0:0:0:0:
337,354,171692,6,0,L|347:193,1,160,4|8,0:0|0:0,0:0:0:0:
177,242,172136,2,0,L|167:81,1,160,4|8,0:0|0:0,0:0:0:0:
350,270,172564,6,0,L|106:221,1,240,4|4,0:0|0:0,0:0:0:0:
386,168,173177,1,4,0:0:0:0:
122,346,173377,6,0,P|76:312|141:241,1,160,4|8,0:0|0:0,0:0:0:0:
423,209,173764,2,0,L|428:296,1,80,4|4,0:0|0:0,0:0:0:0:
311,355,174045,1,4,0:0:0:0:
146,291,174139,6,0,P|97:270|100:162,1,160,4|8,0:0|0:0,0:0:0:0:
171,154,174411,1,0,0:0:0:0:
345,143,174502,2,0,P|415:187|481:130,1,160,4|4,0:0|0:0,0:0:0:0:
222,264,174854,6,0,P|185:225|240:136,1,160,4|8,0:0|0:0,0:0:0:0:
380,228,175196,1,4,0:0:0:0:
454,232,175279,1,4,0:0:0:0:
337,174,175446,1,4,0:0:0:0:
268,171,175529,6,0,P|231:132|286:43,1,160,4|8,0:0|0:0,0:0:0:0:
395,86,175853,2,0,L|452:144,2,80,4|0|8,0:0|0:0|0:0,0:0:0:0:
148,212,176168,5,4,0:0:0:0:
132,371,176321,1,4,0:0:0:0:
255,248,176475,2,0,L|263:345,1,80,4|4,0:0|0:0,0:0:0:0:
384,318,176700,1,4,0:0:0:0:
448,307,176775,5,4,0:0:0:0:
453,147,176921,1,0,0:0:0:0:
328,143,177067,1,4,0:0:0:0:
453,147,177209,1,4,0:0:0:0:
211,106,177352,5,4,0:0:0:0:
205,238,177491,1,0,0:0:0:0:
356,234,177631,2,0,L|360:323,1,80,4|4,0:0|0:0,0:0:0:0:
253,347,177835,1,4,0:0:0:0:
182,339,177903,5,4,0:0:0:0:
180,180,178036,1,4,0:0:0:0:
230,177,178103,1,0,0:0:0:0:
269,149,178169,1,4,0:0:0:0:
281,99,178232,1,4,0:0:0:0:
268,46,178296,1,4,0:0:0:0:
44,191,178418,5,6,0:0:0:0:
255,187,179323,5,6,0:0:0:0:
468,192,180084,5,6,0:0:0:0:
255,187,180779,5,6,0:0:0:0:
94,188,181402,5,6,0:0:0:0:
255,187,181973,5,6,0:0:0:0:
428,188,182473,5,6,0:0:0:0:
255,187,182943,5,6,0:0:0:0:
255,187,183161,1,6,0:0:0:0:
255,187,183379,1,6,0:0:0:0:
256,192,183586,12,0,186703,0:0:0:0:
199,245,186911,5,4,0:0:0:0:
312,306,187053,2,0,P|352:273|309:169,1,176.000005371094,4|4,0:0|0:0,0:0:0:0:
187,138,187482,1,4,0:0:0:0:
401,220,187625,2,0,P|441:187|398:83,1,176.000005371094,4|4,0:0|0:0,0:0:0:0:
165,226,188053,6,0,L|152:332,1,88.000002685547,4|0,0:0|0:0,0:0:0:0:
280,284,188339,2,0,L|378:283,1,88.000002685547,4|0,0:0|0:0,0:0:0:0:
161,138,188625,2,0,L|56:138,1,88.000002685547,4|0,0:0|0:0,0:0:0:0:
324,96,188911,1,4,0:0:0:0:
440,95,189053,1,0,0:0:0:0:
197,327,189196,5,4,0:0:0:0:
119,285,189339,1,4,0:0:0:0:
95,200,189482,1,4,0:0:0:0:
128,118,189625,1,4,0:0:0:0:
379,190,189768,1,4,0:0:0:0:
263,191,189910,1,4,0:0:0:0:
51,117,190053,1,4,0:0:0:0:
162,118,190195,1,4,0:0:0:0:
421,103,190339,6,0,L|431:172,3,44.0000013427735,4|0|4|0,0:0|0:0|0:0|0:0,0:0:0:0:
355,188,190625,2,0,L|345:257,3,44.0000013427735,4|0|4|0,0:0|0:0|0:0|0:0,0:0:0:0:
426,272,190911,6,0,L|436:341,3,44.0000013427735,4|0|4|0,0:0|0:0|0:0|0:0,0:0:0:0:
256,311,191196,2,0,L|246:380,3,44.0000013427735,4|0|4|0,0:0|0:0|0:0|0:0,0:0:0:0:
59,290,191482,5,4,0:0:0:0:
256,192,191625,12,2,196053,0:2:0:0:
328,106,196482,6,0,L|333:174,1,44.0000013427735
146,289,196625,1,4,0:0:0:0:
105,272,196696,1,0,0:0:0:0:
74,241,196767,1,4,0:0:0:0:
58,200,196839,1,0,0:0:0:0:
60,156,196910,1,8,0:0:0:0:
78,117,196982,1,0,0:0:0:0:
110,87,197053,1,4,0:0:0:0:
151,73,197125,1,0,0:0:0:0:
333,275,197197,6,0,P|399:248|380:140,1,187.200000714111,12|8,0:0|0:0,0:0:0:0:
253,155,197625,2,0,L|248:257,1,93.6000003570557,0|4,0:0|0:0,0:0:0:0:
389,295,197911,2,0,L|491:291,2,93.6000003570557,0|8|0,0:0|0:0|0:0,0:0:0:0:
178,343,198339,5,4,0:0:0:0:
113,283,198482,1,0,0:0:0:0:
98,196,198625,1,8,0:0:0:0:
134,115,198768,1,0,0:0:0:0:
275,70,198911,2,0,L|159:64,1,93.6000003570557,4|0,0:0|0:0,0:0:0:0:
429,136,199197,1,8,0:0:0:0:
436,237,199339,1,6,0:0:0:0:
171,288,199482,6,0,P|114:256|164:160,1,187.200000714111,4|8,0:0|0:0,0:0:0:0:
294,129,199911,1,0,0:0:0:0:
300,211,200054,1,4,0:0:0:0:
157,282,200197,2,0,L|359:304,1,187.200000714111
103,340,200625,5,4,0:0:0:0:
61,262,200768,1,0,0:0:0:0:
90,179,200911,1,8,0:0:0:0:
172,147,201054,1,0,0:0:0:0:
378,231,201197,1,6,0:0:0:0:
491,231,201339,1,0,0:0:0:0:
270,324,201482,1,10,0:0:0:0:
157,324,201624,1,0,0:0:0:0:
387,144,201768,6,0,L|396:244,1,93.6000003570557,4|0,0:0|0:0,0:0:0:0:
254,281,202054,2,0,L|146:272,1,93.6000003570557,8|0,0:0|0:0,0:0:0:0:
364,355,202339,1,4,0:0:0:0:
460,312,202482,1,0,0:0:0:0:
486,211,202625,1,8,0:0:0:0:
435,104,202768,1,0,0:0:0:0:
192,259,202911,6,0,L|87:267,1,93.6000003570557,4|0,0:0|0:0,0:0:0:0:
213,280,203197,1,8,0:0:0:0:
255,260,203268,1,0,0:0:0:0:
269,215,203339,1,0,0:0:0:0:
253,170,203411,1,0,0:0:0:0:
209,152,203482,1,4,0:0:0:0:
75,151,203625,1,0,0:0:0:0:
316,60,203768,1,10,0:0:0:0:
437,64,203911,1,0,0:0:0:0:
129,337,204054,6,0,L|248:327,1,93.6000003570557,4|0,0:0|0:0,0:0:0:0:
360,345,204339,2,0,L|439:352,2,46.8000001785278,8|0|0,0:0|0:0|0:0,0:0:0:0:
221,248,204625,2,0,L|142:255,2,46.8000001785278,4|0|0,0:0|0:0|0:0,0:0:0:0:
362,181,204911,2,0,L|253:193,1,93.6000003570557,8|0,0:0|0:0,0:0:0:0:
45,167,205197,6,0,L|34:275,1,93.6000003570557,4|4,0:0|0:0,0:0:0:0:
301,233,205482,2,0,L|405:233,1,93.6000003570557,10|4,0:0|0:0,0:0:0:0:
121,333,205768,2,0,L|17:333,2,93.6000003570557,6|4|8,0:1|0:1|0:0,0:0:0:0:
262,359,206197,2,0,L|311:357,1,46.8000001785278,4|4,0:0|0:0,0:0:0:0:
138,91,206339,6,0,L|137:213,1,93.6000003570557,12|0,0:0|0:0,0:0:0:0:
273,186,206625,1,8,0:0:0:0:
406,184,206768,1,0,0:0:0:0:
159,116,206911,2,0,L|32:116,3,93.6000003570557,6|0|10|0,0:0|0:0|0:0|0:0,0:0:0:0:
330,356,207482,5,4,0:0:0:0:
406,301,207625,1,0,0:0:0:0:
427,209,207768,1,8,0:0:0:0:
394,120,207911,1,0,0:0:0:0:
164,207,208054,2,0,L|37:207,2,93.6000003570557,6|0|10,0:0|0:0|0:0,0:0:0:0:
298,207,208482,1,2,0:0:0:0:
79,339,208625,6,0,P|33:298|112:199,1,187.200000714111,4|8,0:0|0:0,0:0:0:0:
202,202,209054,1,0,0:0:0:0:
414,268,209197,2,0,L|287:268,3,93.6000003570557,6|0|10|0,0:0|0:0|0:0|0:0,0:0:0:0:
85,252,209768,6,0,L|76:145,1,93.6000003570557,4|0,0:0|0:0,0:0:0:0:
214,154,210054,1,8,0:0:0:0:
78,96,210197,2,0,L|-6:90,1,46.8000001785278
228,344,210339,1,4,0:0:0:0:
313,316,210482,1,4,0:0:0:0:
340,225,210625,1,10,0:0:0:0:
313,135,210768,1,4,0:0:0:0:
31,189,210911,6,0,L|24:314,1,93.6000003570557,4|0,0:0|0:0,0:0:0:0:
163,247,211197,2,0,L|274:238,1,93.6000003570557,8|0,0:0|0:0,0:0:0:0:
398,267,211482,1,6,0:0:0:0:
257,239,211625,1,6,0:0:0:0:
398,267,211768,1,10,0:0:0:0:
105,321,211911,1,6,0:0:0:0:
177,245,212197,6,0,L|240:250,1,46.8000001785278,4|0,0:0|0:0,0:0:0:0:
390,359,212339,2,0,L|400:230,1,93.6000003570557,8|4,0:0|0:0,0:0:0:0:
181,175,212625,2,0,P|130:149|129:46,1,140.400000535584,2|6,0:0|0:0,0:0:0:0:
184,68,212911,1,0,0:0:0:0:
322,70,213054,1,6,0:0:0:0:
86,358,213197,6,0,L|74:237,1,93.6000003570557,4|0,0:0|0:0,0:0:0:0:
218,268,213482,1,4,0:0:0:0:
260,246,213554,1,0,0:0:0:0:
276,202,213625,1,0,0:0:0:0:
265,155,213697,1,0,0:0:0:0:
229,125,213768,1,8,0:0:0:0:
88,125,213911,1,4,0:0:0:0:
382,110,214054,1,2,0:0:0:0:
390,207,214197,1,2,0:0:0:0:
179,58,214339,5,6,0:0:0:0:
139,82,214410,1,0,0:0:0:0:
110,119,214481,1,2,0:0:0:0:
95,163,214553,1,0,0:0:0:0:
96,210,214624,1,10,0:0:0:0:
112,254,214696,1,0,0:0:0:0:
141,289,214767,1,2,0:0:0:0:
181,314,214839,1,0,0:0:0:0:
351,255,214911,6,0,L|363:339,3,46.8000001785278,4|0|4|0,0:0|0:0|0:0|0:0,0:0:0:0:
202,239,215197,2,0,L|148:240,1,46.8000001785278,8|0,0:0|0:0,0:0:0:0:
338,169,215339,2,0,L|392:170,1,46.8000001785278,8|0,0:0|0:0,0:0:0:0:
205,364,215482,6,0,P|149:337|182:210,1,187.200000714111,12|8,0:0|0:0,0:0:0:0:
289,175,215911,2,0,L|298:276,1,93.6000003570557,0|4,0:0|0:0,0:0:0:0:
155,225,216197,1,4,0:0:0:0:
374,187,216339,2,0,L|469:193,1,93.6000003570557,8|0,0:0|0:0,0:0:0:0:
213,201,216625,6,0,P|229:124|337:89,1,187.200000714111,4|8,0:0|0:0,0:0:0:0:
452,141,217054,1,0,0:0:0:0:
322,85,217197,2,0,L|217:91,1,93.6000003570557,4|4,0:0|0:0,0:0:0:0:
479,272,217482,1,10,0:0:0:0:
348,284,217625,1,4,0:0:0:0:
48,309,217768,6,0,P|64:232|172:197,1,187.200000714111,4|8,0:0|0:0,0:0:0:0:
308,131,218197,2,0,L|197:122,2,93.6000003570557,0|4|4,0:0|0:0|0:0,0:0:0:0:
49,176,218625,1,8,0:0:0:0:
39,284,218768,1,0,0:0:0:0:
277,354,218911,5,4,0:0:0:0:
359,309,219054,1,0,0:0:0:0:
377,217,219197,1,8,0:0:0:0:
338,132,219339,1,0,0:0:0:0:
197,101,219482,2,0,L|185:217,1,93.6000003570557,4|0,0:0|0:0,0:0:0:0:
451,175,219768,2,0,L|338:175,1,93.6000003570557,8|0,0:0|0:0,0:0:0:0:
117,228,220054,6,0,L|102:337,1,93.6000003570557,4|0,0:2|0:0,0:0:0:0:
246,333,220339,1,8,0:0:0:0:
289,316,220410,1,0,0:0:0:0:
315,279,220481,1,0,0:0:0:0:
317,233,220553,1,0,0:0:0:0:
293,193,220624,1,4,0:0:0:0:
251,174,220696,1,0,0:0:0:0:
69,208,220768,2,0,L|56:101,1,93.6000003570557,4|8,0:0|0:0,0:0:0:0:
269,90,221054,6,0,L|468:113,1,187.200000714111,4|0,0:0|0:0,0:0:0:0:
319,151,221482,2,0,L|260:160,2,46.8000001785278,8|0|0,0:0|0:0|0:0,0:0:0:0:
462,297,221768,1,4,0:0:0:0:
453,251,221839,1,0,0:0:0:0:
436,207,221910,1,0,0:0:0:0:
410,168,221982,1,0,0:0:0:0:
377,135,222053,1,8,0:0:0:0:
339,109,222125,1,0,0:0:0:0:
295,91,222196,1,0,0:0:0:0:
250,82,222268,1,0,0:0:0:0:
82,218,222339,6,0,P|34:184|103:86,1,187.200000714111,4|8,0:0|0:0,0:0:0:0:
212,153,222768,2,0,L|259:150,1,46.8000001785278
419,296,222911,5,2,0:0:0:0:
419,189,223101,1,2,0:0:0:0:
289,251,223292,1,4,0:0:0:0:
37,268,223482,5,2,0:0:0:0:
37,161,223672,1,2,0:0:0:0:
167,223,223863,1,4,0:0:0:0:
425,112,224054,5,2,0:1:0:0:
277,114,224244,1,2,0:2:0:0:
130,116,224435,1,0,0:0:0:0:
392,313,224625,6,0,L|497:297,1,93.6000003570557,2|0,0:0|0:0,0:0:0:0:
357,251,224911,2,0,L|462:235,1,93.6000003570557,8|0,0:0|0:0,0:0:0:0:
317,205,225197,2,0,L|212:189,2,93.6000003570557,4|4|8,0:0|0:0|0:0,0:0:0:0:
100,323,225625,6,0,L|88:203,1,93.6000003570557,0|4,0:0|0:0,0:0:0:0:
229,206,225911,1,0,0:0:0:0:
367,183,226054,2,0,L|378:52,1,93.6000003570557,8|0,0:0|0:0,0:0:0:0:
154,96,226339,1,4,0:0:0:0:
24,93,226482,1,0,0:0:0:0:
154,96,226625,1,8,0:0:0:0:
24,93,226768,1,2,0:0:0:0:
292,309,226911,6,0,L|397:293,1,93.6000003570557,2|0,0:0|0:0,0:0:0:0:
263,247,227196,2,0,L|368:231,1,93.6000003570557,8|0,0:0|0:0,0:0:0:0:
233,201,227482,2,0,L|128:185,2,93.6000003570557,4|4|8,0:0|0:0|0:0,0:0:0:0:
477,168,227911,6,0,L|485:261,1,93.6000003570557,0|4,0:0|0:0,0:0:0:0:
371,208,228196,1,4,0:0:0:0:
251,283,228339,2,0,L|354:272,1,93.6000003570557,8|0,0:0|0:0,0:0:0:0:
136,159,228625,1,6,0:0:0:0:
25,158,228768,1,4,0:0:0:0:
136,159,228911,1,8,0:0:0:0:
379,160,229054,1,2,0:0:0:0:
150,160,229197,6,0,L|42:148,2,93.6000003570557,4|8|4,0:0|0:0|0:0,0:0:0:0:
281,123,229625,1,4,0:0:0:0:
413,95,229768,2,0,L|471:101,2,46.8000001785278,8|0|4,0:0|0:0|0:0,0:0:0:0:
281,123,230054,1,8,0:0:0:0:
413,95,230197,2,0,L|471:101,1,46.8000001785278,4|0,0:0|0:0,0:0:0:0:
257,237,230339,6,0,L|132:250,1,93.6000003570557,4|4,0:0|0:0,0:0:0:0:
377,317,230625,2,0,L|435:323,2,46.8000001785278,8|0|4,0:0|0:0|0:0,0:0:0:0:
240,358,230911,2,0,L|182:364,2,46.8000001785278,4|0|4,0:0|0:0|0:0,0:0:0:0:
478,241,231197,1,8,0:0:0:0:
484,135,231339,1,4,0:0:0:0:
259,251,231482,5,2,0:3:0:0:
215,233,231553,1,0,0:0:0:0:
183,200,231624,1,2,0:3:0:0:
165,157,231696,1,0,0:0:0:0:
167,111,231767,1,2,0:3:0:0:
186,68,231839,1,0,0:0:0:0:
221,37,231910,1,2,0:3:0:0:
265,23,231982,1,0,0:0:0:0:
419,134,232054,2,0,L|484:135,2,46.8000001785278,4|0|4,0:1|0:0|0:0,0:0:0:0:
177,277,232339,2,0,L|78:278,1,93.6000003570557,12|12,0:0|0:0,0:0:0:0:
312,348,232625,5,4,0:0:0:0:
394,309,232768,1,4,0:0:0:0:
416,217,232911,1,8,0:0:0:0:
394,125,233054,1,4,0:0:0:0:
264,92,233197,2,0,L|275:248,1,140.400000535584,2|0,0:0|0:0,0:0:0:0:
441,231,233625,1,0,0:0:0:0:
176,301,233768,6,0,B|39:302|39:302|39:148,1,272.000005187988,6|0,0:0|0:0,0:0:0:0:
39,167,234197,2,0,B|176:168|176:168|176:14,1,272.000005187988,12|0,0:0|0:0,0:0:0:0:
176,33,234625,2,0,B|39:32|39:32|39:186,1,272.000005187988,12|4,0:0|0:0,0:0:0:0:
39,167,235054,2,0,B|176:166|176:166|176:320,1,272.000005187988,12|0,0:0|0:0,0:0:0:0:
176,300,235482,2,0,B|39:301|39:301|39:147,1,272.000005187988,12|0,0:0|0:0,0:0:0:0:
39,166,235911,2,0,L|39:245,1,46.8000001785278,12|8,0:0|0:0,0:0:0:0:
221,266,236054,1,4,0:0:0:0:
348,271,236197,6,0,P|414:249|386:142,1,187.200000714111,8|4,0:0|0:0,0:0:0:0:
267,139,236625,2,0,L|253:243,1,93.6000003570557,2|2,0:0|0:0,0:0:0:0:
403,197,236911,2,0,L|506:196,1,93.6000003570557,2|2,0:0|0:0,0:0:0:0:
272,271,237197,6,0,L|169:270,1,93.6000003570557,2|2,0:0|0:0,0:0:0:0:
317,268,237482,2,0,L|442:268,1,93.6000003570557,8|4,0:0|0:0,0:0:0:0:
168,248,237768,1,2,0:0:0:0:
47,248,237911,1,8,0:0:0:0:
168,248,238054,1,8,0:0:0:0:
47,248,238197,1,8,0:0:0:0:
324,321,238339,6,0,B|461:322|461:322|461:168,1,272.000005187988,14|0,0:0|0:0,0:0:0:0:
461,187,238768,2,0,B|324:188|324:188|324:34,1,272.000005187988,12|0,0:0|0:0,0:0:0:0:
324,53,239196,2,0,B|461:52|461:52|461:206,1,272.000005187988,12|0,0:0|0:0,0:0:0:0:
461,187,239625,2,0,B|324:186|324:186|324:340,1,272.000005187988,12|0,0:0|0:0,0:0:0:0:
324,320,240053,2,0,B|461:321|461:321|461:167,1,272.000005187988,12|8,0:0|0:0,0:0:0:0:
461,141,240482,2,0,L|461:220,1,46.8000001785278,4|0,0:0|0:0,0:0:0:0:
291,266,240625,1,4,0:0:0:0:
164,271,240768,6,0,P|98:249|126:142,1,187.200000714111,4|4,0:0|0:0,0:0:0:0:
245,139,241196,2,0,L|259:243,1,93.6000003570557,8|4,0:0|0:0,0:0:0:0:
109,197,241482,2,0,L|6:196,1,93.6000003570557,8|8,0:0|0:0,0:0:0:0:
260,344,241768,5,4,0:0:0:0:
305,335,241839,1,0,0:0:0:0:
339,305,241910,1,0,0:0:0:0:
352,260,241982,1,0,0:0:0:0:
340,216,242053,1,4,0:0:0:0:
305,185,242125,1,0,0:0:0:0:
260,177,242196,1,4,0:0:0:0:
134,263,242339,2,0,L|246:267,1,93.6000003570557,10|4,0:0|0:0,0:0:0:0:
365,231,242625,2,0,L|376:349,1,93.6000003570557,10|6,0:0|0:0,0:0:0:0:
54,344,242911,6,0,B|53:206|53:206|241:206,1,272.000005187988,14|0,0:0|0:0,0:0:0:0:
186,206,243339,2,0,B|185:68|185:68|373:68,1,272.000005187988,12|0,0:0|0:0,0:0:0:0:
318,68,243768,2,0,B|319:206|319:206|131:206,1,272.000005187988,12|0,0:0|0:0,0:0:0:0:
186,206,244196,2,0,B|187:344|187:344|-1:344,1,272.000005187988,12|0,0:0|0:0,0:0:0:0:
53,344,244625,2,0,B|52:206|52:206|240:206,1,272.000005187988,12|0,0:0|0:0,0:0:0:0:
185,206,245054,2,0,L|239:205,1,46.8000001785278,4|0,0:0|0:0,0:0:0:0:
369,210,245197,1,4,0:0:0:0:
485,210,245339,6,0,P|466:127|347:99,1,187.200000714111,4|4,0:0|0:0,0:0:0:0:
239,167,245768,2,0,L|339:169,1,93.6000003570557,8|4,0:0|0:0,0:0:0:0:
192,237,246054,2,0,L|89:236,1,93.6000003570557,8|4,0:0|0:0,0:0:0:0:
381,340,246339,6,0,P|431:309|367:215,1,187.200000714111,8|8,0:0|0:0,0:0:0:0:
269,215,246768,1,4,0:0:0:0:
29,229,246911,1,8,0:0:0:0:
150,229,247054,1,2,0:0:0:0:
365,134,247197,1,2,0:0:0:0:
486,134,247340,1,2,0:0:0:0:
264,292,247482,6,0,P|202:252|273:192,1,187.200000714111,4|4,0:0|0:0,0:0:0:0:
383,191,247911,1,0,0:0:0:0:
143,319,248054,1,4,0:0:0:0:
98,304,248125,1,0,0:0:0:0:
64,272,248196,1,0,0:0:0:0:
46,230,248268,1,0,0:0:0:0:
46,183,248339,1,4,0:0:0:0:
66,141,248411,1,0,0:0:0:0:
101,111,248482,1,0,0:0:0:0:
145,97,248554,1,0,0:0:0:0:
315,160,248625,6,0,L|387:168,2,46.8000001785278,8|0|0,0:0|0:0|0:0,0:0:0:0:
193,244,248911,2,0,L|121:252,2,46.8000001785278,8|0|0,0:0|0:0|0:0,0:0:0:0:
323,272,249197,2,0,L|332:336,3,46.8000001785278,8|0|0|0,0:0|0:0|0:0|0:0,0:0:0:0:
169,336,249482,2,0,L|50:332,1,93.6000003570557,8|0,0:0|0:0,0:0:0:0:
341,286,249768,5,4,0:0:0:0:
384,268,249839,1,4,0:0:0:0:
417,236,249910,1,4,0:0:0:0:
434,193,249982,1,4,0:0:0:0:
434,146,250053,1,4,0:0:0:0:
416,103,250125,1,4,0:0:0:0:
382,71,250196,1,4,0:0:0:0:
339,54,250268,1,4,0:0:0:0:
184,181,250339,6,0,L|173:111,3,46.8000001785278,4|4|4|4,0:0|0:0|0:0|0:0,0:0:0:0:
337,224,250625,2,0,L|412:223,1,46.8000001785278
217,316,250768,2,0,L|142:315,1,46.8000001785278
403,358,250911,6,0,L|508:359,2,93.6000003570557,2|2|2,0:0|0:0|0:2,0:0:0:0:
224,349,251482,1,2,0:2:0:0:
371,265,251625,1,0,0:0:0:0:
415,253,251696,1,0,0:0:0:0:
443,217,251767,1,8,0:1:0:0:
445,171,251839,1,0,0:0:0:0:
418,133,251910,1,4,0:0:0:0:
374,120,251982,1,4,0:0:0:0:
204,138,252054,6,0,L|98:148,1,93.6000003570557,12|0,0:0|0:0,0:0:0:0:
244,233,252339,2,0,L|350:243,1,93.6000003570557,8|0,0:0|0:0,0:0:0:0:
200,302,252625,2,0,P|228:209|335:189,1,187.200000714111,4|8,0:0|0:0,0:0:0:0:
449,172,253054,1,0,0:0:0:0:
229,73,253197,6,0,L|106:67,1,93.6000003570557,4|0,0:0|0:0,0:0:0:0:
275,154,253482,2,0,L|353:147,2,46.8000001785278,8|0|0,0:0|0:0|0:0,0:0:0:0:
137,180,253768,2,0,L|126:290,1,93.6000003570557,4|4,0:0|0:0,0:0:0:0:
351,217,254054,1,10,0:0:0:0:
471,217,254197,1,0,0:0:0:0:
245,331,254339,6,0,L|132:321,1,93.6000003570557,4|0,0:0|0:0,0:0:0:0:
287,248,254625,2,0,L|400:238,1,93.6000003570557,8|0,0:0|0:0,0:0:0:0:
245,186,254911,2,0,L|235:289,1,93.6000003570557,4|2,0:0|0:2,0:0:0:0:
473,217,255197,1,8,0:0:0:0:
351,217,255340,1,0,0:0:0:0:
43,217,255482,5,4,0:0:0:0:
220,215,255697,1,4,0:0:0:0:
43,217,255911,1,4,0:0:0:0:
325,121,256054,2,0,L|396:120,2,46.8000001785278,8|0|0,0:0|0:0|0:0,0:0:0:0:
184,85,256339,2,0,L|77:84,1,93.6000003570557,8|4,0:0|0:0,0:0:0:0:
394,336,256625,6,0,P|447:303|385:216,1,187.200000714111,2|8,0:1|0:0,0:0:0:0:
262,163,257054,2,0,L|202:167,2,46.8000001785278,0|0|4,0:0|0:0|0:0,0:0:0:0:
401,106,257339,2,0,L|408:241,1,93.6000003570557,0|8,0:0|0:0,0:0:0:0:
155,269,257625,6,0,P|74:244|114:134,1,187.200000714111
211,105,258054,2,0,L|103:102,1,93.6000003570557,8|0,0:0|0:0,0:0:0:0:
249,215,258339,2,0,L|357:212,1,93.6000003570557,4|0,0:0|0:0,0:0:0:0:
74,231,258625,1,8,0:0:0:0:
67,343,258768,1,4,0:0:0:0:
329,336,258911,6,0,P|378:311|315:216,1,187.200000714111,4|8,0:0|0:0,0:0:0:0:
201,231,259339,2,0,P|152:206|215:111,1,187.200000714111,4|2,0:0|0:0,0:0:0:0:
325,107,259768,1,10,0:0:0:0:
119,107,259911,1,0,0:0:0:0:
325,107,260054,6,0,L|404:106,2,46.8000001785278,4|0|4,0:0|0:0|0:0,0:0:0:0:
178,107,260339,1,8,0:0:0:0:
325,107,260482,2,0,L|336:177,1,46.8000001785278
143,325,260625,5,0,0:0:0:0:
119,321,260660,1,0,0:0:0:0:
98,312,260696,1,0,0:0:0:0:
79,299,260732,1,0,0:0:0:0:
63,282,260767,1,0,0:0:0:0:
51,262,260803,1,0,0:0:0:0:
44,239,260839,1,0,0:0:0:0:
42,216,260875,1,0,0:0:0:0:
45,193,260910,1,0,0:0:0:0:
53,171,260946,1,0,0:0:0:0:
65,151,260982,1,0,0:0:0:0:
82,135,261017,1,0,0:0:0:0:
102,123,261053,1,0,0:0:0:0:
124,115,261089,1,0,0:0:0:0:
147,112,261125,1,0,0:0:0:0:
326,93,261197,6,0,L|450:103,1,93.6000003570557,12|0,0:0|0:0,0:0:0:0:
283,186,261482,2,0,L|159:196,1,93.6000003570557,8|0,0:0|0:0,0:0:0:0:
327,266,261768,2,0,L|399:261,2,46.8000001785278,4|0|0,0:0|0:0|0:0,0:0:0:0:
186,271,262054,2,0,L|176:377,1,93.6000003570557,8|0,0:0|0:0,0:0:0:0:
435,135,262339,6,0,L|445:241,1,93.6000003570557,4|0,0:0|0:0,0:0:0:0:
297,205,262625,1,8,0:0:0:0:
249,200,262697,1,0,0:0:0:0:
203,198,262768,1,0,0:0:0:0:
466,307,262911,1,4,0:0:0:0:
297,305,263125,1,4,0:0:0:0:
466,307,263339,1,4,0:0:0:0:
229,185,263625,2,0,L|162:186,1,46.8000001785278,2|2,0:0|0:0,0:0:0:0:
344,118,263768,6,0,L|447:120,1,93.6000003570557,8|0,0:0|0:0,0:0:0:0:
301,203,264054,2,0,L|294:263,2,46.8000001785278,4|0|4,0:0|0:0|0:0,0:0:0:0:
438,238,264339,2,0,L|449:353,1,93.6000003570557,8|0,0:0|0:0,0:0:0:0:
190,301,264625,6,0,L|32:294,2,140.400000535584,4|4|0,0:0|0:0|0:0,0:0:0:0:
427,258,265197,5,2,0:0:0:0:
449,255,265232,1,0,0:0:0:0:
467,240,265268,1,0,0:0:0:0:
474,218,265304,1,0,0:0:0:0:
468,196,265339,1,0,0:0:0:0:
450,181,265375,1,0,0:0:0:0:
427,177,265411,1,0,0:0:0:0:
241,146,265482,5,2,0:0:0:0:
218,143,265517,1,0,0:0:0:0:
200,128,265553,1,0,0:0:0:0:
193,106,265589,1,0,0:0:0:0:
199,84,265624,1,0,0:0:0:0:
217,69,265660,1,0,0:0:0:0:
240,65,265696,1,0,0:0:0:0:
433,96,265768,5,4,0:0:0:0:
438,7,265911,1,4,0:0:0:0:
212,118,266054,1,10,0:0:0:0:
89,117,266197,1,4,0:0:0:0:
330,200,266339,1,4,0:0:0:0:
443,200,266482,1,4,0:0:0:0:
214,322,266625,1,10,0:0:0:0:
101,322,266768,1,4,0:0:0:0:
348,325,266911,5,4,0:0:0:0:
461,325,267054,1,4,0:0:0:0:
229,215,267197,1,10,0:0:0:0:
342,215,267340,1,4,0:0:0:0:
95,123,267482,1,10,0:0:0:0:
192,122,267625,1,4,0:0:0:0:
398,75,267768,1,10,0:0:0:0:
407,161,267911,1,0,0:0:0:0:
169,243,268054,6,0,L|85:237,2,46.8000001785278,6|0|6,0:0|0:0|0:0,0:0:0:0:
287,198,268339,1,8,0:0:0:0:
58,166,268482,2,0,L|-26:160,2,46.8000001785278,6|0|6,0:0|0:0|0:0,0:0:0:0:
176,121,268767,1,8,0:0:0:0:
407,51,268911,2,0,L|491:45,2,46.8000001785278,6|0|10,0:0|0:0|0:0,0:0:0:0:
184,95,269197,5,0,0:0:0:0:
143,118,269268,1,0,0:0:0:0:
117,156,269339,1,0,0:0:0:0:
108,202,269411,1,0,0:0:0:0:
119,247,269482,1,0,0:0:0:0:
148,283,269554,1,0,0:0:0:0:
189,304,269625,1,0,0:0:0:0:
236,306,269697,1,0,0:0:0:0:
405,268,269768,6,0,L|420:199,3,46.8000001785278
277,142,270054,2,0,L|206:140,1,46.8000001785278
394,57,270197,2,0,L|465:55,1,46.8000001785278
237,56,270339,5,8,0:0:0:0:
256,192,270482,12,2,274625,0:0:0:0:
275,317,274911,5,2,0:0:0:0:
342,279,275054,1,0,0:0:0:0:
366,201,275197,1,0,0:0:0:0:
338,126,275339,1,0,0:0:0:0:
253,89,275482,2,0,L|152:96,2,80,0|2|2,0:0|0:0|0:0,0:0:0:0:
458,180,275911,1,0,0:0:0:0:
309,314,276625,2,0,L|158:301,2,120,2|2|2,0:0|0:0|0:0,0:0:0:0:
446,333,277197,5,2,0:0:0:0:
430,248,277339,1,0,0:0:0:0:
385,174,277482,1,0,0:0:0:0:
315,122,277625,1,2,0:0:0:0:
232,98,277768,1,2,0:0:0:0:
376,217,277911,2,0,P|422:184|370:107,1,160,2|0,0:0|0:0,0:0:0:0:
126,107,278339,1,2,0:0:0:0:
346,322,278911,2,0,P|412:291|440:198,1,160,2|2,0:0|0:0,0:0:0:0:
316,214,279339,1,0,0:0:0:0:
113,151,279481,6,0,L|8:142,2,80,2|0|2,1:1|0:0|0:0,0:0:0:0:
245,108,279931,2,0,P|297:158|235:204,1,160,2|2,0:0|0:0,0:0:0:0:
113,210,280381,1,2,0:0:0:0:
376,208,280831,6,0,L|456:216,2,80,0|2|0,0:0|0:0|0:0,0:0:0:0:
241,266,281281,2,0,L|236:356,1,80,2|0,0:0|0:0,0:0:0:0:
372,208,281581,1,2,0:0:0:0:
136,208,281881,6,0,L|56:216,2,80,2|0|2,0:0|0:0|0:0,0:0:0:0:
348,85,282512,1,2,0:0:0:0:
417,125,282670,1,0,0:0:0:0:
435,202,282828,1,2,0:0:0:0:
408,277,282986,1,0,0:0:0:0:
301,330,283144,6,0,L|194:323,1,80,2|0,0:0|0:0,0:0:0:0:
366,247,283459,2,0,L|473:240,1,80,2|0,0:0|0:0,0:0:0:0:
314,185,283775,1,2,0:0:0:0:
308,94,283933,1,2,0:0:0:0:
446,54,284091,1,0,0:0:0:0:
201,46,284407,5,2,0:0:0:0:
134,90,284573,1,0,0:0:0:0:
114,167,284740,1,2,0:0:0:0:
147,239,284907,1,0,0:0:0:0:
238,279,285073,2,0,L|355:272,1,80,2|0,0:0|0:0,0:0:0:0:
442,239,285407,1,2,0:0:0:0:
303,206,285573,1,0,0:0:0:0:
57,266,285740,5,2,0:0:0:0:
431,301,286407,1,2,0:0:0:0:
81,301,286907,1,0,0:0:0:0:
356,259,287406,6,0,L|356:174,1,80,2|0,0:0|0:0,0:0:0:0:
168,341,287911,2,0,L|168:241,1,80,2|0,0:0|0:0,0:0:0:0:
383,286,288711,1,2,0:0:0:0:
256,141,288976,2,0,L|256:231,1,80
50,292,289519,5,2,1:0:0:0:
256,192,289736,12,0,298214,0:0:0:0:
