osu file format v14

[General]
AudioFilename: audio.mp3
AudioLeadIn: 0
PreviewTime: 40118
Countdown: 0
SampleSet: Soft
StackLeniency: 0.2
Mode: 0
LetterboxInBreaks: 0
WidescreenStoryboard: 1

[Editor]
Bookmarks: 11993,21593,40793,59993,69593,86904,115704
DistanceSpacing: 1.3
BeatDivisor: 16
GridSize: 8
TimelineZoom: 4.279997

[Metadata]
Title:Mei
TitleUnicode:冥
Artist:Amuro vs. Killer
ArtistUnicode:Amuro vs. Killer
Creator:Ascended
Version:how2miss' Kaiden
Source:beatmania IIDX 12 HAPPY SKY
Tags:HUMAN SEQUENCER ddr DanceDanceRevolution X2 Toy'sMarch2 Electronic Acylica Haruto Haruto_Aizawa fanzhen0019 how2miss Firika Muya Garden Jounzan Natteke desu EvilElvis EvilElvisV2 Necho Atlust Kyouren gokugohan12468 KittyAdventure -ascended- -_ascended_- Takayuki Ishikawa 石川貴之 Tatsuya Shimizu 清水達也 D.J.Amuro 安室 皆伝 dj TAKA Tatsh TAKASH rhythm game electronic instrumental bemani konami 2dx 冥王星 PLUTO STORY
BeatmapID:4314556
BeatmapSetID:2062538

[Difficulty]
HPDrainRate:5
CircleSize:5
OverallDifficulty:9
ApproachRate:9.5
SliderMultiplier:1.4
SliderTickRate:1

[Events]
//Background and Video events
0,0,"70433861.png",0,0
//Break Periods
//Storyboard Layer 0 (Background)
//Storyboard Layer 1 (Fail)
//Storyboard Layer 2 (Pass)
//Storyboard Layer 3 (Foreground)
//Storyboard Layer 4 (Overlay)
//Storyboard Sound Samples

[TimingPoints]
2393,300,4,2,1,30,1,0
2393,-166.666666666667,4,2,1,30,0,0
11993,-83.3333333333334,4,2,1,40,0,0
13043,-111.111111111111,4,2,1,40,0,0
13493,-166.666666666667,4,2,1,40,0,0
14393,-83.3333333333333,4,2,1,40,0,0
15443,-111.111111111111,4,2,1,40,0,0
15893,-166.666666666667,4,2,1,40,0,0
16793,-83.3333333333334,4,2,1,40,0,0
17843,-111.111111111111,4,2,1,40,0,0
18293,-166.666666666667,4,2,1,40,0,0
19193,-83.3333333333334,4,2,1,40,0,0
20243,-111.111111111111,4,2,1,40,0,0
20543,-111.111111111111,4,2,1,40,0,0
20693,-666.666666666667,4,2,1,40,0,0
21593,-666.666666666667,4,2,2,50,0,0
21893,-666.666666666667,4,2,2,50,0,0
22118,-66.6666666666667,4,2,2,50,0,0
39593,-166.666666666667,4,2,2,50,0,0
43193,-66.6666666666667,4,2,2,50,0,0
59993,600,4,2,2,30,1,0
59993,-83.3333333333333,4,2,2,30,0,0
69593,545.454545454546,4,2,2,40,1,0
69593,-83.3333333333333,4,2,2,40,0,0
71774,500,4,2,2,50,1,0
71774,-83.3333333333333,4,2,2,50,0,0
73774,461.538461538462,4,2,2,50,1,0
73774,-83.3333333333333,4,2,2,50,0,0
75620,428.571428571429,4,2,2,40,1,0
75620,-83.3333333333333,4,2,2,40,0,0
77334,400,4,2,2,50,1,0
77334,-83.3333333333333,4,2,2,50,0,0
78934,375,4,2,2,50,1,0
78934,-83.3333333333333,4,2,2,50,0,0
80434,352.941176470588,4,2,2,60,1,0
80434,-83.3333333333333,4,2,2,60,0,0
81845,333.333333333333,4,2,2,70,1,0
81845,-83.3333333333333,4,2,2,70,0,0
83178,315.789473684211,4,2,2,70,1,0
83178,-83.3333333333333,4,2,2,70,0,0
84441,300,4,2,2,60,1,0
85641,315.789473684211,4,2,2,40,1,0
85641,-66.6666666666667,4,2,2,40,0,0
85680,-66.6666666666667,4,2,2,5,0,0
85719,-62.5,4,2,2,37,0,0
85758,-62.5,4,2,2,5,0,0
85798,-58.8235294117647,4,2,2,35,0,0
85837,-58.8235294117647,4,2,2,5,0,0
85877,-55.5555555555556,4,2,2,32,0,0
85916,-55.5555555555556,4,2,2,5,0,0
85956,-52.6315789473684,4,2,2,30,0,0
85995,-52.6315789473684,4,2,2,5,0,0
86035,-50,4,2,2,32,0,0
86074,-50,4,2,2,5,0,0
86114,-47.6190476190476,4,2,2,35,0,0
86153,-47.6190476190476,4,2,2,5,0,0
86193,-45.4545454545455,4,2,2,37,0,0
86232,-45.4545454545455,4,2,2,5,0,0
86272,-43.4782608695652,4,2,2,40,0,0
86311,-43.4782608695652,4,2,2,5,0,0
86351,-41.6666666666667,4,2,2,42,0,0
86390,-41.6666666666667,4,2,2,5,0,0
86430,-40,4,2,2,45,0,0
86469,-40,4,2,2,5,0,0
86509,-38.4615384615385,4,2,2,47,0,0
86548,-38.4615384615385,4,2,2,5,0,0
86588,-37.037037037037,4,2,2,50,0,0
86627,-37.037037037037,4,2,2,5,0,0
86667,-35.7142857142857,4,2,2,52,0,0
86706,-35.7142857142857,4,2,2,5,0,0
86746,-34.4827586206897,4,2,2,55,0,0
86785,-34.4827586206897,4,2,2,5,0,0
86825,-33.3333333333333,4,2,2,57,0,0
86864,-33.3333333333333,4,2,2,5,0,0
86904,300,4,2,2,70,1,0
86904,-66.6666666666667,4,2,2,70,0,0
115704,-66.6666666666667,4,2,3,50,0,0
117654,-100,4,2,3,50,0,0
119754,333.333333333333,4,2,3,40,1,0
120254,342.857142857143,4,2,3,40,1,0
121968,363.636363636364,4,2,3,40,1,0
122695,428.571428571429,4,2,3,40,1,0
123230,600,4,2,3,40,1,0
123680,545.454545454546,4,2,3,40,1,0
124225,666.666666666667,4,2,3,40,1,0
124891,909.090909090909,4,2,3,40,1,0
125800,-100,4,2,3,40,0,0

[Colours]
Combo1 : 204,224,229
Combo2 : 45,63,99
Combo3 : 61,88,133
Combo4 : 88,125,170
Combo5 : 135,177,205
Combo6 : 173,212,227

[HitObjects]
120,183,2393,22,0,L|124:238,2,41.9999987182618,2|0|0,0:0|0:0|0:0,0:0:0:0:
10,63,2843,2,0,L|48:80,1,41.9999987182618,8|0,2:0|0:0,0:0:0:0:
114,111,3143,1,0,0:0:0:0:
208,45,3293,2,0,L|173:69,1,41.9999987182618,8|0,2:0|0:0,0:0:0:0:
57,266,4493,2,0,L|17:262,3,20.9999993591309
65,267,4793,70,0,L|69:322,2,41.9999987182618,2|0|0,0:0|0:0|0:0,0:0:0:0:
136,260,5243,2,0,L|139:301,2,41.9999987182618,2|0|0,0:0|0:0|0:0,0:0:0:0:
207,253,5693,2,0,L|210:294,1,41.9999987182618,2|0,0:0|0:0,0:0:0:0:
383,184,6968,2,0,L|343:187,2,20.9999993591309
392,183,7193,6,0,L|388:224,2,41.9999987182618,2|0|2,0:0|0:0|0:0,0:0:0:0:
502,63,7643,2,0,L|463:80,1,41.9999987182618,8|0,2:0|0:0,0:0:0:0:
398,111,7943,1,0,0:0:0:0:
304,45,8093,2,0,L|338:69,1,41.9999987182618,8|0,2:0|0:0,0:0:0:0:
465,260,9293,2,0,L|485:258,3,20.9999993591309,2|0|0|0,0:0|0:0|0:0|0:0,0:0:0:0:
457,261,9593,70,0,L|453:302,2,41.9999987182618,2|0|2,0:0|0:0|0:0,0:0:0:0:
376,367,10043,2,0,L|379:325,1,41.9999987182618,8|0,2:0|0:0,0:0:0:0:
386,254,10343,1,0,0:0:0:0:
396,141,10493,2,0,L|392:182,1,41.9999987182618,8|0,2:0|0:0,0:0:0:0:
386,254,11693,5,2,0:0:0:0:
377,254,11768,1,0,0:0:0:0:
369,255,11843,1,0,0:0:0:0:
360,256,11918,1,0,0:0:0:0:
302,297,11993,70,0,P|270:263|228:257,1,83.9999974365235,0|0,3:0|3:0,2:0:0:0:
175,295,12293,1,2,2:3:0:0:
112,263,12443,1,8,2:0:0:0:
172,224,12593,6,0,L|180:132,1,83.9999974365235,0|0,2:0|2:0,0:0:0:0:
105,257,12893,1,8,2:0:0:0:
165,218,13043,2,0,L|173:126,1,62.9999980773926,0|0,2:0|3:0,2:0:0:0:
98,251,13343,1,0,3:0:0:0:
158,212,13493,2,0,L|162:166,1,41.9999987182618,2|0,2:3|3:0,0:0:0:0:
43,206,13793,69,0,3:0:0:0:
69,140,13943,1,2,2:3:0:0:
57,121,14018,1,0,2:0:0:0:
59,99,14093,1,0,3:0:0:0:
6,53,14243,1,0,3:0:0:0:
130,103,14393,6,0,P|175:92|201:58,1,83.9999974365235,0|0,3:0|3:0,2:0:0:0:
268,84,14693,1,2,2:3:0:0:
318,33,14843,1,8,2:0:0:0:
387,52,14993,70,0,L|498:42,1,83.9999974365235,0|0,2:0|2:0,0:0:0:0:
321,24,15293,1,8,2:0:0:0:
390,42,15443,2,0,L|476:35,1,62.9999980773926,0|0,2:0|3:0,0:0:0:0:
324,14,15743,1,0,3:0:0:0:
392,34,15893,2,0,L|448:29,1,41.9999987182618,2|0,0:3|3:0,0:0:0:0:
502,49,16193,5,0,3:0:0:0:
482,118,16343,1,0,3:0:0:0:
463,187,16493,1,2,2:3:0:0:
394,168,16643,1,0,2:0:0:0:
372,166,16718,1,0,0:0:0:0:
353,178,16793,70,0,P|311:176|279:150,1,83.9999974365235,0|0,3:0|3:0,0:0:0:0:
222,193,17093,1,2,2:3:0:0:
157,165,17243,1,8,2:0:0:0:
214,122,17393,6,0,L|222:22,1,83.9999974365235,0|0,2:0|2:0,0:0:0:0:
100,208,17693,1,8,2:0:0:0:
43,165,17843,2,0,L|36:95,1,62.9999980773926,0|0,2:0|3:0,0:0:0:0:
167,236,18143,1,0,3:0:0:0:
223,193,18293,2,0,L|227:143,1,41.9999987182618,2|0,2:3|3:0,0:0:0:0:
111,279,18593,69,0,3:0:0:0:
173,312,18743,1,2,2:3:0:0:
193,303,18818,1,0,2:0:0:0:
215,307,18893,1,0,3:0:0:0:
267,260,19043,1,0,3:0:0:0:
202,378,19193,6,0,P|243:374|274:346,1,83.9999974365235,0|0,3:0|3:0,2:0:0:0:
342,369,19493,1,0,2:3:0:0:
396,322,19643,1,8,2:0:0:0:
465,345,19793,70,0,L|475:229,1,83.9999974365235,0|0,2:0|2:0,0:0:0:0:
336,238,20093,1,8,2:0:0:0:
267,260,20243,2,0,L|258:167,1,62.9999980773926,0|0,2:0|2:0,0:0:0:0:
410,166,20543,1,0,0:0:0:0:
480,190,20693,6,0,L|484:142,1,47.2499985580445
491,71,21593,5,4,1:2:0:0:
372,105,21743,1,0,0:0:0:0:
283,18,21893,1,8,2:0:0:0:
303,87,22043,5,0,0:0:0:0:
301,97,22118,2,0,P|264:133|213:133,1,105.000004005432
203,129,22343,1,0,1:0:0:0:
180,60,22493,2,0,P|143:23|92:23,1,105.000004005432,8|0,2:0|0:0,0:0:0:0:
155,184,22793,69,0,1:0:0:0:
83,169,22943,1,0,0:0:0:0:
35,224,23093,1,8,2:0:0:0:
106,237,23243,5,0,0:0:0:0:
115,242,23318,2,0,P|144:284|135:334,1,105.000004005432
129,343,23543,1,0,1:0:0:0:
178,277,23693,1,8,2:0:0:0:
213,285,23768,1,0,0:0:0:0:
245,269,23843,1,0,0:0:0:0:
301,315,23993,69,0,1:0:0:0:
390,228,24143,1,0,0:0:0:0:
509,262,24293,1,8,2:0:0:0:
440,279,24443,5,0,0:0:0:0:
431,272,24518,2,0,P|417:221|451:169,1,105.000004005432
449,172,24743,1,0,1:0:0:0:
406,115,24893,1,8,2:0:0:0:
401,105,24968,1,0,0:0:0:0:
419,24,25118,1,0,0:0:0:0:
414,34,25193,69,0,1:0:0:0:
341,143,25343,1,0,0:0:0:0:
282,25,25493,1,8,2:0:0:0:
287,97,25643,5,8,2:0:0:0:
277,101,25718,2,0,B|226:113|226:113|178:92,1,105.000004005432
168,88,25943,1,0,1:0:0:0:
125,145,26093,2,0,L|-3:133,1,105.000004005432,8|0,2:0|1:0,0:0:0:0:
189,223,26393,69,0,1:0:0:0:
118,216,26543,1,0,0:0:0:0:
47,209,26693,1,8,2:0:0:0:
5,268,26843,5,0,0:0:0:0:
0,277,26918,2,0,P|0:328|36:364,1,105.000004005432
47,369,27143,1,0,1:0:0:0:
106,328,27293,1,8,2:0:0:0:
124,336,27368,1,0,0:0:0:0:
144,332,27443,1,0,0:0:0:0:
195,383,27593,69,0,1:0:0:0:
266,376,27743,1,0,0:0:0:0:
337,369,27893,1,8,2:0:0:0:
379,310,28043,5,0,0:0:0:0:
374,300,28118,2,0,P|374:249|410:213,1,105.000004005432
420,210,28343,1,0,1:0:0:0:
343,236,28493,1,8,2:0:0:0:
332,238,28568,1,0,0:0:0:0:
278,190,28718,1,0,0:0:0:0:
267,188,28793,69,0,1:0:0:0:
184,281,28943,1,0,0:0:0:0:
144,162,29093,1,8,2:0:0:0:
131,233,29243,5,0,0:0:0:0:
124,241,29318,2,0,P|56:244|23:210,1,105.000004005432
27,212,29543,1,0,1:0:0:0:
72,156,29693,2,0,B|79:104|79:104|54:58,1,105.000004005432,8|0,2:0|0:0,0:0:0:0:
152,90,29993,69,0,1:0:0:0:
191,104,30068,1,0,0:0:0:0:
212,140,30143,1,0,0:0:0:0:
226,100,30218,1,0,0:0:0:0:
262,80,30293,1,8,2:0:0:0:
201,33,30443,1,0,0:0:0:0:
321,121,30593,5,0,0:0:0:0:
350,110,30668,1,0,0:0:0:0:
366,83,30743,1,0,1:0:0:0:
376,113,30818,1,0,0:0:0:0:
403,128,30893,1,8,2:0:0:0:
269,7,31043,1,8,2:0:0:0:
469,89,31193,69,4,1:2:0:0:
358,184,31343,1,0,0:0:0:0:
384,327,31493,1,8,2:0:0:0:
439,281,31643,5,8,2:0:0:0:
431,273,31718,2,0,B|407:253|407:253|321:260,1,105.000004005432
263,267,31943,1,0,1:0:0:0:
206,309,32093,1,8,2:0:0:0:
208,319,32168,1,0,0:0:0:0:
136,302,32318,1,0,0:0:0:0:
134,292,32393,69,0,1:0:0:0:
144,168,32543,1,0,0:0:0:0:
154,44,32693,1,8,2:0:0:0:
113,103,32843,5,8,2:0:0:0:
104,108,32918,2,0,P|53:112|14:79,1,105.000004005432
14,7,33143,1,0,1:0:0:0:
43,145,33293,2,0,B|38:218|38:218|58:242,1,105.000004005432,8|0,2:0|0:0,0:0:0:0:
185,109,33593,69,0,1:0:0:0:
297,16,33743,1,0,0:0:0:0:
434,66,33893,1,8,2:0:0:0:
379,112,34043,5,8,2:0:0:0:
377,122,34118,2,0,B|369:173|369:173|394:219,1,105.000004005432
463,238,34343,1,0,1:0:0:0:
481,307,34493,1,8,2:0:0:0:
502,337,34568,1,0,0:0:0:0:
495,373,34643,1,0,0:0:0:0:
412,290,34793,69,0,1:0:0:0:
288,300,34943,1,0,0:0:0:0:
164,310,35093,1,8,2:0:0:0:
229,340,35243,5,8,2:0:0:0:
237,333,35318,2,0,P|263:277|243:228,1,105.000004005432
189,206,35543,1,0,1:0:0:0:
118,215,35693,1,8,2:0:0:0:
107,215,35768,1,0,0:0:0:0:
39,193,35918,1,0,0:0:0:0:
29,191,35993,69,0,1:0:0:0:
146,149,36143,1,0,0:0:0:0:
51,68,36293,1,8,2:0:0:0:
121,82,36443,5,8,2:0:0:0:
128,74,36518,2,0,B|152:54|152:54|225:59,1,105.000004005432
275,111,36743,1,0,1:0:0:0:
339,80,36893,2,0,B|363:100|363:100|436:94,1,105.000004005432,8|0,2:0|0:0,0:0:0:0:
329,10,37193,69,0,1:0:0:0:
452,24,37343,1,0,0:0:0:0:
330,0,37493,1,8,2:0:0:0:
339,80,37643,5,8,2:0:0:0:
343,89,37718,2,0,P|341:140|305:176,1,105.000004005432
234,170,37943,1,0,1:0:0:0:
193,227,38093,1,8,2:0:0:0:
201,245,38168,1,0,0:0:0:0:
197,265,38243,1,0,0:0:0:0:
249,314,38393,69,0,1:0:0:0:
103,316,38543,1,0,0:0:0:0:
248,325,38693,1,8,2:0:0:0:
303,371,38843,5,8,2:0:0:0:
313,369,38918,2,0,L|432:358,1,105.000004005432
489,353,39143,1,0,1:0:0:0:
411,353,39293,2,0,B|391:329|391:329|396:256,1,105.000004005432,8|0,2:0|0:0,0:0:0:0:
485,121,39593,70,0,B|511:99|511:99|501:202,1,125.999996154785,6|0,1:2|0:0,0:0:0:0:
412,105,40193,37,0,0:0:0:0:
414,119,40268,1,0,0:0:0:0:
412,139,40343,1,0,0:0:0:0:
402,163,40418,1,0,0:0:0:0:
380,184,40493,1,0,0:0:0:0:
345,195,40568,1,0,0:0:0:0:
304,183,40643,1,0,0:0:0:0:
274,145,40718,1,0,0:0:0:0:
223,97,40793,69,6,1:2:0:0:
171,105,40868,1,0,0:0:0:0:
143,135,40943,1,0,0:0:0:0:
136,166,41018,1,0,0:0:0:0:
138,186,41093,1,8,2:0:0:0:
67,182,41243,5,2,0:0:0:0:
58,233,41318,1,0,0:0:0:0:
78,269,41393,1,0,1:0:0:0:
105,286,41468,1,0,0:0:0:0:
125,290,41543,1,0,0:0:0:0:
101,357,41693,69,10,2:0:0:0:
147,381,41768,1,0,0:0:0:0:
188,373,41843,1,0,1:0:0:0:
211,352,41918,1,0,0:0:0:0:
222,334,41993,1,0,0:0:0:0:
278,378,42143,5,2,1:2:0:0:
315,340,42218,1,0,0:0:0:0:
320,300,42293,1,8,2:0:0:0:
307,271,42368,1,0,0:0:0:0:
294,256,42443,1,0,0:0:0:0:
353,217,42593,69,2,1:2:0:0:
329,170,42668,1,0,0:0:0:0:
292,152,42743,1,0,1:0:0:0:
260,155,42818,1,0,0:0:0:0:
242,163,42893,1,10,2:0:0:0:
277,172,42968,1,0,0:0:0:0:
322,160,43043,1,0,0:0:0:0:
373,133,43118,1,0,0:0:0:0:
444,139,43193,6,0,P|469:93|455:44,1,105.000004005432,2|0,1:2|1:0,0:0:0:0:
319,86,43493,1,10,2:0:0:0:
338,18,43643,2,0,B|296:7|265:37|265:37|235:67|193:56,1,157.500006008148,2|0,0:0|0:0,0:0:0:0:
136,13,43943,1,0,0:0:0:0:
197,65,44093,1,10,2:0:0:0:
177,71,44168,1,0,0:0:0:0:
162,86,44243,1,0,1:0:0:0:
157,106,44318,1,0,0:0:0:0:
125,134,44393,69,2,0:0:0:0:
175,176,44468,1,0,0:0:0:0:
182,236,44543,1,0,1:0:0:0:
156,283,44618,1,0,0:0:0:0:
116,305,44693,1,8,2:0:0:0:
78,305,44768,1,0,0:0:0:0:
47,293,44843,1,0,0:0:0:0:
28,276,44918,1,0,0:0:0:0:
20,262,44993,5,2,1:2:0:0:
16,240,45068,1,0,0:0:0:0:
40,230,45143,69,0,1:0:0:0:
58,206,45218,1,0,0:0:0:0:
89,220,45293,5,10,2:0:0:0:
126,213,45368,1,0,0:0:0:0:
143,254,45443,69,0,0:0:0:0:
183,281,45518,1,0,0:0:0:0:
170,352,45593,6,0,B|204:381|204:381|356:367,1,157.500006008148,2|0,1:2|0:0,0:0:0:0:
326,370,45893,1,10,2:0:0:0:
336,299,46043,1,0,0:0:0:0:
445,242,46193,70,0,B|421:222|421:222|335:229,1,105.000004005432,2|0,1:2|0:0,0:0:0:0:
276,234,46493,1,8,2:0:0:0:
266,305,46643,1,2,1:2:0:0:
348,228,46793,6,0,B|358:115|358:115|329:81,1,157.500006008148
322,74,47093,1,10,2:2:0:0:
252,87,47243,1,2,0:2:0:0:
387,132,47393,69,2,1:2:0:0:
455,158,47543,1,0,1:0:0:0:
511,111,47693,1,10,2:0:0:0:
442,83,47843,1,0,0:0:0:0:
273,156,47993,6,0,B|231:167|200:137|200:137|170:107|128:118,1,157.500006008148,2|0,1:2|0:0,0:0:0:0:
80,171,48293,1,10,2:0:0:0:
108,43,48443,1,2,0:0:0:0:
122,47,48518,2,0,P|162:107|149:188,1,157.500006008148,2|2,0:0|0:0,0:0:0:0:
100,240,48893,1,10,2:0:0:0:
88,263,48968,1,0,0:0:0:0:
85,289,49043,1,0,1:0:0:0:
93,314,49118,1,0,0:0:0:0:
109,334,49193,70,0,P|72:298|69:247,1,105.000004005432,2|0,0:0|1:0,0:0:0:0:
170,256,49493,1,10,2:0:0:0:
195,261,49568,1,0,0:0:0:0:
221,257,49643,1,0,0:0:0:0:
243,243,49718,1,0,0:0:0:0:
258,223,49793,5,2,1:2:0:0:
217,329,49943,1,0,1:0:0:0:
347,382,50093,1,14,2:2:0:0:
306,276,50243,1,4,2:0:0:0:
196,189,50393,70,0,P|162:99|248:57,1,210.000008010865,6|8,1:2|2:0,0:0:0:0:
228,126,50843,1,8,2:0:0:0:
239,48,50993,2,0,P|155:95|183:188,1,210.000008010865,2|8,1:2|2:0,0:0:0:0:
237,128,51443,1,0,1:0:0:0:
142,87,51593,6,0,B|68:93|68:93|44:73,1,105.000004005432,2|0,0:0|1:0,0:0:0:0:
54,2,51893,1,8,2:0:0:0:
79,158,52043,1,2,0:0:0:0:
84,164,52118,2,0,P|69:213|25:239,1,105.000004005432,2|0,0:0|0:0,0:0:0:0:
15,239,52343,69,2,1:2:0:0:
87,235,52493,1,10,2:0:0:0:
144,278,52643,1,2,0:0:0:0:
203,373,52793,5,2,1:2:0:0:
274,384,52943,1,0,1:0:0:0:
338,330,53093,1,10,2:0:0:0:
409,268,53243,1,0,0:0:0:0:
512,253,53393,1,2,1:2:0:0:
498,324,53543,1,0,0:0:0:0:
397,370,53693,69,10,2:2:0:0:
350,228,53843,1,0,1:0:0:0:
449,118,53993,1,2,0:0:0:0:
393,171,54143,5,2,1:2:0:0:
361,152,54218,1,2,0:0:0:0:
326,161,54293,1,8,2:0:0:0:
287,95,54443,1,0,0:0:0:0:
255,114,54518,1,0,0:0:0:0:
220,105,54593,69,2,1:2:0:0:
198,57,54668,1,0,0:0:0:0:
153,70,54743,5,0,1:0:0:0:
112,50,54818,1,0,0:0:0:0:
89,83,54893,69,10,2:2:0:0:
52,92,54968,1,0,0:0:0:0:
54,126,55043,5,0,0:0:0:0:
35,152,55118,1,0,0:0:0:0:
54,173,55193,70,0,B|47:248|47:248|42:256|42:256|36:328|36:328|80:372,1,210.000008010865,2|8,1:2|2:0,0:0:0:0:
144,357,55643,1,0,0:0:0:0:
172,292,55793,5,2,1:2:0:0:
188,280,55868,1,0,0:0:0:0:
208,282,55943,1,0,0:0:0:0:
245,205,56093,69,10,2:2:0:0:
263,219,56168,1,0,0:0:0:0:
270,245,56243,1,0,1:0:0:0:
361,248,56393,5,2,0:0:0:0:
350,275,56468,1,0,0:0:0:0:
324,292,56543,1,0,1:0:0:0:
358,383,56693,69,10,2:2:0:0:
324,381,56768,1,0,0:0:0:0:
295,357,56843,1,0,0:0:0:0:
401,326,56993,1,2,1:2:0:0:
470,344,57143,5,0,1:0:0:0:
480,325,57218,1,0,0:0:0:0:
484,294,57293,1,10,2:2:0:0:
472,254,57368,1,0,0:0:0:0:
428,224,57443,1,0,0:0:0:0:
401,168,57518,1,0,0:0:0:0:
438,106,57593,70,0,P|399:140|348:138,1,105.000004005432,2|0,1:2|1:0,0:0:0:0:
339,133,57818,1,2,0:0:0:0:
305,69,57968,1,2,0:0:0:0:
300,59,58043,2,0,P|253:35|204:50,1,105.000004005432,2|2,0:0|1:2,0:0:0:0:
198,56,58268,5,2,0:0:0:0:
133,85,58418,1,0,0:0:0:0:
122,82,58493,1,8,2:0:0:0:
55,104,58643,1,2,1:2:0:0:
47,122,58718,1,0,0:0:0:0:
51,142,58793,70,0,B|71:166|71:166|64:252,1,105.000004005432,2|0,0:0|1:0,0:0:0:0:
64,250,59018,1,2,0:0:0:0:
30,313,59168,1,2,0:0:0:0:
29,323,59243,2,0,B|53:343|53:343|139:336,1,105.000004005432,2|2,0:0|1:2,0:0:0:0:
185,296,59543,5,0,1:0:0:0:
305,376,59693,1,10,2:0:0:0:
434,311,59843,1,14,2:0:0:0:
314,231,59993,6,0,P|304:207|308:174,1,41.9999987182618,4|0,1:2|0:0,0:0:0:0:
347,134,60293,1,0,0:0:0:0:
350,126,60443,1,0,0:0:0:0:
282,103,60743,1,0,0:0:0:0:
280,94,60893,1,0,0:0:0:0:
211,117,61193,5,0,0:0:0:0:
205,110,61343,1,0,0:0:0:0:
157,165,61643,1,0,0:0:0:0:
211,117,61943,1,0,0:0:0:0:
282,103,62093,1,0,0:0:0:0:
347,134,62243,1,0,0:0:0:0:
458,41,62393,70,0,P|448:65|452:98,1,41.9999987182618
472,149,62693,1,0,0:0:0:0:
480,146,62843,1,0,0:0:0:0:
487,219,63143,1,0,0:0:0:0:
495,216,63293,1,0,0:0:0:0:
449,280,63593,5,0,0:0:0:0:
441,283,63743,1,0,0:0:0:0:
464,350,64043,1,0,0:0:0:0:
449,280,64343,1,0,0:0:0:0:
487,219,64493,1,0,0:0:0:0:
472,149,64643,1,0,0:0:0:0:
353,220,64793,70,0,P|329:230|296:226,1,41.9999987182618
270,298,65093,1,0,0:0:0:0:
276,292,65243,1,0,0:0:0:0:
229,238,65543,1,0,0:0:0:0:
231,229,65693,1,0,0:0:0:0:
160,215,65993,5,0,0:0:0:0:
159,206,66143,1,0,0:0:0:0:
89,229,66443,1,0,0:0:0:0:
160,215,66743,1,0,0:0:0:0:
229,238,66893,1,0,0:0:0:0:
270,298,67043,1,0,0:0:0:0:
214,168,67193,70,0,P|217:142|237:115,1,41.9999987182618
244,52,67493,1,0,0:0:0:0:
247,60,67643,1,0,0:0:0:0:
174,67,67943,1,0,0:0:0:0:
177,75,68093,1,0,0:0:0:0:
113,29,68393,5,0,0:0:0:0:
110,21,68543,1,0,0:0:0:0:
43,44,68843,1,0,0:0:0:0:
113,29,69143,1,0,0:0:0:0:
174,67,69293,1,0,0:0:0:0:
244,52,69443,1,0,0:0:0:0:
160,215,69593,6,0,L|165:274,1,41.9999987182618,4|0,1:2|0:0,0:0:0:0:
148,327,69865,1,0,0:0:0:0:
146,334,70002,1,0,0:0:0:0:
218,340,70274,1,0,0:0:0:0:
217,347,70411,1,0,0:0:0:0:
266,286,70683,5,0,0:0:0:0:
264,279,70820,1,0,0:0:0:0:
336,273,71092,1,0,0:0:0:0:
429,374,71502,1,0,0:0:0:0:
428,381,71639,1,0,0:0:0:0:
498,368,71774,70,0,L|503:304,1,41.9999987182618,4|0,1:2|0:0,0:0:0:0:
481,257,72024,1,0,0:0:0:0:
473,260,72149,1,0,0:0:0:0:
450,192,72399,1,0,0:0:0:0:
441,190,72524,1,0,0:0:0:0:
464,121,72774,5,0,0:0:0:0:
457,115,72899,1,0,0:0:0:0:
512,67,73149,1,0,0:0:0:0:
387,140,73399,1,0,0:0:0:0:
378,141,73524,1,0,0:0:0:0:
369,142,73649,1,0,0:0:0:0:
309,98,73774,70,0,L|245:92,1,41.9999987182618,4|0,1:2|0:0,0:0:0:0:
204,55,74004,1,0,0:0:0:0:
206,62,74120,1,0,0:0:0:0:
134,68,74350,1,0,0:0:0:0:
135,75,74466,1,0,0:0:0:0:
86,14,74697,5,0,0:0:0:0:
88,7,74812,1,0,0:0:0:0:
16,1,75043,1,0,0:0:0:0:
109,143,75389,1,0,0:0:0:0:
110,150,75504,1,0,0:0:0:0:
73,214,75620,70,0,L|78:277,1,41.9999987182618,4|0,1:2|0:0,0:0:0:0:
40,315,75834,1,0,0:0:0:0:
37,323,75941,1,0,0:0:0:0:
105,346,76155,1,0,0:0:0:0:
107,355,76262,1,0,0:0:0:0:
176,332,76477,5,0,0:0:0:0:
182,339,76584,1,0,0:0:0:0:
230,284,76798,1,0,0:0:0:0:
329,376,77012,1,0,0:0:0:0:
320,375,77120,1,0,0:0:0:0:
311,374,77227,1,0,0:0:0:0:
389,333,77334,6,0,L|464:339,1,41.9999987182618,4|0,1:2|0:0,0:0:0:0:
491,294,77534,1,0,0:0:0:0:
499,295,77634,1,0,0:0:0:0:
484,221,77834,1,0,0:0:0:0:
476,220,77934,1,0,0:0:0:0:
338,249,78134,6,0,L|296:252,1,41.9999987182618,4|0,1:2|0:0,0:0:0:0:
236,210,78334,1,0,0:0:0:0:
228,211,78434,1,0,0:0:0:0:
243,137,78634,1,0,0:0:0:0:
251,136,78734,1,0,0:0:0:0:
435,152,78934,70,0,L|510:145,1,41.9999987182618,4|0,1:2|0:0,0:0:0:0:
486,76,79121,1,0,0:0:0:0:
487,68,79215,1,0,0:0:0:0:
362,161,79402,1,0,0:0:0:0:
361,169,79496,1,0,0:0:0:0:
200,60,79684,6,0,L|275:66,1,41.9999987182618,4|0,1:2|0:0,0:0:0:0:
251,136,79871,1,0,0:0:0:0:
252,144,79965,1,0,0:0:0:0:
127,51,80152,1,0,0:0:0:0:
126,43,80246,1,0,0:0:0:0:
166,260,80434,70,0,L|159:185,1,41.9999987182618,4|0,1:2|0:0,0:0:0:0:
79,104,80610,2,0,L|86:179,1,41.9999987182618,4|0,1:2|0:0,0:0:0:0:
98,278,80875,1,0,0:0:0:0:
150,330,80963,2,0,L|225:336,1,41.9999987182618,0|0,1:0|0:0,0:0:0:0:
419,208,81139,6,0,L|494:202,1,41.9999987182618,4|0,1:2|0:0,0:0:0:0:
307,343,81316,2,0,L|232:337,1,41.9999987182618,4|0,1:2|0:0,0:0:0:0:
445,384,81581,1,0,0:0:0:0:
473,320,81669,2,0,L|467:245,1,41.9999987182618,0|0,1:0|0:0,0:0:0:0:
471,55,81845,70,0,L|546:48,1,41.9999987182618,4|0,1:2|0:0,0:0:0:0:
339,143,82011,1,0,0:0:0:0:
340,135,82095,1,0,0:0:0:0:
377,204,82178,6,0,L|452:211,1,41.9999987182618,4|0,1:2|0:0,0:0:0:0:
245,116,82344,1,0,0:0:0:0:
246,124,82428,1,0,0:0:0:0:
283,55,82511,70,0,L|358:48,1,41.9999987182618,4|0,1:2|0:0,0:0:0:0:
151,143,82678,1,0,0:0:0:0:
152,135,82762,1,0,0:0:0:0:
189,204,82845,6,0,L|264:211,1,41.9999987182618,4|0,1:2|0:0,0:0:0:0:
57,116,83011,1,0,0:0:0:0:
58,124,83095,1,0,0:0:0:0:
90,51,83178,70,0,L|97:-24,1,41.9999987182618,4|0,1:2|0:0,0:0:0:0:
94,187,83335,2,0,L|87:262,1,41.9999987182618,4|0,1:2|0:0,0:0:0:0:
185,340,83493,6,0,L|192:415,1,41.9999987182618,4|0,1:2|0:0,0:0:0:0:
189,204,83651,2,0,L|182:129,1,41.9999987182618,4|0,1:2|0:0,0:0:0:0:
280,51,83810,70,0,L|287:-24,1,41.9999987182618,4|0,1:2|0:0,0:0:0:0:
284,187,83967,2,0,L|277:262,1,41.9999987182618,4|0,1:2|0:0,0:0:0:0:
375,340,84125,6,0,L|382:415,1,41.9999987182618,4|0,1:2|0:0,0:0:0:0:
379,204,84283,2,0,L|372:129,1,41.9999987182618,4|0,1:2|0:0,0:0:0:0:
434,33,84441,69,4,1:2:0:0:
463,113,84516,1,0,1:0:0:0:
463,190,84591,1,0,1:0:0:0:
440,255,84666,1,0,1:0:0:0:
402,303,84741,1,0,1:0:0:0:
355,332,84816,1,0,1:0:0:0:
307,342,84891,1,0,1:0:0:0:
264,336,84966,1,0,1:0:0:0:
230,318,85041,1,0,1:0:0:0:
208,293,85116,1,0,1:0:0:0:
197,266,85191,1,0,1:0:0:0:
197,239,85266,1,0,1:0:0:0:
205,218,85341,1,0,1:0:0:0:
220,202,85416,1,0,1:0:0:0:
238,194,85491,1,0,1:0:0:0:
256,192,85566,1,0,1:0:0:0:
256,224,85641,22,0,P|263:241|276:255,1,26.2500010013581,2|0,1:2|0:0,0:0:0:0:
278,214,85719,6,0,P|296:221|315:222,1,28
291,192,85798,6,0,P|308:184|322:171,1,29.7500005674362
283,164,85877,6,0,P|290:146|291:127,1,31.4999990386963
256,149,85956,6,0,P|248:131|235:117,1,33.2499991121292
223,159,86035,6,0,P|205:152|186:151,1,35
207,192,86114,6,0,P|189:199|175:212,1,36.749998878479
219,228,86193,6,0,P|212:246|211:265,1,38.5000011749268
256,247,86272,6,0,P|265:266|289:287,1,40.2500007677078
295,231,86351,6,0,P|316:238|347:235,1,41.9999987182618
317,192,86430,6,0,P|336:182|357:158,1,43.75
303,144,86509,6,0,P|310:123|307:91,1,45.4999979171754
256,119,86588,6,0,P|246:99|222:78,1,47.2500001802444
200,136,86667,6,0,P|179:129|147:131,1,48.9999985046387
171,191,86746,6,0,P|151:200|130:224,1,50.7500015487671
192,255,86825,6,0,P|185:276|187:307,1,52.5000020027161
256,287,86904,6,0,B|297:278|328:306|328:306|360:334|401:325,1,157.500006008148,4|0,1:2|0:0,0:0:0:0:
380,256,87204,1,8,2:0:0:0:
384,236,87279,1,0,0:0:0:0:
402,209,87354,1,2,0:0:0:0:
438,191,87429,1,2,0:0:0:0:
490,201,87504,1,2,1:2:0:0:
483,272,87654,5,0,0:0:0:0:
476,130,87804,1,8,2:0:0:0:
483,59,87954,1,2,1:2:0:0:
447,66,88029,1,2,0:2:0:0:
417,45,88104,1,2,0:0:0:0:
405,124,88254,69,0,1:0:0:0:
340,145,88329,1,0,0:0:0:0:
289,108,88404,1,8,2:0:0:0:
267,60,88479,1,0,0:0:0:0:
230,41,88554,1,0,0:0:0:0:
199,40,88629,1,0,0:0:0:0:
179,46,88704,5,2,1:2:0:0:
211,110,88854,1,0,1:0:0:0:
140,106,89004,1,10,2:2:0:0:
108,42,89154,1,0,0:0:0:0:
101,166,89304,69,2,1:2:0:0:
96,175,89454,1,0,1:0:0:0:
89,299,89604,1,8,2:0:0:0:
152,265,89754,5,2,0:2:0:0:
169,275,89829,1,2,0:2:0:0:
189,274,89904,1,2,1:2:0:0:
231,333,90054,1,2,0:0:0:0:
303,326,90204,1,8,2:0:0:0:
260,268,90354,69,0,1:0:0:0:
275,256,90429,1,0,0:0:0:0:
295,254,90504,1,2,0:0:0:0:
360,283,90654,1,0,1:0:0:0:
391,266,90729,1,0,0:0:0:0:
426,273,90804,1,10,2:0:0:0:
480,227,90954,1,0,0:0:0:0:
403,341,91104,5,2,1:2:0:0:
404,351,91254,1,2,1:2:0:0:
492,297,91404,1,10,2:2:0:0:
415,198,91554,1,2,0:0:0:0:
462,81,91704,69,2,1:2:0:0:
470,152,91854,1,0,0:0:0:0:
349,172,92004,1,8,2:0:0:0:
334,152,92079,1,0,0:0:0:0:
312,138,92154,1,2,0:0:0:0:
286,134,92229,1,0,0:0:0:0:
261,139,92304,5,2,1:2:0:0:
216,195,92454,1,0,0:0:0:0:
241,261,92604,1,8,2:0:0:0:
145,184,92754,2,0,B|121:204|121:204|35:197,1,105.000004005432,0|0,1:0|0:0,0:0:0:0:
103,243,93054,69,2,1:2:0:0:
110,279,93129,1,2,0:2:0:0:
89,309,93204,1,10,2:2:0:0:
113,376,93354,1,0,0:0:0:0:
19,297,93504,5,2,1:2:0:0:
164,326,93654,1,0,1:0:0:0:
309,355,93804,2,0,B|351:366|382:336|382:336|412:306|454:317,1,157.500006008148,10|0,2:2|0:0,0:0:0:0:
384,301,94104,70,0,P|351:261|356:210,1,105.000004005432,2|0,1:2|0:0,0:0:0:0:
462,192,94404,1,10,2:0:0:0:
503,159,94479,1,0,0:0:0:0:
512,119,94554,1,0,0:0:0:0:
502,88,94629,1,0,0:0:0:0:
471,79,94704,5,2,1:2:0:0:
455,38,94779,1,0,0:0:0:0:
425,20,94854,1,0,0:0:0:0:
398,20,94929,1,0,0:0:0:0:
382,47,95004,69,10,2:2:0:0:
345,48,95079,1,0,0:0:0:0:
323,67,95154,1,0,1:0:0:0:
316,89,95229,1,0,0:0:0:0:
325,107,95304,5,2,0:0:0:0:
301,154,95379,1,0,0:0:0:0:
256,172,95454,1,0,1:0:0:0:
214,162,95529,1,0,0:0:0:0:
189,135,95604,1,10,2:2:0:0:
181,105,95679,1,0,0:0:0:0:
184,80,95754,1,0,0:0:0:0:
192,61,95829,1,0,0:0:0:0:
201,50,95904,1,2,1:2:0:0:
113,84,96054,69,0,1:0:0:0:
59,77,96129,1,0,0:0:0:0:
24,99,96204,1,12,2:0:0:0:
9,127,96279,1,0,0:0:0:0:
7,147,96354,1,4,2:0:0:0:
66,264,96504,6,0,B|103:226|103:226|175:232|175:232|183:237|183:237|258:244,1,210.000008010865,4|8,1:2|2:0,0:0:0:0:
317,284,96954,1,2,0:2:0:0:
347,263,97029,1,2,0:2:0:0:
383,270,97104,1,2,1:2:0:0:
258,244,97254,1,0,0:0:0:0:
364,338,97404,1,8,2:0:0:0:
420,209,97554,70,0,B|446:211|465:231|465:231|476:189|446:158|446:158|416:128|427:86,1,210.000008010865,2|0,1:2|1:0,0:0:0:0:
479,37,98004,1,8,2:0:0:0:
427,85,98154,1,2,0:2:0:0:
397,64,98229,1,2,0:2:0:0:
361,71,98304,1,2,1:2:0:0:
479,37,98454,1,0,1:0:0:0:
381,140,98604,1,8,2:0:0:0:
334,6,98754,2,0,P|310:-1|282:1,1,52.5000020027161,2|0,0:0|0:0,0:0:0:0:
261,69,98904,6,0,B|225:103|227:147|245:184|284:199|284:199|282:172|299:147,1,210.000008010865,0|8,1:0|2:0,0:0:0:0:
226,132,99354,1,2,0:2:0:0:
196,153,99429,1,2,0:2:0:0:
160,146,99504,1,2,1:2:0:0:
76,63,99654,1,2,0:0:0:0:
112,56,99729,1,2,0:0:0:0:
142,77,99804,1,10,2:0:0:0:
109,196,99954,54,0,B|114:263|114:263|119:271|119:271|126:355|126:355|89:294,1,210.000008010865,2|0,1:2|1:0,0:0:0:0:
44,270,100404,1,8,2:0:0:0:
146,257,100554,1,2,0:2:0:0:
176,278,100629,1,2,0:2:0:0:
212,271,100704,1,2,1:2:0:0:
270,312,100854,5,0,1:0:0:0:
361,228,101004,1,10,2:2:0:0:
479,264,101154,1,0,0:0:0:0:
340,297,101304,6,0,B|329:184|329:184|358:150,1,157.500006008148,2|0,1:2|0:0,0:0:0:0:
366,143,101604,1,8,2:0:0:0:
421,190,101754,1,0,0:0:0:0:
441,186,101829,1,0,0:0:0:0:
459,194,101904,1,2,1:2:0:0:
361,228,102054,1,0,0:0:0:0:
268,109,102204,1,8,2:0:0:0:
366,143,102354,70,0,B|310:123|271:168|271:168|233:213|177:193,1,210.000008010865,2|0,1:2|1:0,0:0:0:0:
140,132,102804,1,8,2:0:0:0:
79,169,102954,5,0,0:0:0:0:
49,148,103029,1,0,0:0:0:0:
13,155,103104,1,2,1:2:0:0:
33,224,103254,1,0,1:0:0:0:
211,129,103404,1,10,2:2:0:0:
191,60,103554,1,0,0:0:0:0:
103,237,103704,69,2,1:2:0:0:
121,306,103854,1,0,0:0:0:0:
146,301,103929,1,0,0:0:0:0:
172,305,104004,1,10,2:2:0:0:
194,319,104079,1,0,0:0:0:0:
217,306,104154,5,0,0:0:0:0:
224,345,104229,1,0,0:0:0:0:
250,373,104304,1,2,1:2:0:0:
287,384,104379,1,0,0:0:0:0:
351,346,104454,69,0,0:0:0:0:
358,327,104529,1,0,0:0:0:0:
358,301,104604,1,10,2:2:0:0:
341,263,104679,1,0,0:0:0:0:
293,240,104754,1,0,1:0:0:0:
259,188,104829,1,0,0:0:0:0:
288,121,104904,5,2,0:0:0:0:
187,197,105054,1,0,1:0:0:0:
191,206,105204,1,10,2:0:0:0:
145,140,105354,1,0,0:0:0:0:
129,151,105429,1,0,0:0:0:0:
122,170,105504,69,2,1:2:0:0:
217,131,105654,1,0,1:0:0:0:
131,242,105804,1,12,2:0:0:0:
36,203,105954,1,4,2:0:0:0:
174,74,106104,5,6,1:2:0:0:
224,59,106179,1,0,0:0:0:0:
262,74,106254,1,0,0:0:0:0:
282,99,106329,1,0,0:0:0:0:
288,118,106404,1,8,2:0:0:0:
342,62,106554,69,2,0:0:0:0:
377,99,106629,1,0,0:0:0:0:
418,106,106704,1,0,1:0:0:0:
448,94,106779,1,0,0:0:0:0:
462,80,106854,1,0,0:0:0:0:
448,10,107004,1,10,2:0:0:0:
344,163,107154,5,0,1:0:0:0:
329,213,107229,1,0,0:0:0:0:
344,251,107304,1,2,0:0:0:0:
369,271,107379,1,0,0:0:0:0:
388,277,107454,69,0,1:2:0:0:
424,254,107529,1,0,0:0:0:0:
461,256,107604,1,10,2:0:0:0:
487,270,107679,1,0,0:0:0:0:
503,291,107754,1,0,0:0:0:0:
510,310,107829,1,0,0:0:0:0:
512,324,107904,5,2,1:2:0:0:
473,384,108054,1,0,1:0:0:0:
403,377,108204,1,10,2:2:0:0:
333,370,108354,1,0,0:0:0:0:
234,298,108504,69,2,1:2:0:0:
122,347,108654,1,2,1:2:0:0:
120,357,108804,1,8,2:0:0:0:
163,288,108954,5,0,0:0:0:0:
66,212,109104,1,2,1:2:0:0:
83,89,109254,1,2,0:0:0:0:
93,91,109404,1,8,2:0:0:0:
39,145,109554,1,0,1:0:0:0:
137,221,109704,69,2,0:0:0:0:
181,165,109854,1,0,1:0:0:0:
251,175,110004,2,0,P|288:211|339:211,1,105.000004005432,10|0,2:2|0:0,0:0:0:0:
256,103,110304,6,0,B|250:29|250:29|270:5,1,105.000004005432,2|0,1:2|1:0,0:0:0:0:
315,144,110604,1,10,2:2:0:0:
402,104,110754,1,0,0:0:0:0:
479,160,110904,70,0,B|490:202|460:233|460:233|430:263|441:305,1,157.500006008148,2|0,1:2|0:0,0:0:0:0:
445,314,111204,2,0,P|393:314|357:350,1,105.000004005432,8|0,2:0|0:0,0:0:0:0:
291,324,111504,1,0,1:0:0:0:
229,360,111654,1,2,0:0:0:0:
212,350,111729,1,0,0:0:0:0:
192,351,111804,1,8,2:0:0:0:
151,293,111954,6,0,B|117:257|73:259|36:277|21:316|21:316|48:314|73:331,1,210.000008010865,2|0,1:2|1:0,0:0:0:0:
88,259,112404,1,8,2:0:0:0:
42,204,112554,1,0,0:0:0:0:
60,134,112704,69,2,1:2:0:0:
70,133,112779,1,0,0:0:0:0:
137,158,112929,1,2,0:0:0:0:
147,159,113004,1,8,2:0:0:0:
202,112,113154,1,2,0:0:0:0:
232,133,113229,1,0,0:0:0:0:
268,126,113304,6,0,B|311:114|341:144|341:144|372:174|414:163|414:163|394:144|392:118,1,210.000008010865,2|8,1:2|2:0,0:0:0:0:
390,47,113754,1,0,0:0:0:0:
332,157,113904,1,2,1:2:0:0:
398,262,114054,1,2,0:0:0:0:
457,221,114204,1,8,2:0:0:0:
467,222,114354,1,0,1:0:0:0:
405,334,114504,69,2,0:0:0:0:
340,304,114654,1,0,1:0:0:0:
310,325,114729,1,0,0:0:0:0:
274,318,114804,1,8,2:0:0:0:
227,372,114954,5,0,0:0:0:0:
156,358,115104,1,2,1:2:0:0:
145,356,115254,1,0,1:0:0:0:
204,304,115404,1,14,2:0:0:0:
181,236,115554,1,6,2:0:0:0:
256,84,115704,37,4,1:2:0:0:
322,114,115854,1,0,0:0:0:0:
378,85,116004,1,0,0:0:0:0:
428,99,116154,1,0,0:0:0:0:
469,90,116304,1,0,0:0:0:0:
511,150,116454,5,0,0:0:0:0:
492,175,116604,1,0,0:0:0:0:
496,206,116754,1,0,0:0:0:0:
442,252,116904,69,0,0:0:0:0:
471,317,117054,1,0,0:0:0:0:
428,374,117204,1,0,0:0:0:0:
329,300,117354,5,0,0:0:0:0:
259,310,117504,1,2,0:0:0:0:
190,319,117654,2,0,L|185:272,1,35
186,330,118104,69,0,0:0:0:0:
162,350,118254,1,0,0:0:0:0:
130,346,118404,1,0,0:0:0:0:
107,278,118554,5,0,0:0:0:0:
67,262,118704,1,0,0:0:0:0:
53,222,118854,1,0,0:0:0:0:
123,208,119004,69,0,0:0:0:0:
163,217,119154,1,0,0:0:0:0:
221,175,119304,5,0,0:0:0:0:
190,119,119454,1,0,0:0:0:0:
216,73,119604,1,0,0:0:0:0:
199,34,119754,1,0,0:0:0:0:
136,71,119920,69,0,0:0:0:0:
115,69,120087,1,0,0:0:0:0:
100,54,120254,1,0,0:0:0:0:
272,121,120596,5,0,0:0:0:0:
299,124,120768,1,0,0:0:0:0:
323,110,120939,1,0,0:0:0:0:
357,106,121111,1,0,0:0:0:0:
403,163,121282,5,0,0:0:0:0:
475,173,121454,1,0,0:0:0:0:
512,52,121625,1,0,0:0:0:0:
419,67,121796,1,0,0:0:0:0:
479,180,121968,69,0,0:0:0:0:
449,245,122695,1,0,0:0:0:0:
490,303,123230,1,0,0:0:0:0:
377,251,123680,5,0,0:0:0:0:
383,260,124225,21,0,0:0:0:0:
298,246,124558,5,0,0:0:0:0:
249,186,124891,5,0,0:0:0:0:
246,122,125345,5,0,0:0:0:0:
256,96,125800,5,0,0:0:0:0:
