osu file format v14

[General]
AudioFilename: audio.mp3
AudioLeadIn: 0
PreviewTime: 40118
Countdown: 0
SampleSet: Soft
StackLeniency: 0.2
Mode: 0
LetterboxInBreaks: 0
WidescreenStoryboard: 1

[Editor]
Bookmarks: 11993,21593,40793,59993,69593,80434,86904,115704
DistanceSpacing: 1
BeatDivisor: 4
GridSize: 4
TimelineZoom: 4.079998

[Metadata]
Title:Mei
TitleUnicode:冥
Artist:Amuro vs. Killer
ArtistUnicode:Amuro vs. Killer
Creator:Ascended
Version:fanzhen's Kaiden
Source:beatmania IIDX 12 HAPPY SKY
Tags:HUMAN SEQUENCER ddr DanceDanceRevolution X2 Toy'sMarch2 Electronic Acylica Haruto Haruto_Aizawa fanzhen0019 how2miss Firika Muya Garden Jounzan Natteke desu EvilElvis EvilElvisV2 Necho Atlust Kyouren gokugohan12468 KittyAdventure -ascended- -_ascended_- Takayuki Ishikawa 石川貴之 Tatsuya Shimizu 清水達也 D.J.Amuro 安室 皆伝 dj TAKA Tatsh TAKASH rhythm game electronic instrumental bemani konami 2dx 冥王星 PLUTO STORY
BeatmapID:4315412
BeatmapSetID:2062538

[Difficulty]
HPDrainRate:5
CircleSize:4.8
OverallDifficulty:9
ApproachRate:9.6
SliderMultiplier:1.6
SliderTickRate:1

[Events]
//Background and Video events
0,0,"70433861.png",0,0
//Break Periods
//Storyboard Layer 0 (Background)
//Storyboard Layer 1 (Fail)
//Storyboard Layer 2 (Pass)
//Storyboard Layer 3 (Foreground)
//Storyboard Layer 4 (Overlay)
//Storyboard Sound Samples

[TimingPoints]
2393,300,4,2,1,30,1,0
11993,-100,4,2,1,40,0,0
20543,-100,4,2,2,40,0,0
20693,-100,4,2,1,40,0,0
21368,-100,4,2,1,40,0,0
21593,-100,4,2,2,50,0,0
39443,-100,4,2,2,50,0,0
39593,-100,4,2,2,50,0,0
59993,600,4,2,2,30,1,0
69593,545.454545454546,4,2,2,40,1,0
71774,500,4,2,2,50,1,0
73774,461.538461538462,4,2,2,50,1,0
75620,428.571428571429,4,2,2,40,1,0
77334,400,4,2,2,50,1,0
78934,375,4,2,2,50,1,0
80434,352.941176470588,4,2,2,60,1,0
81845,333.333333333333,4,2,2,70,1,0
83178,315.789473684211,4,2,2,70,1,0
84441,300,4,2,2,60,1,0
85641,315.789473684211,4,2,2,40,1,0
85641,-50,4,2,2,40,0,0
85680,-50,4,2,2,5,0,0
85719,-50,4,2,2,37,0,0
85758,-50,4,2,2,5,0,0
85798,-50,4,2,2,35,0,0
85837,-50,4,2,2,5,0,0
85877,-50,4,2,2,32,0,0
85916,-50,4,2,2,5,0,0
85956,-50,4,2,2,30,0,0
85995,-50,4,2,2,5,0,0
86035,-50,4,2,2,32,0,0
86074,-50,4,2,2,5,0,0
86114,-50,4,2,2,35,0,0
86153,-50,4,2,2,5,0,0
86193,-50,4,2,2,37,0,0
86232,-50,4,2,2,5,0,0
86272,-50,4,2,2,40,0,0
86311,-50,4,2,2,5,0,0
86351,-50,4,2,2,42,0,0
86390,-50,4,2,2,5,0,0
86430,-50,4,2,2,45,0,0
86469,-50,4,2,2,5,0,0
86509,-50,4,2,2,47,0,0
86548,-50,4,2,2,5,0,0
86588,-50,4,2,2,50,0,0
86627,-50,4,2,2,5,0,0
86667,-50,4,2,2,52,0,0
86706,-50,4,2,2,5,0,0
86746,-50,4,2,2,55,0,0
86785,-50,4,2,2,5,0,0
86825,-50,4,2,2,57,0,0
86864,-50,4,2,2,5,0,0
86904,300,4,2,2,70,1,0
115704,-100,4,2,3,50,0,0
115854,-100,4,2,3,50,0,0
118104,-100,4,2,3,50,0,0
119754,333.333333333333,4,2,3,40,1,0
120254,342.857142857143,4,2,3,40,1,0
121968,363.636363636364,4,2,3,40,1,0
122695,428.571428571429,4,2,3,40,1,0
123230,600,4,2,3,40,1,0
123680,545.454545454546,4,2,3,40,1,0
124225,666.666666666667,4,2,3,40,1,0
124891,909.090909090909,4,2,3,40,1,0
125800,-100,4,2,3,40,0,0

[Colours]
Combo1 : 143,184,200
Combo2 : 77,103,154

[HitObjects]
88,320,2393,5,2,0:0:0:0:
88,320,2543,1,0,0:0:0:0:
50,254,2693,5,0,0:0:0:0:
343,338,2843,2,0,L|433:344,1,80,8|0,2:0|0:0,0:0:0:0:
487,310,3143,1,0,0:0:0:0:
343,338,3293,2,0,L|263:332,1,80,8|0,2:0|0:0,0:0:0:0:
250,344,3893,1,0,0:0:0:0:
410,74,4493,5,0,0:0:0:0:
411,70,4568,1,0,0:0:0:0:
412,66,4643,1,0,0:0:0:0:
413,62,4718,1,0,0:0:0:0:
489,58,4793,6,0,B|446:56|446:56|401:31,1,80,2|0,0:0|0:0,0:0:0:0:
265,39,5093,2,0,B|308:41|308:41|353:66,1,80,0|2,0:0|0:0,0:0:0:0:
497,53,5393,2,0,B|454:51|454:51|409:26,1,80
273,34,5693,2,0,B|316:36|316:36|361:61,1,80,2|0,0:0|0:0,0:0:0:0:
340,58,6293,1,0,0:0:0:0:
51,117,6893,5,0,0:0:0:0:
50,113,6968,1,0,0:0:0:0:
49,109,7043,1,0,0:0:0:0:
48,105,7118,1,0,0:0:0:0:
13,66,7193,5,2,0:0:0:0:
13,66,7343,1,0,0:0:0:0:
74,21,7493,1,2,0:0:0:0:
50,244,7643,2,0,L|39:337,1,80,8|0,2:0|0:0,0:0:0:0:
103,366,7943,1,0,0:0:0:0:
50,244,8093,2,0,L|59:164,1,80,8|0,2:0|0:0,0:0:0:0:
52,158,8693,1,0,0:0:0:0:
428,119,9293,5,2,0:0:0:0:
431,118,9368,1,0,0:0:0:0:
434,117,9443,1,0,0:0:0:0:
437,116,9518,1,0,0:0:0:0:
454,182,9593,6,0,B|449:127|449:127|465:107,1,80,2|0,0:0|0:0,0:0:0:0:
480,31,9893,1,2,0:0:0:0:
398,243,10043,2,0,L|390:332,1,80,8|0,2:0|0:0,0:0:0:0:
323,358,10343,1,0,0:0:0:0:
398,243,10493,2,0,L|405:163,1,80,8|0,2:0|0:0,0:0:0:0:
391,251,10943,2,0,L|398:171,1,80
384,258,11393,2,0,L|391:178,1,80
341,33,11693,5,2,0:0:0:0:
325,30,11768,1,0,0:0:0:0:
309,33,11843,1,0,0:0:0:0:
293,30,11918,1,0,0:0:0:0:
278,36,11993,5,0,3:0:0:0:
217,86,12143,1,0,3:0:0:0:
63,62,12293,2,0,L|148:55,1,80,2|8,2:3|2:0,0:0:0:0:
126,52,12518,1,0,0:0:0:0:
110,49,12593,1,0,2:0:0:0:
94,52,12668,1,0,0:0:0:0:
78,49,12743,1,0,2:0:0:0:
28,189,12893,1,8,2:0:0:0:
44,192,12968,1,0,0:0:0:0:
60,189,13043,1,0,2:0:0:0:
76,192,13118,1,0,0:0:0:0:
91,189,13193,5,0,3:0:0:0:
161,229,13343,1,0,3:0:0:0:
71,350,13493,2,0,L|51:262,1,80,2|0,2:3|3:0,0:0:0:0:
53,271,13718,1,0,0:0:0:0:
53,271,13793,1,0,3:0:0:0:
240,202,13943,1,2,2:3:0:0:
240,202,14018,1,0,2:0:0:0:
240,202,14093,2,0,L|233:248,3,40,0|0|0|0,3:0|0:0|3:0|0:0,0:0:0:0:
201,321,14393,5,0,3:0:0:0:
201,321,14543,1,0,3:0:0:0:
131,299,14693,1,2,2:3:0:0:
368,271,14843,2,0,L|457:262,1,80,8|0,2:0|2:0,0:0:0:0:
435,262,15068,1,0,0:0:0:0:
423,261,15143,1,0,2:0:0:0:
411,260,15218,1,0,0:0:0:0:
368,271,15293,2,0,L|288:279,1,80,8|0,2:0|2:0,0:0:0:0:
347,127,15593,6,0,L|352:47,1,80,0|0,3:0|3:0,0:0:0:0:
472,38,15818,1,0,0:0:0:0:
473,17,15893,2,0,L|467:96,1,80,2|0,0:3|3:0,0:0:0:0:
348,106,16118,1,0,0:0:0:0:
347,127,16193,2,0,L|351:79,1,40,0|0,3:0|0:0,0:0:0:0:
346,128,16343,2,0,L|350:80,1,40,0|0,3:0|0:0,0:0:0:0:
345,129,16493,2,0,L|349:81,1,40,2|0,2:3|0:0,0:0:0:0:
344,130,16643,2,0,L|348:82,1,40,0|0,2:0|0:0,0:0:0:0:
207,52,16793,5,0,3:0:0:0:
294,31,16943,1,0,3:0:0:0:
294,31,17018,1,0,0:0:0:0:
294,31,17093,1,2,2:3:0:0:
116,209,17243,2,0,L|50:272,1,80,8|0,2:0|2:0,0:0:0:0:
61,252,17468,1,0,0:0:0:0:
64,240,17543,1,0,2:0:0:0:
68,228,17618,1,0,0:0:0:0:
116,209,17693,2,0,L|173:153,1,80,8|0,2:0|2:0,0:0:0:0:
218,293,17993,5,0,3:0:0:0:
218,293,18143,1,0,3:0:0:0:
164,343,18293,2,0,L|75:341,1,80,2|0,2:3|3:0,0:0:0:0:
74,333,18518,1,0,0:0:0:0:
79,322,18593,1,0,3:0:0:0:
69,314,18668,1,0,0:0:0:0:
77,305,18743,1,2,2:3:0:0:
379,282,18893,1,0,3:0:0:0:
387,291,18968,1,0,0:0:0:0:
377,299,19043,1,0,3:0:0:0:
382,310,19118,1,0,0:0:0:0:
372,318,19193,2,0,L|291:316,1,80,0|0,3:0|3:0,0:0:0:0:
238,362,19493,5,0,2:3:0:0:
416,135,19643,2,0,L|429:42,1,80,8|0,2:0|2:0,0:0:0:0:
420,65,19868,1,0,0:0:0:0:
413,74,19943,1,0,2:0:0:0:
406,83,20018,1,0,0:0:0:0:
416,135,20093,2,0,L|404:214,1,80,8|0,2:0|2:0,0:0:0:0:
256,192,20393,12,0,21368,0:0:0:0:
62,88,21593,5,4,1:2:0:0:
62,88,21668,1,0,0:0:0:0:
62,88,21743,1,0,0:0:0:0:
62,88,21818,1,0,0:0:0:0:
62,88,21893,2,0,L|151:75,1,80,8|0,2:0|0:0,0:0:0:0:
212,94,22193,1,0,0:0:0:0:
424,57,22343,1,0,1:0:0:0:
424,57,22418,1,0,0:0:0:0:
424,57,22493,2,0,L|344:68,1,80,8|0,2:0|0:0,0:0:0:0:
501,115,22793,5,0,1:0:0:0:
501,115,22868,1,0,0:0:0:0:
501,115,22943,1,0,0:0:0:0:
501,115,23018,1,0,0:0:0:0:
501,115,23093,2,0,L|412:130,1,80,8|0,2:0|0:0,0:0:0:0:
360,167,23393,1,0,0:0:0:0:
147,197,23543,1,0,1:0:0:0:
147,197,23618,1,0,0:0:0:0:
147,197,23693,2,0,L|225:183,1,80,8|0,2:0|0:0,0:0:0:0:
65,275,23993,5,0,1:0:0:0:
65,275,24068,1,0,0:0:0:0:
65,275,24143,1,0,0:0:0:0:
65,275,24218,1,0,0:0:0:0:
65,275,24293,2,0,L|154:262,1,80,8|0,2:0|0:0,0:0:0:0:
215,281,24593,1,0,0:0:0:0:
427,244,24743,1,0,1:0:0:0:
427,244,24818,1,0,0:0:0:0:
427,244,24893,2,0,L|347:255,1,80,8|0,2:0|0:0,0:0:0:0:
504,302,25193,5,0,1:0:0:0:
504,302,25268,1,0,0:0:0:0:
504,302,25343,1,0,0:0:0:0:
504,302,25418,1,0,0:0:0:0:
504,302,25493,2,0,L|415:317,1,80,8|8,2:0|2:0,0:0:0:0:
363,354,25793,1,0,0:0:0:0:
150,384,25943,1,0,1:0:0:0:
150,384,26018,2,0,L|239:371,1,80
363,354,26243,1,0,1:0:0:0:
54,363,26393,5,0,1:0:0:0:
54,363,26468,1,0,0:0:0:0:
54,363,26543,1,0,0:0:0:0:
54,363,26618,1,0,0:0:0:0:
54,363,26693,2,0,L|43:272,1,80,8|0,2:0|0:0,0:0:0:0:
22,54,26993,1,0,0:0:0:0:
93,110,27143,1,0,1:0:0:0:
93,110,27218,1,0,0:0:0:0:
93,110,27293,2,0,L|83:189,1,80,8|0,2:0|0:0,0:0:0:0:
182,33,27593,5,0,1:0:0:0:
182,33,27668,1,0,0:0:0:0:
182,33,27743,1,0,0:0:0:0:
182,33,27818,1,0,0:0:0:0:
182,33,27893,2,0,L|171:124,1,80,8|0,2:0|0:0,0:0:0:0:
150,342,28193,1,0,0:0:0:0:
221,286,28343,1,0,1:0:0:0:
221,286,28418,1,0,0:0:0:0:
221,286,28493,2,0,L|211:206,1,80,8|0,2:0|0:0,0:0:0:0:
303,371,28793,5,0,1:0:0:0:
303,371,28868,1,0,0:0:0:0:
303,371,28943,1,0,0:0:0:0:
303,371,29018,1,0,0:0:0:0:
303,371,29093,2,0,L|292:280,1,80,8|0,2:0|0:0,0:0:0:0:
271,62,29393,1,0,0:0:0:0:
342,118,29543,1,0,1:0:0:0:
342,118,29618,1,0,0:0:0:0:
342,118,29693,2,0,L|332:197,1,80,8|0,2:0|0:0,0:0:0:0:
418,244,29993,5,0,1:0:0:0:
418,244,30068,1,0,0:0:0:0:
418,244,30143,1,0,0:0:0:0:
418,244,30218,1,0,0:0:0:0:
418,244,30293,1,8,2:0:0:0:
418,244,30368,1,0,0:0:0:0:
418,244,30443,1,0,0:0:0:0:
418,244,30518,1,0,0:0:0:0:
492,216,30593,5,0,0:0:0:0:
492,216,30668,1,0,0:0:0:0:
492,216,30743,1,0,1:0:0:0:
492,216,30818,1,0,0:0:0:0:
492,216,30893,1,8,2:0:0:0:
492,216,30968,1,0,0:0:0:0:
492,216,31043,1,8,2:0:0:0:
492,216,31118,1,0,0:0:0:0:
487,293,31193,5,4,1:2:0:0:
487,293,31268,1,0,0:0:0:0:
487,293,31343,1,0,0:0:0:0:
487,293,31418,1,0,0:0:0:0:
487,293,31493,1,8,2:0:0:0:
246,337,31643,2,0,L|150:325,1,80,8|0,2:0|0:0,0:0:0:0:
16,306,31943,1,0,1:0:0:0:
16,306,32018,1,0,0:0:0:0:
16,306,32093,2,0,L|95:315,1,80,8|0,2:0|0:0,0:0:0:0:
13,228,32393,5,0,1:0:0:0:
13,228,32468,1,0,0:0:0:0:
13,228,32543,1,0,0:0:0:0:
13,228,32618,1,0,0:0:0:0:
13,228,32693,2,0,L|92:237,1,80,8|8,2:0|2:0,0:0:0:0:
316,263,32993,1,0,0:0:0:0:
484,241,33143,1,0,1:0:0:0:
484,241,33218,1,0,0:0:0:0:
484,241,33293,2,0,L|404:250,1,80,8|0,2:0|0:0,0:0:0:0:
480,144,33593,5,0,1:0:0:0:
480,144,33668,1,0,0:0:0:0:
480,144,33743,1,0,0:0:0:0:
480,144,33818,1,0,0:0:0:0:
480,144,33893,1,8,2:0:0:0:
239,188,34043,2,0,L|143:176,1,80,8|0,2:0|0:0,0:0:0:0:
9,157,34343,1,0,1:0:0:0:
9,157,34418,1,0,0:0:0:0:
9,157,34493,2,0,L|88:166,1,80,8|0,2:0|0:0,0:0:0:0:
6,79,34793,5,0,1:0:0:0:
6,79,34868,1,0,0:0:0:0:
6,79,34943,1,0,0:0:0:0:
6,79,35018,1,0,0:0:0:0:
6,79,35093,2,0,L|85:88,1,80,8|8,2:0|2:0,0:0:0:0:
309,114,35393,1,0,0:0:0:0:
477,92,35543,1,0,1:0:0:0:
477,92,35618,2,0,L|397:101,1,80
222,129,35843,1,0,0:0:0:0:
159,16,35993,5,0,1:0:0:0:
159,16,36068,1,0,0:0:0:0:
159,16,36143,1,0,0:0:0:0:
159,16,36218,1,0,0:0:0:0:
159,16,36293,1,8,2:0:0:0:
135,219,36443,2,0,L|126:314,1,80,8|0,2:0|0:0,0:0:0:0:
113,374,36743,1,0,1:0:0:0:
113,374,36818,1,0,0:0:0:0:
113,374,36893,2,0,L|120:294,1,80,8|0,2:0|0:0,0:0:0:0:
0,160,37193,5,0,1:0:0:0:
0,160,37268,1,0,0:0:0:0:
0,160,37343,1,0,0:0:0:0:
0,160,37418,1,0,0:0:0:0:
0,160,37493,2,0,L|79:167,1,80,8|8,2:0|2:0,0:0:0:0:
320,57,37793,1,0,0:0:0:0:
245,17,37943,1,0,1:0:0:0:
245,17,38018,1,0,0:0:0:0:
245,17,38093,2,0,L|237:96,1,80,8|0,2:0|0:0,0:0:0:0:
428,233,38393,5,0,1:0:0:0:
428,233,38468,1,0,0:0:0:0:
428,233,38543,1,0,0:0:0:0:
428,233,38618,1,0,0:0:0:0:
428,233,38693,1,8,2:0:0:0:
234,339,38843,2,0,L|154:346,1,80,8|0,2:0|0:0,0:0:0:0:
82,310,39143,1,0,1:0:0:0:
234,339,39293,2,0,L|313:331,1,80,8|0,2:0|0:0,0:0:0:0:
476,375,39593,1,6,1:2:0:0:
256,10,40193,5,0,0:0:0:0:
209,40,40268,1,0,0:0:0:0:
197,94,40343,1,0,0:0:0:0:
218,147,40418,1,0,0:0:0:0:
250,194,40493,1,0,0:0:0:0:
271,247,40568,1,0,0:0:0:0:
260,302,40643,1,0,0:0:0:0:
223,345,40718,1,0,0:0:0:0:
167,349,40793,6,0,L|119:343,2,40,6|0|0,1:2|0:0|0:0,0:0:0:0:
26,315,41018,2,0,L|65:319,2,40,0|8|0,0:0|2:0|0:0,0:0:0:0:
168,281,41243,2,0,L|120:275,2,40,2|0|0,0:0|0:0|1:0,0:0:0:0:
27,247,41468,2,0,L|66:251,2,40
168,209,41693,2,0,L|120:203,2,40,10|0|0,2:0|0:0|1:0,0:0:0:0:
27,175,41918,2,0,L|66:179,2,40
168,141,42143,2,0,L|120:135,2,40,2|0|8,1:2|0:0|2:0,0:0:0:0:
27,107,42368,2,0,L|66:111,2,40
169,64,42593,1,2,1:2:0:0:
169,64,42668,1,0,0:0:0:0:
248,79,42743,1,0,1:0:0:0:
248,79,42818,1,0,0:0:0:0:
318,37,42893,1,10,2:0:0:0:
318,37,42968,1,0,0:0:0:0:
318,37,43043,2,0,L|361:34,1,40
456,48,43193,5,2,1:2:0:0:
456,48,43268,1,0,0:0:0:0:
430,112,43343,1,0,1:0:0:0:
430,112,43418,1,0,0:0:0:0:
453,177,43493,1,10,2:0:0:0:
453,177,43568,1,0,0:0:0:0:
477,242,43643,1,2,0:0:0:0:
477,242,43718,1,0,0:0:0:0:
460,309,43793,1,0,1:0:0:0:
460,309,43868,1,0,0:0:0:0:
460,309,43943,2,0,P|458:335|455:357,1,40
377,266,44093,5,10,2:0:0:0:
383,317,44168,1,0,0:0:0:0:
353,360,44243,1,0,1:0:0:0:
302,374,44318,1,0,0:0:0:0:
257,346,44393,1,2,0:0:0:0:
246,295,44468,1,0,0:0:0:0:
268,248,44543,1,0,1:0:0:0:
227,152,44693,5,8,2:0:0:0:
227,152,44768,1,0,0:0:0:0:
227,152,44843,1,0,0:0:0:0:
227,152,44918,1,0,0:0:0:0:
227,152,44993,2,0,L|223:108,1,40,2|0,1:2|0:0,0:0:0:0:
350,119,45143,2,0,L|346:75,1,40,0|0,1:0|0:0,0:0:0:0:
24,124,45293,2,0,L|20:80,1,40,10|0,2:0|0:0,0:0:0:0:
147,91,45443,2,0,L|143:47,1,40
270,58,45593,6,0,L|266:14,1,40,2|0,1:2|0:0,0:0:0:0:
423,99,45743,1,0,0:0:0:0:
423,99,45818,2,0,L|415:18,1,80
342,39,46043,2,0,L|345:78,1,40
308,190,46193,5,2,1:2:0:0:
308,190,46268,1,0,0:0:0:0:
377,206,46343,1,0,0:0:0:0:
377,206,46418,1,0,0:0:0:0:
435,246,46493,1,8,2:0:0:0:
435,246,46568,1,0,0:0:0:0:
466,308,46643,2,0,L|462:347,1,40,2|0,1:2|0:0,0:0:0:0:
293,301,46793,6,0,L|297:257,1,40
140,342,46943,1,0,1:0:0:0:
140,342,47018,2,0,L|147:261,1,80
221,282,47243,2,0,L|217:321,1,40,2|0,0:2|0:0,0:0:0:0:
21,199,47393,5,2,1:2:0:0:
21,199,47468,1,0,0:0:0:0:
90,177,47543,1,0,1:0:0:0:
90,177,47618,1,0,0:0:0:0:
159,189,47693,1,10,2:0:0:0:
259,94,47843,1,0,0:0:0:0:
259,94,47918,1,0,0:0:0:0:
331,77,47993,6,0,L|316:170,1,80,2|0,1:2|0:0,0:0:0:0:
182,110,48218,1,0,0:0:0:0:
182,110,48293,2,0,L|194:31,1,80,10|0,2:0|0:0,0:0:0:0:
343,0,48518,2,0,L|330:78,1,80,2|0,0:0|0:0,0:0:0:0:
330,78,48743,1,2,0:0:0:0:
428,187,48893,5,10,2:0:0:0:
475,279,49043,1,0,1:0:0:0:
475,279,49118,1,0,0:0:0:0:
475,279,49193,1,2,0:0:0:0:
445,321,49268,1,0,0:0:0:0:
398,343,49343,1,0,1:0:0:0:
346,338,49418,1,0,0:0:0:0:
306,304,49493,1,10,2:0:0:0:
262,275,49568,1,0,0:0:0:0:
210,278,49643,1,0,0:0:0:0:
169,310,49718,1,0,0:0:0:0:
168,361,49793,2,0,L|213:355,3,40,2|0|0|0,1:2|0:0|1:0|0:0,0:0:0:0:
132,324,50093,1,14,2:2:0:0:
80,319,50168,1,0,0:0:0:0:
35,345,50243,1,4,2:0:0:0:
13,158,50393,6,0,P|63:132|138:136,1,120,6|0,1:2|0:0,0:0:0:0:
125,135,50693,2,0,P|66:134|13:161,1,120,8|0,2:0|0:0,0:0:0:0:
13,155,50993,2,0,P|63:129|138:133,1,120,2|0,1:2|0:0,0:0:0:0:
125,138,51293,2,0,P|66:137|13:164,1,120,8|0,2:0|0:0,0:0:0:0:
13,152,51593,2,0,P|63:126|138:130,1,120,2|0,0:0|0:0,0:0:0:0:
203,152,51893,1,8,2:0:0:0:
290,33,52043,1,2,0:0:0:0:
290,33,52118,2,0,P|343:59|402:58,1,120,2|2,0:0|1:2,0:0:0:0:
468,10,52493,1,10,2:0:0:0:
468,10,52568,1,0,0:0:0:0:
479,88,52643,1,2,0:0:0:0:
479,88,52718,1,0,0:0:0:0:
452,160,52793,6,0,L|460:251,1,80,2|0,1:2|1:0,0:0:0:0:
322,352,53093,1,10,2:0:0:0:
265,154,53243,1,0,0:0:0:0:
332,90,53393,1,2,1:2:0:0:
354,136,53468,1,0,0:0:0:0:
350,187,53543,1,0,0:0:0:0:
315,226,53618,1,0,0:0:0:0:
264,238,53693,2,0,L|161:230,1,80,10|0,2:2|1:0,0:0:0:0:
10,128,53993,5,2,0:0:0:0:
10,128,54068,1,0,0:0:0:0:
69,175,54143,1,2,1:2:0:0:
69,175,54218,1,2,0:0:0:0:
134,132,54293,1,8,2:0:0:0:
134,132,54368,1,0,0:0:0:0:
199,166,54443,1,0,0:0:0:0:
199,166,54518,1,0,0:0:0:0:
268,136,54593,1,2,1:2:0:0:
319,139,54668,1,0,0:0:0:0:
370,142,54743,1,0,1:0:0:0:
421,145,54818,1,0,0:0:0:0:
472,149,54893,2,0,L|370:158,1,80,10|0,2:2|0:0,0:0:0:0:
335,373,55193,6,0,P|320:322|336:275,1,80,2|0,1:2|0:0,0:0:0:0:
364,231,55493,2,0,L|443:223,1,80,8|0,2:0|0:0,0:0:0:0:
195,275,55793,5,2,1:2:0:0:
195,275,55868,1,0,0:0:0:0:
195,275,55943,1,0,0:0:0:0:
195,275,56018,1,0,0:0:0:0:
122,299,56093,1,10,2:2:0:0:
122,299,56168,1,0,0:0:0:0:
122,299,56243,1,0,1:0:0:0:
122,299,56318,1,0,0:0:0:0:
222,307,56393,1,2,0:0:0:0:
222,307,56468,1,0,0:0:0:0:
222,307,56543,1,0,1:0:0:0:
222,307,56618,1,0,0:0:0:0:
149,331,56693,1,10,2:2:0:0:
149,331,56768,1,0,0:0:0:0:
149,331,56843,1,0,0:0:0:0:
149,331,56918,1,0,0:0:0:0:
239,342,56993,6,0,P|258:292|258:241,1,80,2|0,1:2|1:0,0:0:0:0:
202,184,57218,1,0,0:0:0:0:
202,184,57293,1,10,2:2:0:0:
202,184,57368,1,0,0:0:0:0:
128,198,57443,1,0,0:0:0:0:
128,198,57518,1,0,0:0:0:0:
57,215,57593,6,0,P|38:165|36:132,1,80,2|0,1:2|1:0,0:0:0:0:
35,138,57818,2,0,P|30:164|32:186,1,40,2|10,0:0|0:0,0:0:0:0:
238,17,58043,2,0,P|219:67|217:100,1,80,2|2,0:0|1:2,0:0:0:0:
216,94,58268,2,0,P|210:68|212:46,1,40,2|0,0:0|1:0,0:0:0:0:
326,384,58493,2,0,P|307:334|305:301,1,80,8|2,2:0|1:2,0:0:0:0:
304,307,58718,2,0,P|298:332|300:354,1,40,0|2,0:0|0:0,0:0:0:0:
421,352,58943,5,0,1:0:0:0:
416,300,59018,1,2,0:0:0:0:
434,251,59093,1,8,0:0:0:0:
429,199,59168,1,0,0:0:0:0:
398,156,59243,1,2,0:0:0:0:
393,104,59318,1,0,0:0:0:0:
362,61,59393,1,2,1:2:0:0:
357,9,59468,1,0,0:0:0:0:
357,9,59543,1,0,1:0:0:0:
361,232,59693,6,0,L|277:239,1,80,10|14,2:0|2:0,0:0:0:0:
105,355,59993,5,4,1:2:0:0:
101,350,60143,1,0,0:0:0:0:
108,346,60293,1,0,0:0:0:0:
112,351,60443,1,0,0:0:0:0:
67,52,60743,5,0,0:0:0:0:
63,47,60893,1,0,0:0:0:0:
56,51,61043,1,0,0:0:0:0:
60,56,61193,1,0,0:0:0:0:
148,113,61343,1,0,0:0:0:0:
148,113,61418,1,0,0:0:0:0:
148,113,61493,1,0,0:0:0:0:
128,187,61643,2,0,L|41:195,1,80
199,219,62093,2,0,L|206:176,1,40
105,355,62393,5,0,0:0:0:0:
101,350,62543,1,0,0:0:0:0:
105,348,62618,1,0,0:0:0:0:
108,346,62693,1,0,0:0:0:0:
112,351,62843,1,0,0:0:0:0:
67,52,63143,5,0,0:0:0:0:
63,47,63293,1,0,0:0:0:0:
56,51,63443,1,0,0:0:0:0:
60,56,63593,1,0,0:0:0:0:
148,113,63743,1,0,0:0:0:0:
148,113,63818,1,0,0:0:0:0:
148,113,63893,2,0,L|99:118,1,40
8,262,64193,1,0,0:0:0:0:
19,184,64343,1,0,0:0:0:0:
19,184,64418,1,0,0:0:0:0:
19,184,64493,2,0,L|68:179,1,40
105,355,64793,5,0,0:0:0:0:
101,350,64943,1,0,0:0:0:0:
108,346,65093,1,0,0:0:0:0:
112,351,65243,1,0,0:0:0:0:
114,353,65318,1,0,0:0:0:0:
116,355,65393,1,0,0:0:0:0:
67,52,65543,5,0,0:0:0:0:
63,47,65693,1,0,0:0:0:0:
59,49,65768,1,0,0:0:0:0:
56,51,65843,1,0,0:0:0:0:
60,56,65993,1,0,0:0:0:0:
148,113,66143,1,0,0:0:0:0:
148,113,66218,1,0,0:0:0:0:
148,113,66293,1,0,0:0:0:0:
128,187,66443,2,0,L|79:192,1,40
50,268,66743,1,0,0:0:0:0:
50,268,66818,1,0,0:0:0:0:
50,268,66893,2,0,L|90:264,1,40
105,355,67193,5,0,0:0:0:0:
101,350,67343,1,0,0:0:0:0:
108,346,67493,1,0,0:0:0:0:
112,351,67643,1,0,0:0:0:0:
67,52,67943,5,0,0:0:0:0:
63,47,68093,1,0,0:0:0:0:
56,51,68243,1,0,0:0:0:0:
60,56,68393,1,0,0:0:0:0:
148,113,68543,1,0,0:0:0:0:
148,113,68618,1,0,0:0:0:0:
148,113,68693,1,0,0:0:0:0:
128,187,68843,2,0,L|41:195,1,80
199,219,69293,2,0,L|206:176,1,40
219,375,69593,5,4,1:2:0:0:
219,375,69729,1,0,0:0:0:0:
291,379,69865,1,0,0:0:0:0:
245,308,70002,1,0,0:0:0:0:
245,308,70138,1,0,0:0:0:0:
245,308,70274,1,0,0:0:0:0:
302,347,70411,1,0,0:0:0:0:
299,260,70547,1,0,0:0:0:0:
327,325,70683,1,0,0:0:0:0:
369,243,70820,1,0,0:0:0:0:
369,243,70956,1,0,0:0:0:0:
360,317,71093,1,0,0:0:0:0:
360,317,71229,1,0,0:0:0:0:
438,264,71365,1,0,0:0:0:0:
438,264,71502,1,0,0:0:0:0:
396,327,71638,1,0,0:0:0:0:
499,313,71774,5,4,1:2:0:0:
499,313,71899,1,0,0:0:0:0:
427,317,72024,1,0,0:0:0:0:
473,246,72149,1,0,0:0:0:0:
473,246,72274,1,0,0:0:0:0:
473,246,72399,1,0,0:0:0:0:
416,285,72524,1,0,0:0:0:0:
419,198,72649,1,0,0:0:0:0:
391,263,72774,1,0,0:0:0:0:
349,181,72899,1,0,0:0:0:0:
349,181,73024,1,0,0:0:0:0:
358,255,73149,1,0,0:0:0:0:
358,255,73274,1,0,0:0:0:0:
280,202,73399,1,0,0:0:0:0:
280,202,73524,1,0,0:0:0:0:
322,265,73649,1,0,0:0:0:0:
228,263,73774,5,4,1:2:0:0:
228,263,73889,1,0,0:0:0:0:
300,267,74004,1,0,0:0:0:0:
254,196,74120,1,0,0:0:0:0:
254,196,74235,1,0,0:0:0:0:
254,196,74350,1,0,0:0:0:0:
311,235,74466,1,0,0:0:0:0:
308,148,74581,1,0,0:0:0:0:
336,213,74697,1,0,0:0:0:0:
378,131,74812,1,0,0:0:0:0:
378,131,74927,1,0,0:0:0:0:
369,205,75043,1,0,0:0:0:0:
447,152,75158,1,0,0:0:0:0:
447,152,75274,1,0,0:0:0:0:
447,152,75389,1,0,0:0:0:0:
405,215,75504,1,0,0:0:0:0:
498,210,75620,5,4,1:2:0:0:
498,210,75727,1,0,0:0:0:0:
426,222,75834,1,0,0:0:0:0:
463,146,75941,1,0,0:0:0:0:
463,146,76048,1,0,0:0:0:0:
463,146,76155,1,0,0:0:0:0:
411,191,76262,1,0,0:0:0:0:
404,104,76370,1,0,0:0:0:0:
384,172,76477,1,0,0:0:0:0:
333,96,76584,1,0,0:0:0:0:
333,96,76691,1,0,0:0:0:0:
350,169,76798,1,0,0:0:0:0:
350,169,76905,1,0,0:0:0:0:
266,126,77012,1,0,0:0:0:0:
266,126,77120,1,0,0:0:0:0:
315,183,77227,1,0,0:0:0:0:
192,97,77334,5,4,1:2:0:0:
192,97,77434,1,0,0:0:0:0:
204,169,77534,1,0,0:0:0:0:
128,132,77634,1,0,0:0:0:0:
128,132,77734,1,0,0:0:0:0:
128,132,77834,1,0,0:0:0:0:
173,184,77934,1,0,0:0:0:0:
86,191,78034,1,0,0:0:0:0:
154,211,78134,1,4,1:2:0:0:
78,262,78234,1,0,0:0:0:0:
78,262,78334,1,0,0:0:0:0:
151,245,78434,1,0,0:0:0:0:
151,245,78534,1,0,0:0:0:0:
108,329,78634,1,0,0:0:0:0:
108,329,78734,1,0,0:0:0:0:
165,280,78834,1,0,0:0:0:0:
242,253,78934,5,4,1:2:0:0:
242,253,79027,1,0,0:0:0:0:
314,241,79121,1,0,0:0:0:0:
277,317,79215,1,0,0:0:0:0:
277,317,79309,1,0,0:0:0:0:
277,317,79402,1,0,0:0:0:0:
329,272,79496,1,0,0:0:0:0:
336,359,79590,1,0,0:0:0:0:
356,291,79684,1,4,1:2:0:0:
407,367,79777,1,0,0:0:0:0:
407,367,79871,1,0,0:0:0:0:
390,294,79965,1,0,0:0:0:0:
390,294,80059,1,0,0:0:0:0:
474,337,80152,1,0,0:0:0:0:
474,337,80246,1,0,0:0:0:0:
425,280,80340,1,0,0:0:0:0:
450,211,80434,6,0,L|452:164,1,40,4|0,1:2|0:0,0:0:0:0:
384,76,80610,2,0,L|382:123,1,40,4|0,1:2|0:0,0:0:0:0:
328,224,80786,1,0,0:0:0:0:
328,224,80875,1,0,0:0:0:0:
328,224,80963,6,0,L|330:177,1,40,0|0,1:0|0:0,0:0:0:0:
262,89,81139,2,0,L|260:136,1,40,4|0,1:2|0:0,0:0:0:0:
200,244,81316,2,0,L|202:197,1,40,4|0,1:2|0:0,0:0:0:0:
134,109,81492,1,0,0:0:0:0:
134,109,81581,1,0,0:0:0:0:
134,109,81669,2,0,L|132:156,1,40,0|0,1:0|0:0,0:0:0:0:
40,336,81845,6,0,L|100:340,1,40,4|0,1:2|0:0,0:0:0:0:
172,344,82011,1,0,0:0:0:0:
172,344,82095,1,0,0:0:0:0:
172,344,82178,6,0,L|176:284,1,40,4|0,1:2|0:0,0:0:0:0:
52,220,82345,6,0,L|49:259,1,40
252,312,82511,6,0,L|312:316,1,40,4|0,1:2|0:0,0:0:0:0:
384,320,82677,1,0,0:0:0:0:
384,320,82761,1,0,0:0:0:0:
384,320,82844,6,0,L|388:260,1,40,4|0,1:2|0:0,0:0:0:0:
184,192,83011,6,0,L|181:231,1,40
103,220,83178,5,4,1:2:0:0:
103,220,83256,1,0,0:0:0:0:
27,208,83335,1,4,1:2:0:0:
27,208,83414,1,0,0:0:0:0:
76,150,83493,1,4,1:2:0:0:
76,150,83571,1,0,0:0:0:0:
0,138,83651,1,4,1:2:0:0:
0,138,83730,1,0,0:0:0:0:
122,95,83809,1,4,1:2:0:0:
122,95,83888,1,0,0:0:0:0:
46,83,83967,1,4,1:2:0:0:
46,83,84046,1,0,0:0:0:0:
95,25,84125,1,4,1:2:0:0:
95,25,84204,1,0,0:0:0:0:
19,13,84283,1,4,1:2:0:0:
19,13,84362,1,0,0:0:0:0:
19,13,84441,5,4,1:2:0:0:
26,12,84516,1,0,1:0:0:0:
34,11,84591,1,0,1:0:0:0:
45,11,84666,1,0,1:0:0:0:
58,11,84741,1,0,1:0:0:0:
73,12,84816,1,0,1:0:0:0:
92,16,84891,1,0,1:0:0:0:
113,26,84966,1,0,1:0:0:0:
135,43,85041,1,0,1:0:0:0:
157,69,85116,1,0,1:0:0:0:
181,104,85191,1,0,1:0:0:0:
216,142,85266,1,0,1:0:0:0:
270,173,85341,1,0,1:0:0:0:
346,179,85416,1,0,1:0:0:0:
424,132,85491,1,0,1:0:0:0:
453,27,85566,1,0,1:0:0:0:
453,27,85641,6,0,L|413:32,1,40,2|0,1:2|0:0,0:0:0:0:
453,27,85720,2,0,L|458:67,1,40
453,27,85799,2,0,L|493:22,1,40
453,27,85878,2,0,L|448:-13,1,40
453,27,85957,2,0,L|414:16,1,40
453,27,86035,2,0,L|442:65,1,40
453,27,86114,2,0,L|491:37,1,40
453,27,86193,2,0,L|463:-11,1,40
453,27,86273,2,0,L|420:2,1,40
453,27,86351,2,0,L|428:59,1,40
453,27,86430,2,0,L|485:51,1,40
453,27,86509,2,0,L|477:-5,1,40
453,27,86589,2,0,L|432:-7,1,40
453,27,86667,2,0,L|418:47,1,40
453,27,86746,2,0,L|473:61,1,40
453,27,86825,2,0,L|487:6,1,40
456,30,86904,5,4,1:2:0:0:
344,193,87054,1,0,0:0:0:0:
389,207,87129,1,0,0:0:0:0:
436,203,87204,1,8,2:0:0:0:
475,175,87279,1,0,0:0:0:0:
494,131,87354,1,2,0:0:0:0:
277,19,87504,2,0,P|278:69|287:160,1,120,2|0,1:2|0:0,0:0:0:0:
261,181,87804,5,8,2:0:0:0:
219,204,87879,1,0,0:0:0:0:
171,196,87954,1,2,1:2:0:0:
140,159,88029,1,2,0:2:0:0:
144,111,88104,1,2,0:0:0:0:
122,154,88179,1,0,0:0:0:0:
92,191,88254,1,0,1:0:0:0:
49,213,88329,1,0,0:0:0:0:
20,251,88404,1,8,2:0:0:0:
18,298,88479,1,0,0:0:0:0:
34,343,88554,1,0,0:0:0:0:
75,367,88629,1,0,0:0:0:0:
122,368,88704,2,0,L|208:364,1,80,2|0,1:2|1:0,0:0:0:0:
342,252,89004,1,10,2:2:0:0:
439,372,89154,1,0,0:0:0:0:
511,297,89304,6,0,L|431:300,1,80,2|0,1:2|1:0,0:0:0:0:
271,312,89604,1,8,2:0:0:0:
397,150,89754,1,2,0:2:0:0:
438,126,89829,1,2,0:2:0:0:
485,134,89904,1,2,1:2:0:0:
288,71,90054,2,0,L|367:74,1,80,2|8,0:0|2:0,0:0:0:0:
224,166,90354,1,0,1:0:0:0:
224,166,90504,5,2,0:0:0:0:
128,157,90654,1,0,1:0:0:0:
46,352,90804,5,10,2:0:0:0:
142,361,90954,1,0,0:0:0:0:
385,229,91104,5,2,1:2:0:0:
289,220,91254,1,2,1:2:0:0:
216,329,91404,5,10,2:2:0:0:
312,338,91554,1,2,0:0:0:0:
407,345,91704,5,2,1:2:0:0:
490,179,91854,1,0,0:0:0:0:
403,160,92004,1,8,2:0:0:0:
371,128,92079,1,0,0:0:0:0:
366,84,92154,1,2,0:0:0:0:
434,28,92304,2,0,P|359:66|281:49,1,160,2|8,1:2|2:0,0:0:0:0:
32,98,92754,2,0,P|18:58|24:14,1,80,0|0,1:0|0:0,0:0:0:0:
204,4,93054,2,0,P|218:44|212:88,1,80,2|10,1:2|2:2,0:0:0:0:
162,168,93354,1,0,0:0:0:0:
162,168,93429,1,0,0:0:0:0:
162,168,93504,5,2,1:2:0:0:
36,188,93654,1,0,1:0:0:0:
230,207,93804,2,0,L|321:216,1,80,10|0,2:2|0:0,0:0:0:0:
451,376,94104,5,2,1:2:0:0:
501,293,94254,1,0,0:0:0:0:
464,267,94329,1,0,0:0:0:0:
420,260,94404,1,10,2:0:0:0:
382,282,94479,1,0,0:0:0:0:
359,319,94554,1,0,0:0:0:0:
336,356,94629,1,0,0:0:0:0:
297,377,94704,1,2,1:2:0:0:
253,374,94779,1,0,0:0:0:0:
210,361,94854,1,0,0:0:0:0:
180,327,94929,1,0,0:0:0:0:
165,285,95004,2,0,P|162:259|160:236,3,40,10|0|0|0,2:2|0:0|1:0|0:0,0:0:0:0:
214,187,95304,5,2,0:0:0:0:
214,187,95379,1,0,0:0:0:0:
288,201,95454,1,0,1:0:0:0:
288,201,95529,1,0,0:0:0:0:
352,170,95604,1,10,2:2:0:0:
352,170,95679,1,0,0:0:0:0:
392,110,95754,1,0,0:0:0:0:
392,110,95829,1,0,0:0:0:0:
397,36,95904,1,2,1:2:0:0:
397,36,96054,1,0,1:0:0:0:
257,127,96204,6,0,L|168:130,1,80,12|4,2:0|2:0,0:0:0:0:
26,216,96504,2,0,P|6:147|19:94,1,120,4|0,1:2|0:0,0:0:0:0:
15,101,96804,1,8,2:0:0:0:
156,38,96954,1,2,0:2:0:0:
153,35,97029,1,2,0:2:0:0:
150,32,97104,1,2,1:2:0:0:
106,263,97254,1,0,0:0:0:0:
103,260,97329,1,0,0:0:0:0:
100,257,97404,1,8,2:0:0:0:
346,173,97554,2,0,L|237:180,1,80,2|0,1:2|0:0,0:0:0:0:
178,186,97854,1,0,1:0:0:0:
266,178,98004,1,8,2:0:0:0:
368,51,98154,5,2,0:2:0:0:
371,48,98229,1,2,0:2:0:0:
374,45,98304,1,2,1:2:0:0:
418,276,98454,1,0,1:0:0:0:
421,273,98529,1,0,0:0:0:0:
424,270,98604,1,8,2:0:0:0:
178,186,98754,2,0,L|287:193,1,80,2|0,0:0|1:0,0:0:0:0:
346,199,99054,1,0,0:0:0:0:
257,191,99204,1,8,2:0:0:0:
156,64,99354,5,2,0:2:0:0:
153,61,99429,1,2,0:2:0:0:
150,58,99504,1,2,1:2:0:0:
106,289,99654,1,2,0:0:0:0:
103,286,99729,1,2,0:0:0:0:
100,283,99804,1,10,2:0:0:0:
346,199,99954,2,0,L|237:206,1,80,2|0,1:2|0:0,0:0:0:0:
178,212,100254,1,0,1:0:0:0:
266,204,100404,1,8,2:0:0:0:
368,77,100554,5,2,0:2:0:0:
371,74,100629,1,2,0:2:0:0:
374,71,100704,1,2,1:2:0:0:
418,302,100854,1,0,1:0:0:0:
421,299,100929,1,0,0:0:0:0:
424,296,101004,1,10,2:2:0:0:
453,90,101154,1,0,0:0:0:0:
402,143,101304,6,0,L|389:240,1,80,2|0,1:2|0:0,0:0:0:0:
316,268,101604,2,0,P|244:273|188:345,1,160,8|2,2:0|1:2,0:0:0:0:
267,378,102054,2,0,L|353:371,1,80,0|8,0:0|2:0,0:0:0:0:
119,301,102354,2,0,L|0:312,1,120,2|0,1:2|0:0,0:0:0:0:
0,312,102654,1,0,1:0:0:0:
170,212,102804,2,0,L|188:124,1,80,8|0,2:0|0:0,0:0:0:0:
186,133,103029,1,0,0:0:0:0:
186,133,103104,1,2,1:2:0:0:
13,108,103254,1,0,1:0:0:0:
107,0,103404,2,0,L|90:78,1,80,10|0,2:2|0:0,0:0:0:0:
281,182,103704,6,0,P|271:127|271:89,1,80,2|0,1:2|0:0,0:0:0:0:
295,66,103929,1,0,0:0:0:0:
337,53,104004,1,10,2:2:0:0:
379,65,104079,1,0,0:0:0:0:
404,101,104154,1,0,0:0:0:0:
398,144,104229,1,0,0:0:0:0:
374,180,104304,1,2,1:2:0:0:
364,223,104379,1,0,0:0:0:0:
372,266,104454,1,0,0:0:0:0:
403,297,104529,1,0,0:0:0:0:
445,309,104604,1,10,2:2:0:0:
486,293,104679,1,0,0:0:0:0:
501,251,104754,1,0,1:0:0:0:
490,208,104829,1,0,0:0:0:0:
483,164,104904,2,0,P|486:126|493:82,1,80,2|0,0:0|1:0,0:0:0:0:
263,244,105204,1,10,2:0:0:0:
186,210,105354,1,0,0:0:0:0:
186,210,105429,1,0,0:0:0:0:
186,210,105504,2,0,P|189:247|196:292,1,80,2|0,1:2|1:0,0:0:0:0:
249,361,105804,1,12,2:0:0:0:
200,55,106104,5,6,1:2:0:0:
165,28,106179,1,0,0:0:0:0:
121,19,106254,1,0,0:0:0:0:
83,42,106329,1,0,0:0:0:0:
63,81,106404,1,8,2:0:0:0:
311,113,106554,5,2,0:0:0:0:
346,86,106629,1,0,0:0:0:0:
390,77,106704,1,0,1:0:0:0:
428,100,106779,1,0,0:0:0:0:
448,139,106854,1,0,0:0:0:0:
217,218,107004,5,10,2:0:0:0:
186,194,107079,1,0,0:0:0:0:
148,187,107154,1,0,1:0:0:0:
110,198,107229,1,0,0:0:0:0:
82,225,107304,1,2,0:0:0:0:
70,261,107379,1,0,0:0:0:0:
75,300,107454,1,0,1:2:0:0:
98,331,107529,1,0,0:0:0:0:
132,349,107604,1,10,2:0:0:0:
171,349,107679,1,0,0:0:0:0:
206,331,107754,2,0,L|210:285,1,40
297,187,107904,5,2,1:2:0:0:
297,187,108054,1,0,1:0:0:0:
482,278,108204,2,0,L|391:285,1,80,10|0,2:2|0:0,0:0:0:0:
290,336,108504,2,0,B|360:324|372:374|451:363,1,160,2|8,1:2|2:0,0:0:0:0:
444,363,108954,1,0,0:0:0:0:
488,132,109104,5,2,1:2:0:0:
425,81,109254,1,2,0:0:0:0:
354,117,109404,2,0,P|358:169|379:201,1,80,8|0,2:0|1:0,0:0:0:0:
321,309,109704,5,2,0:0:0:0:
258,360,109854,1,0,1:0:0:0:
187,324,110004,2,0,P|191:272|212:240,1,80,10|0,2:2|0:0,0:0:0:0:
204,248,110229,1,0,0:0:0:0:
204,248,110304,1,2,1:2:0:0:
21,143,110454,1,0,1:0:0:0:
97,120,110604,2,0,P|122:80|129:39,1,80,10|0,2:2|0:0,0:0:0:0:
258,193,110904,6,0,B|341:204|317:257|430:267,2,160,2|8|0,1:2|2:0|1:0,0:0:0:0:
84,200,111654,2,0,P|137:192|181:190,1,80,2|8,0:0|2:0,0:0:0:0:
479,55,111954,2,0,L|462:227,1,160,2|0,1:2|1:0,0:0:0:0:
463,214,112404,1,8,2:0:0:0:
264,101,112554,5,0,0:0:0:0:
264,101,112629,1,0,0:0:0:0:
264,101,112704,2,0,L|354:98,1,80,2|0,1:2|1:2,0:0:0:0:
343,27,112929,1,2,0:0:0:0:
343,27,113004,2,0,L|263:29,1,80,8|2,2:0|0:0,0:0:0:0:
44,104,113304,5,2,1:2:0:0:
120,125,113454,1,0,0:0:0:0:
60,178,113604,2,0,L|45:358,2,160,8|2|8,2:0|1:2|2:0,0:0:0:0:
241,352,114354,2,0,L|254:192,1,160,0|0,1:0|1:0,0:0:0:0:
150,244,114804,2,0,L|141:332,1,80,8|0,2:0|0:0,0:0:0:0:
141,323,115029,1,0,0:0:0:0:
141,323,115104,1,2,1:2:0:0:
356,145,115254,1,0,1:0:0:0:
460,203,115404,2,0,L|451:291,1,80,14|6,2:0|2:0,0:0:0:0:
396,340,115704,5,4,1:2:0:0:
320,364,115854,1,0,0:0:0:0:
241,350,116004,1,0,0:0:0:0:
179,298,116154,1,0,0:0:0:0:
99,291,116304,1,0,0:0:0:0:
132,363,116454,1,0,0:0:0:0:
179,298,116604,1,0,0:0:0:0:
35,105,117054,5,0,0:0:0:0:
113,118,117204,1,0,0:0:0:0:
184,82,117354,1,0,0:0:0:0:
226,14,117504,1,2,0:0:0:0:
264,83,117654,1,0,0:0:0:0:
264,83,117729,1,0,0:0:0:0:
483,292,118104,5,0,0:0:0:0:
440,224,118254,1,0,0:0:0:0:
361,206,118404,1,0,0:0:0:0:
294,250,118554,1,0,0:0:0:0:
265,324,118704,1,0,0:0:0:0:
206,378,118854,1,0,0:0:0:0:
126,373,119004,1,0,0:0:0:0:
58,330,119154,1,0,0:0:0:0:
35,253,119304,1,0,0:0:0:0:
112,271,119454,1,0,0:0:0:0:
58,330,119604,1,0,0:0:0:0:
35,253,119754,1,0,0:0:0:0:
60,177,119920,1,0,0:0:0:0:
122,127,120087,1,0,0:0:0:0:
132,49,120254,1,0,0:0:0:0:
401,300,120596,5,0,0:0:0:0:
476,273,120768,1,0,0:0:0:0:
405,311,120939,1,0,0:0:0:0:
325,303,121111,1,0,0:0:0:0:
266,248,121282,1,0,0:0:0:0:
257,168,121454,1,0,0:0:0:0:
300,100,121625,1,0,0:0:0:0:
373,70,121796,1,0,0:0:0:0:
416,8,121968,1,0,0:0:0:0:
35,134,122695,5,0,0:0:0:0:
107,171,123230,5,0,0:0:0:0:
42,219,123680,5,0,0:0:0:0:
182,362,124225,5,0,0:0:0:0:
261,350,124558,1,0,0:0:0:0:
336,363,124891,5,0,0:0:0:0:
413,381,125345,1,0,0:0:0:0:
491,364,125800,5,0,0:0:0:0:
