osu file format v14

[General]
AudioFilename: audio.mp3
AudioLeadIn: 0
PreviewTime: 40118
Countdown: 0
SampleSet: Soft
StackLeniency: 0.7
Mode: 0
LetterboxInBreaks: 0
WidescreenStoryboard: 0

[Editor]
DistanceSpacing: 0.5
BeatDivisor: 4
GridSize: 4
TimelineZoom: 2.1

[Metadata]
Title:Mei
TitleUnicode:冥
Artist:Amuro vs. Killer
ArtistUnicode:Amuro vs. Killer
Creator:Ascended
Version:Jounzan's Black Another
Source:beatmania IIDX 12 HAPPY SKY
Tags:HUMAN SEQUENCER ddr DanceDanceRevolution X2 Toy'sMarch2 Electronic Acylica Haruto Haruto_Aizawa fanzhen0019 how2miss Firika Muya Garden Jounzan Natteke desu EvilElvis EvilElvisV2 Necho Atlust Kyouren gokugohan12468 KittyAdventure -ascended- -_ascended_- Takayuki Ishikawa 石川貴之 Tatsuya Shimizu 清水達也 D.J.Amuro 安室 皆伝 dj TAKA Tatsh TAKASH rhythm game electronic instrumental bemani konami 2dx 冥王星 PLUTO STORY
BeatmapID:4313548
BeatmapSetID:2062538

[Difficulty]
HPDrainRate:5
CircleSize:5
OverallDifficulty:9
ApproachRate:9.3
SliderMultiplier:1.8
SliderTickRate:1

[Events]
//Background and Video events
0,0,"70433861.png",0,0
//Break Periods
//Storyboard Layer 0 (Background)
//Storyboard Layer 1 (Fail)
//Storyboard Layer 2 (Pass)
//Storyboard Layer 3 (Foreground)
//Storyboard Layer 4 (Overlay)
//Storyboard Sound Samples

[TimingPoints]
2393,300,4,2,1,30,1,0
11993,-100,4,2,1,40,0,0
13043,-133.333333333333,4,2,1,40,0,0
13493,-200,4,2,1,40,0,0
14393,-100,4,2,1,40,0,0
15443,-133.333333333333,4,2,1,40,0,0
15893,-200,4,2,1,40,0,0
16793,-100,4,2,1,40,0,0
17843,-133.333333333333,4,2,1,40,0,0
18293,-200,4,2,1,40,0,0
19193,-100,4,2,1,40,0,0
20243,-133.333333333333,4,2,1,40,0,0
20543,-133.333333333333,4,2,1,40,0,0
20693,-200,4,2,1,40,0,0
20993,-125,4,2,1,40,0,0
21593,-125,4,2,2,50,0,0
21893,-125,4,2,2,50,0,0
22118,-100,4,2,2,50,0,0
39743,-200,4,2,2,50,0,0
43193,-100,4,2,2,50,0,0
59993,600,4,2,2,30,1,0
59993,-200,4,2,2,30,0,0
69593,545.454545454546,4,2,2,40,1,0
71774,500,4,2,2,50,1,0
73774,461.538461538462,4,2,2,50,1,0
75620,428.571428571429,4,2,2,40,1,0
77334,400,4,2,2,50,1,0
78934,375,4,2,2,50,1,0
80434,352.941176470588,4,2,2,60,1,0
81845,333.333333333333,4,2,2,70,1,0
83178,315.789473684211,4,2,2,70,1,0
84441,300,4,2,2,60,1,0
85641,315.789473684211,4,2,2,40,1,0
85680,-100,4,2,2,5,0,0
85719,-100,4,2,2,37,0,0
85758,-100,4,2,2,5,0,0
85798,-100,4,2,2,35,0,0
85837,-100,4,2,2,5,0,0
85877,-100,4,2,2,32,0,0
85916,-100,4,2,2,5,0,0
85956,-100,4,2,2,30,0,0
85995,-100,4,2,2,5,0,0
86035,-100,4,2,2,32,0,0
86074,-100,4,2,2,5,0,0
86114,-100,4,2,2,35,0,0
86153,-100,4,2,2,5,0,0
86193,-100,4,2,2,37,0,0
86232,-100,4,2,2,5,0,0
86272,-100,4,2,2,40,0,0
86311,-100,4,2,2,5,0,0
86351,-100,4,2,2,42,0,0
86390,-100,4,2,2,5,0,0
86430,-100,4,2,2,45,0,0
86469,-100,4,2,2,5,0,0
86509,-100,4,2,2,47,0,0
86548,-100,4,2,2,5,0,0
86588,-100,4,2,2,50,0,0
86627,-100,4,2,2,5,0,0
86667,-100,4,2,2,52,0,0
86706,-100,4,2,2,5,0,0
86746,-100,4,2,2,55,0,0
86785,-100,4,2,2,5,0,0
86825,-100,4,2,2,57,0,0
86864,-100,4,2,2,5,0,0
86904,300,4,2,2,70,1,0
115704,-100,4,2,3,50,0,0
119754,333.333333333333,4,2,3,40,1,0
120254,342.857142857143,4,2,3,40,1,0
121968,363.636363636364,4,2,3,40,1,0
122695,428.571428571429,4,2,3,40,1,0
123230,600,4,2,3,40,1,0
123680,545.454545454546,4,2,3,40,1,0
124225,666.666666666667,4,2,3,40,1,0
124891,909.090909090909,4,2,3,40,1,0

[Colours]
Combo1 : 143,184,200
Combo2 : 77,103,154

[HitObjects]
59,136,11693,5,2,0:0:0:0:
61,144,11768,1,0,0:0:0:0:
60,152,11843,1,0,0:0:0:0:
63,160,11918,1,0,0:0:0:0:
22,181,11993,6,0,P|65:176|117:183,1,90,0|0,3:0|3:0,2:0:0:0:
181,172,12293,1,2,2:3:0:0:
247,200,12443,1,8,2:0:0:0:
252,271,12593,2,0,L|246:365,1,90,0|0,2:0|2:0,0:0:0:0:
256,192,12893,5,8,2:0:0:0:
261,263,13043,2,0,L|257:345,1,67.5000025749208,0|0,2:0|3:0,2:0:0:0:
265,183,13343,5,0,3:0:0:0:
270,254,13493,2,0,L|268:316,1,45,2|0,2:3|3:0,0:0:0:0:
338,180,13793,5,0,3:0:0:0:
356,249,13943,1,2,2:3:0:0:
350,277,14018,1,0,2:0:0:0:
345,305,14093,1,0,3:0:0:0:
386,361,14243,1,0,3:0:0:0:
512,300,14393,6,0,P|465:307|417:300,1,90,0|0,3:0|3:0,2:0:0:0:
464,241,14693,1,2,2:3:0:0:
436,174,14843,1,8,2:0:0:0:
455,104,14993,2,0,L|448:14,1,90,0|0,2:0|2:0,0:0:0:0:
424,178,15293,5,8,2:0:0:0:
443,108,15443,2,0,L|436:27,1,67.5000025749208,0|0,2:0|3:0,0:0:0:0:
411,182,15743,5,0,3:0:0:0:
430,112,15893,2,0,L|425:51,1,45,2|0,0:3|3:0,0:0:0:0:
359,24,16193,5,0,3:0:0:0:
266,85,16343,1,0,3:0:0:0:
165,33,16493,1,2,2:3:0:0:
112,90,16643,1,0,2:0:0:0:
118,120,16718,1,0,0:0:0:0:
124,150,16793,6,0,P|125:201|116:251,1,90,0|0,3:0|3:0,0:0:0:0:
60,282,17093,1,2,2:3:0:0:
126,310,17243,1,8,2:0:0:0:
175,362,17393,2,0,L|276:368,1,90,0|0,2:0|2:0,0:0:0:0:
128,297,17693,5,8,2:0:0:0:
177,349,17843,2,0,L|261:355,1,67.5000025749208,0|0,2:0|3:0,0:0:0:0:
130,282,18143,5,0,3:0:0:0:
179,334,18293,2,0,L|238:338,1,45,2|0,2:3|3:0,0:0:0:0:
298,254,18593,5,0,3:0:0:0:
234,219,18743,1,2,2:3:0:0:
240,183,18818,1,0,2:0:0:0:
244,147,18893,1,0,3:0:0:0:
182,109,19043,1,0,3:0:0:0:
308,37,19193,6,0,P|258:40|210:34,1,90,0|0,3:0|3:0,2:0:0:0:
147,20,19493,1,0,2:3:0:0:
86,59,19643,1,8,2:0:0:0:
14,58,19793,2,0,L|24:163,1,90,0|0,2:0|2:0,0:0:0:0:
157,201,20093,5,8,2:0:0:0:
229,200,20243,2,0,L|219:288,1,67.5000025749208,0|0,2:0|2:0,0:0:0:0:
112,292,20543,5,0,0:0:0:0:
40,291,20693,2,0,L|52:355,1,45
382,327,20993,6,0,B|276:360|276:360|172:328,1,216
274,266,21593,5,4,1:2:0:0:
274,266,21743,1,0,0:0:0:0:
274,266,21893,1,8,2:0:0:0:
339,235,22043,5,0,0:0:0:0:
339,235,22118,2,0,B|343:187|343:187|328:138,1,90
348,115,22343,1,0,1:0:0:0:
299,61,22493,2,0,L|200:66,1,90,8|0,2:0|0:0,0:0:0:0:
34,155,22793,5,0,1:0:0:0:
60,151,22943,1,0,0:0:0:0:
86,146,23093,1,8,2:0:0:0:
149,179,23243,5,0,0:0:0:0:
149,179,23318,2,0,P|156:229|146:285,1,90
173,297,23543,1,0,1:0:0:0:
238,326,23693,1,8,2:0:0:0:
273,334,23768,1,0,0:0:0:0:
307,325,23843,1,0,0:0:0:0:
370,226,23993,5,0,1:0:0:0:
432,236,24143,1,0,0:0:0:0:
494,246,24293,1,8,2:0:0:0:
477,178,24443,1,0,0:0:0:0:
477,178,24518,2,0,P|474:123|487:77,1,90
457,63,24743,1,0,1:0:0:0:
392,31,24893,1,8,2:0:0:0:
392,31,24968,1,0,0:0:0:0:
324,56,25118,1,0,0:0:0:0:
324,56,25193,5,0,1:0:0:0:
248,49,25343,1,0,0:0:0:0:
176,40,25493,1,8,2:0:0:0:
131,96,25643,1,8,2:0:0:0:
131,96,25718,2,0,P|128:149|134:195,1,90
153,211,25943,1,0,1:0:0:0:
122,276,26093,2,0,L|32:279,1,90,8|0,2:0|1:0,0:0:0:0:
166,333,26393,5,0,1:0:0:0:
244,352,26543,1,0,0:0:0:0:
323,369,26693,1,8,2:0:0:0:
377,269,26843,5,0,0:0:0:0:
377,269,26918,2,0,L|278:275,1,90
262,242,27143,1,0,1:0:0:0:
310,189,27293,1,8,2:0:0:0:
305,153,27368,1,0,0:0:0:0:
308,117,27443,1,0,0:0:0:0:
347,24,27593,5,0,1:0:0:0:
430,53,27743,1,0,0:0:0:0:
402,133,27893,1,8,2:0:0:0:
437,195,28043,1,0,0:0:0:0:
437,195,28118,2,0,B|430:244|430:244|446:303,1,90
458,309,28343,1,0,1:0:0:0:
401,353,28493,1,8,2:0:0:0:
401,353,28568,1,0,0:0:0:0:
333,327,28718,1,0,0:0:0:0:
333,327,28793,5,0,1:0:0:0:
247,273,28943,1,0,0:0:0:0:
173,327,29093,1,8,2:0:0:0:
113,299,29243,5,0,0:0:0:0:
113,299,29318,2,0,L|114:200,1,90
86,184,29543,1,0,1:0:0:0:
99,111,29693,2,0,P|144:116|216:109,1,90,8|0,2:0|0:0,0:0:0:0:
275,75,29993,5,0,1:0:0:0:
329,172,30143,1,0,0:0:0:0:
256,256,30293,1,8,2:0:0:0:
297,314,30443,5,0,0:0:0:0:
300,317,30518,2,0,P|343:311|395:317,1,90
424,324,30743,1,0,1:0:0:0:
478,276,30893,1,8,2:0:0:0:
469,240,30968,1,0,0:0:0:0:
478,205,31043,1,8,2:0:0:0:
417,80,31193,5,4,1:2:0:0:
311,150,31343,1,0,0:0:0:0:
209,83,31493,1,8,2:0:0:0:
136,132,31643,5,8,2:0:0:0:
136,132,31718,2,0,B|145:176|145:176|137:228,1,90
104,235,31943,1,0,1:0:0:0:
66,296,32093,1,8,2:0:0:0:
66,296,32168,1,0,0:0:0:0:
116,346,32318,1,0,0:0:0:0:
116,346,32393,5,0,1:0:0:0:
237,258,32543,1,0,0:0:0:0:
398,336,32693,1,8,2:0:0:0:
328,354,32843,5,8,2:0:0:0:
328,354,32918,2,0,L|235:344,1,90
207,363,33143,1,0,1:0:0:0:
163,290,33293,2,0,P|160:234|167:190,1,90,8|0,2:0|0:0,0:0:0:0:
161,79,33593,5,0,1:0:0:0:
298,26,33743,1,0,0:0:0:0:
391,127,33893,1,8,2:0:0:0:
494,227,34043,5,8,2:0:0:0:
494,227,34118,2,0,L|386:219,1,90
377,195,34343,1,0,1:0:0:0:
308,216,34493,1,8,2:0:0:0:
272,219,34568,1,0,0:0:0:0:
236,221,34643,1,0,0:0:0:0:
145,223,34793,5,0,1:0:0:0:
255,378,34943,1,0,0:0:0:0:
358,260,35093,1,8,2:0:0:0:
266,143,35243,5,8,2:0:0:0:
266,143,35318,2,0,L|166:150,1,90
147,126,35543,1,0,1:0:0:0:
76,109,35693,1,8,2:0:0:0:
76,109,35768,1,0,0:0:0:0:
6,129,35918,5,0,0:0:0:0:
6,129,35993,1,0,1:0:0:0:
144,217,36143,1,0,0:0:0:0:
155,36,36293,1,8,2:0:0:0:
295,60,36443,5,8,2:0:0:0:
295,60,36518,2,0,B|286:103|286:103|294:158,1,90
280,182,36743,1,0,1:0:0:0:
441,252,36893,2,0,L|344:247,1,90,8|0,2:0|0:0,0:0:0:0:
325,335,37193,5,0,1:0:0:0:
198,170,37343,1,0,0:0:0:0:
16,294,37493,1,8,2:0:0:0:
79,328,37643,5,8,2:0:0:0:
79,328,37718,2,0,B|126:338|126:338|182:324,1,90
199,311,37943,1,0,1:0:0:0:
245,256,38093,1,8,2:0:0:0:
241,220,38168,1,0,0:0:0:0:
244,184,38243,1,0,0:0:0:0:
185,141,38393,5,0,1:0:0:0:
448,52,38543,1,0,0:0:0:0:
173,24,38693,1,8,2:0:0:0:
110,59,38843,5,8,2:0:0:0:
110,59,38918,2,0,P|114:122|107:155,1,90
94,181,39143,1,0,1:0:0:0:
39,228,39293,2,0,P|33:272|39:317,1,90,8|0,2:0|0:0,0:0:0:0:
352,371,39593,5,6,1:2:0:0:
394,321,39743,2,0,L|289:324,1,90
429,143,40193,5,0,0:0:0:0:
433,160,40268,1,0,0:0:0:0:
435,177,40343,1,0,0:0:0:0:
431,194,40418,1,0,0:0:0:0:
412,219,40493,5,0,0:0:0:0:
377,228,40568,1,0,0:0:0:0:
343,216,40643,1,0,0:0:0:0:
311,199,40718,1,0,0:0:0:0:
275,199,40793,5,6,1:2:0:0:
257,194,40868,1,0,0:0:0:0:
239,196,40943,1,0,0:0:0:0:
221,200,41018,1,0,0:0:0:0:
207,211,41093,1,8,2:0:0:0:
149,180,41243,1,2,0:0:0:0:
127,185,41318,1,0,0:0:0:0:
112,202,41393,1,0,1:0:0:0:
104,223,41468,1,0,0:0:0:0:
106,245,41543,1,0,0:0:0:0:
46,277,41693,1,10,2:0:0:0:
63,308,41768,1,0,0:0:0:0:
96,325,41843,1,0,1:0:0:0:
132,321,41918,1,0,0:0:0:0:
163,295,41993,1,0,0:0:0:0:
206,356,42143,1,2,1:2:0:0:
242,330,42218,1,0,0:0:0:0:
249,285,42293,1,8,2:0:0:0:
231,243,42368,1,0,0:0:0:0:
190,223,42443,1,0,0:0:0:0:
50,177,42593,1,2,1:2:0:0:
14,151,42668,1,0,0:0:0:0:
7,106,42743,1,0,1:0:0:0:
25,64,42818,1,0,0:0:0:0:
66,44,42893,1,10,2:0:0:0:
110,45,42968,1,0,0:0:0:0:
129,56,43043,5,0,0:0:0:0:
151,55,43118,1,0,0:0:0:0:
172,47,43193,2,0,P|168:98|174:149,1,90,2|0,1:2|1:0,0:0:0:0:
306,196,43493,1,10,2:0:0:0:
372,158,43643,2,0,P|380:217|368:307,1,135,2|0,0:0|0:0,0:0:0:0:
352,310,43943,1,0,0:0:0:0:
285,347,44093,1,10,2:0:0:0:
271,344,44168,1,0,0:0:0:0:
257,343,44243,1,0,1:0:0:0:
243,346,44318,1,0,0:0:0:0:
210,325,44393,1,2,0:0:0:0:
172,340,44468,1,0,0:0:0:0:
132,329,44543,1,0,1:0:0:0:
109,295,44618,1,0,0:0:0:0:
120,256,44693,1,8,2:0:0:0:
154,234,44768,1,0,0:0:0:0:
194,237,44843,1,0,0:0:0:0:
226,260,44918,1,0,0:0:0:0:
264,271,44993,1,2,1:2:0:0:
303,262,45068,1,0,0:0:0:0:
331,233,45143,1,0,1:0:0:0:
331,192,45218,1,0,0:0:0:0:
304,161,45293,1,10,2:0:0:0:
264,154,45368,1,0,0:0:0:0:
226,170,45443,1,0,0:0:0:0:
208,175,45518,1,0,0:0:0:0:
191,168,45593,6,0,L|199:28,1,135,2|0,1:2|0:0,0:0:0:0:
222,18,45893,1,10,2:0:0:0:
291,35,46043,1,0,0:0:0:0:
481,10,46193,6,0,L|474:116,1,90,2|0,1:2|0:0,0:0:0:0:
450,177,46493,1,8,2:0:0:0:
372,152,46643,1,2,1:2:0:0:
301,111,46793,6,0,P|292:191|308:253,1,135
331,259,47093,1,10,2:2:0:0:
396,229,47243,1,2,0:2:0:0:
460,329,47393,5,2,1:2:0:0:
460,329,47543,1,0,1:0:0:0:
460,329,47693,1,10,2:0:0:0:
460,329,47843,1,0,0:0:0:0:
292,359,47993,6,0,L|134:353,1,135,2|0,1:2|0:0,0:0:0:0:
122,365,48293,1,10,2:0:0:0:
65,320,48443,2,0,P|53:262|75:120,1,180,2|2,0:0|0:0,0:0:0:0:
87,71,48893,1,10,2:0:0:0:
70,64,48968,1,0,0:0:0:0:
53,72,49043,1,0,1:0:0:0:
36,65,49118,1,0,0:0:0:0:
13,60,49193,6,0,L|105:73,1,90,2|0,0:0|1:0,0:0:0:0:
242,144,49493,1,10,2:0:0:0:
223,142,49568,1,0,0:0:0:0:
209,154,49643,1,0,0:0:0:0:
191,153,49718,1,0,0:0:0:0:
168,163,49793,5,2,1:2:0:0:
271,218,49943,1,0,1:0:0:0:
331,117,50093,1,14,2:2:0:0:
228,61,50243,1,4,2:0:0:0:
187,250,50393,6,0,P|245:247|302:354,1,180,6|8,1:2|2:0,0:0:0:0:
228,319,50843,1,8,2:0:0:0:
300,345,50993,2,0,P|268:265|183:255,1,180,2|8,1:2|2:0,0:0:0:0:
228,319,51443,1,0,1:0:0:0:
299,186,51593,6,0,P|297:136|303:90,1,90,2|0,0:0|1:0,0:0:0:0:
341,34,51893,1,8,2:0:0:0:
508,145,52043,2,0,L|356:138,1,135,2|0,0:0|0:0,0:0:0:0:
373,138,52343,1,2,1:2:0:0:
410,202,52493,1,10,2:0:0:0:
381,261,52643,1,2,0:0:0:0:
306,321,52793,5,2,1:2:0:0:
231,335,52943,1,0,1:0:0:0:
168,290,53093,1,10,2:0:0:0:
106,240,53243,1,0,0:0:0:0:
27,245,53393,1,2,1:2:0:0:
32,263,53543,1,0,0:0:0:0:
99,336,53693,5,10,2:2:0:0:
119,167,53843,1,0,1:0:0:0:
134,18,53993,1,2,0:0:0:0:
34,70,54143,5,2,1:2:0:0:
39,91,54218,1,2,0:0:0:0:
44,112,54293,1,8,2:0:0:0:
199,231,54443,1,0,0:0:0:0:
194,252,54518,1,0,0:0:0:0:
189,273,54593,1,2,1:2:0:0:
199,307,54668,1,0,0:0:0:0:
229,325,54743,1,0,1:0:0:0:
263,315,54818,1,0,0:0:0:0:
293,296,54893,1,10,2:2:0:0:
328,290,54968,1,0,0:0:0:0:
360,305,55043,1,0,0:0:0:0:
365,311,55118,1,0,0:0:0:0:
371,317,55193,6,0,L|161:324,1,180,2|8,1:2|2:0,0:0:0:0:
124,295,55643,1,0,0:0:0:0:
76,241,55793,1,2,1:2:0:0:
58,243,55868,1,0,0:0:0:0:
40,245,55943,1,0,0:0:0:0:
164,196,56093,1,10,2:2:0:0:
146,198,56168,1,0,0:0:0:0:
128,200,56243,1,0,1:0:0:0:
257,148,56393,1,2,0:0:0:0:
239,150,56468,1,0,0:0:0:0:
221,152,56543,1,0,1:0:0:0:
344,96,56693,1,10,2:2:0:0:
326,98,56768,1,0,0:0:0:0:
308,100,56843,1,0,0:0:0:0:
406,57,56993,1,2,1:2:0:0:
471,26,57143,1,0,1:0:0:0:
486,58,57218,1,0,0:0:0:0:
476,92,57293,1,10,2:2:0:0:
451,118,57368,1,0,0:0:0:0:
450,153,57443,1,0,0:0:0:0:
466,184,57518,1,0,0:0:0:0:
472,191,57593,6,0,P|426:188|358:203,1,90,2|0,1:2|1:0,0:0:0:0:
350,211,57818,1,2,0:0:0:0:
284,177,57968,1,2,0:0:0:0:
284,177,58043,2,0,L|187:182,1,90,2|2,0:0|1:2,0:0:0:0:
167,197,58268,1,2,0:0:0:0:
101,172,58418,1,0,0:0:0:0:
101,172,58493,1,8,2:0:0:0:
33,194,58643,1,2,1:2:0:0:
33,194,58718,1,0,0:0:0:0:
33,194,58793,6,0,P|29:253|41:302,1,90,2|0,0:0|1:0,0:0:0:0:
55,312,59018,1,2,0:0:0:0:
114,349,59168,1,2,0:0:0:0:
114,349,59243,2,0,L|212:342,1,90,2|2,0:0|1:2,0:0:0:0:
268,309,59543,5,0,1:0:0:0:
367,360,59693,5,10,2:0:0:0:
461,295,59843,5,14,2:0:0:0:
255,232,59993,6,0,L|195:236,1,45,4|0,1:2|0:0,0:0:0:0:
210,234,60443,1,0,0:0:0:0:
148,217,60743,1,0,0:0:0:0:
148,217,60893,1,0,0:0:0:0:
79,191,61193,1,0,0:0:0:0:
79,191,61343,1,0,0:0:0:0:
79,191,61643,1,0,0:0:0:0:
319,43,62093,5,0,0:0:0:0:
319,43,62243,1,0,0:0:0:0:
384,68,62543,1,0,0:0:0:0:
384,68,62693,1,0,0:0:0:0:
384,68,62843,1,0,0:0:0:0:
445,92,63143,1,0,0:0:0:0:
445,92,63293,1,0,0:0:0:0:
403,146,63593,1,0,0:0:0:0:
403,146,63743,1,0,0:0:0:0:
358,197,64043,1,0,0:0:0:0:
491,207,64343,5,0,0:0:0:0:
491,207,64493,1,0,0:0:0:0:
491,207,64643,1,0,0:0:0:0:
491,207,64793,1,0,0:0:0:0:
446,260,65093,1,0,0:0:0:0:
446,260,65243,1,0,0:0:0:0:
397,311,65543,1,0,0:0:0:0:
397,311,65693,1,0,0:0:0:0:
352,362,65993,1,0,0:0:0:0:
352,362,66143,1,0,0:0:0:0:
352,362,66443,1,0,0:0:0:0:
46,144,66893,5,0,0:0:0:0:
46,144,67043,1,0,0:0:0:0:
95,195,67343,1,0,0:0:0:0:
95,195,67493,1,0,0:0:0:0:
95,195,67643,1,0,0:0:0:0:
140,246,67943,1,0,0:0:0:0:
140,246,68093,1,0,0:0:0:0:
197,202,68393,1,0,0:0:0:0:
197,202,68543,1,0,0:0:0:0:
247,155,68843,1,0,0:0:0:0:
321,33,69143,5,0,0:0:0:0:
321,33,69293,1,0,0:0:0:0:
321,33,69443,1,0,0:0:0:0:
273,49,69593,6,0,L|371:51,1,90,4|0,1:2|0:0,0:0:0:0:
273,49,71774,6,0,L|371:51,1,90,4|0,1:2|0:0,0:0:0:0:
273,49,73774,6,0,L|371:51,1,90,4|0,1:2|0:0,0:0:0:0:
273,49,75620,6,0,L|371:51,1,90,4|0,1:2|0:0,0:0:0:0:
273,49,77334,6,0,L|371:51,1,90,4|0,1:2|0:0,0:0:0:0:
362,50,77634,1,0,0:0:0:0:
423,106,77834,1,0,0:0:0:0:
423,106,77934,1,0,0:0:0:0:
192,102,78134,6,0,L|94:104,1,90,4|0,1:2|0:0,0:0:0:0:
102,103,78434,1,0,0:0:0:0:
44,146,78634,1,0,0:0:0:0:
44,146,78734,1,0,0:0:0:0:
245,185,78934,6,0,L|343:187,1,90,4|0,1:2|0:0,0:0:0:0:
335,186,79215,1,0,0:0:0:0:
395,242,79402,1,0,0:0:0:0:
395,242,79496,1,0,0:0:0:0:
395,242,79590,1,0,0:0:0:0:
395,242,79684,1,4,1:2:0:0:
444,287,79871,1,0,0:0:0:0:
444,287,79965,1,0,0:0:0:0:
494,330,80152,1,0,0:0:0:0:
494,330,80246,1,0,0:0:0:0:
16,17,80434,5,4,1:2:0:0:
16,17,80610,1,4,1:2:0:0:
16,367,80963,5,0,1:0:0:0:
16,367,81139,1,4,1:2:0:0:
16,367,81316,1,4,1:2:0:0:
496,367,81669,5,0,1:0:0:0:
496,367,81845,1,4,1:2:0:0:
496,17,82178,5,4,1:2:0:0:
496,17,82511,1,4,1:2:0:0:
496,17,82845,1,4,1:2:0:0:
217,158,83178,5,4,1:2:0:0:
228,222,83335,1,4,1:2:0:0:
291,214,83493,1,4,1:2:0:0:
277,149,83651,1,4,1:2:0:0:
164,201,83809,5,4,1:2:0:0:
268,277,83967,1,4,1:2:0:0:
340,171,84125,1,4,1:2:0:0:
239,97,84283,1,4,1:2:0:0:
245,187,84441,5,4,1:2:0:0:
240,201,84516,5,0,1:0:0:0:
253,204,84591,5,0,1:0:0:0:
263,193,84666,5,0,1:0:0:0:
245,187,84741,5,0,1:0:0:0:
240,201,84816,5,0,1:0:0:0:
253,204,84891,5,0,1:0:0:0:
263,193,84966,5,0,1:0:0:0:
245,187,85041,5,0,1:0:0:0:
240,201,85116,5,0,1:0:0:0:
253,204,85191,5,0,1:0:0:0:
263,193,85266,5,0,1:0:0:0:
245,187,85341,5,0,1:0:0:0:
240,201,85416,5,0,1:0:0:0:
253,204,85491,5,0,1:0:0:0:
263,193,85566,5,0,1:0:0:0:
245,187,85641,5,2,1:2:0:0:
256,192,85719,12,0,86588,0:0:0:0:
28,100,86904,6,0,P|69:106|119:97,1,90,4|0,1:2|0:0,0:0:0:0:
169,146,87204,1,8,2:0:0:0:
194,137,87279,1,0,0:0:0:0:
221,137,87354,1,2,0:0:0:0:
247,140,87429,1,2,0:0:0:0:
272,149,87504,1,2,1:2:0:0:
338,182,87654,1,0,0:0:0:0:
410,166,87804,1,8,2:0:0:0:
465,217,87954,1,2,1:2:0:0:
452,240,88029,1,2,0:2:0:0:
450,266,88104,1,2,0:0:0:0:
386,306,88254,1,0,1:0:0:0:
374,330,88329,1,0,0:0:0:0:
349,340,88404,1,8,2:0:0:0:
322,343,88479,1,0,0:0:0:0:
296,335,88554,1,0,0:0:0:0:
270,327,88629,1,0,0:0:0:0:
243,330,88704,1,2,1:2:0:0:
219,342,88779,1,0,0:0:0:0:
202,363,88854,1,0,1:0:0:0:
162,304,89004,1,10,2:2:0:0:
190,241,89154,1,0,0:0:0:0:
150,171,89304,5,2,1:2:0:0:
112,101,89454,1,0,1:0:0:0:
178,66,89604,1,8,2:0:0:0:
79,163,89754,1,2,0:2:0:0:
52,161,89829,1,2,0:2:0:0:
26,168,89904,1,2,1:2:0:0:
12,238,90054,1,2,0:0:0:0:
66,286,90204,1,8,2:0:0:0:
36,355,90354,1,0,1:0:0:0:
63,353,90429,1,0,0:0:0:0:
89,360,90504,1,2,0:0:0:0:
159,373,90654,1,0,1:0:0:0:
219,334,90804,1,10,2:0:0:0:
288,314,90954,1,0,0:0:0:0:
319,310,91029,1,0,0:0:0:0:
347,322,91104,1,2,1:2:0:0:
407,284,91254,1,2,1:2:0:0:
434,268,91329,1,0,0:0:0:0:
465,265,91404,1,10,2:2:0:0:
448,191,91554,1,2,0:0:0:0:
493,135,91704,1,2,1:2:0:0:
443,77,91854,1,0,0:0:0:0:
334,33,92004,5,8,2:0:0:0:
317,59,92079,1,0,0:0:0:0:
316,90,92154,1,2,0:0:0:0:
324,120,92229,1,0,0:0:0:0:
343,144,92304,1,2,1:2:0:0:
372,209,92454,1,0,0:0:0:0:
376,280,92604,1,8,2:0:0:0:
334,338,92754,1,0,1:0:0:0:
262,344,92904,1,0,0:0:0:0:
208,295,93054,1,2,1:2:0:0:
202,259,93129,1,2,0:2:0:0:
219,227,93204,1,10,2:2:0:0:
279,187,93354,1,0,0:0:0:0:
303,119,93504,1,2,1:2:0:0:
251,69,93654,1,0,1:0:0:0:
183,93,93804,1,10,2:2:0:0:
113,74,93954,1,0,0:0:0:0:
42,86,94104,6,0,P|38:138|46:182,1,90,2|0,1:2|0:0,0:0:0:0:
15,249,94404,1,10,2:0:0:0:
43,261,94479,1,0,0:0:0:0:
58,288,94554,1,0,0:0:0:0:
56,319,94629,1,0,0:0:0:0:
85,329,94704,1,2,1:2:0:0:
88,346,94779,1,0,0:0:0:0:
101,358,94854,1,0,0:0:0:0:
118,360,94929,1,0,0:0:0:0:
150,367,95004,1,10,2:2:0:0:
174,340,95079,1,0,0:0:0:0:
208,329,95154,1,0,1:0:0:0:
243,334,95229,1,0,0:0:0:0:
274,350,95304,1,2,0:0:0:0:
291,353,95379,1,0,0:0:0:0:
308,349,95454,1,0,1:0:0:0:
322,338,95529,1,0,0:0:0:0:
345,316,95604,1,10,2:2:0:0:
375,306,95679,1,0,0:0:0:0:
406,308,95754,1,0,0:0:0:0:
435,318,95829,1,0,0:0:0:0:
455,342,95904,1,2,1:2:0:0:
449,253,96054,1,0,1:0:0:0:
442,222,96129,1,0,0:0:0:0:
445,190,96204,1,12,2:0:0:0:
456,160,96279,1,0,0:0:0:0:
479,138,96354,1,4,2:0:0:0:
456,37,96504,6,0,B|351:20|375:72|278:56,1,180,4|8,1:2|2:0,0:0:0:0:
262,122,96954,1,2,0:2:0:0:
259,135,97029,1,2,0:2:0:0:
261,157,97104,1,2,1:2:0:0:
215,211,97254,1,0,0:0:0:0:
253,271,97404,1,8,2:0:0:0:
217,329,97554,6,0,L|13:321,1,180,2|0,1:2|1:0,0:0:0:0:
5,258,98004,1,8,2:0:0:0:
62,211,98154,1,2,0:2:0:0:
65,198,98229,1,2,0:2:0:0:
63,176,98304,1,2,1:2:0:0:
34,107,98454,1,0,1:0:0:0:
48,31,98604,1,8,2:0:0:0:
120,13,98754,6,0,P|178:18|239:114,1,180,2|0,0:0|0:0,0:0:0:0:
302,158,99204,1,8,2:0:0:0:
254,215,99354,1,2,0:2:0:0:
251,228,99429,1,2,0:2:0:0:
253,250,99504,1,2,1:2:0:0:
285,346,99654,1,2,0:0:0:0:
288,333,99729,1,2,0:0:0:0:
286,311,99804,1,10,2:0:0:0:
346,276,99954,6,0,P|363:208|489:177,1,180,2|0,1:2|1:0,0:0:0:0:
413,106,100404,1,8,2:0:0:0:
346,66,100554,1,2,0:2:0:0:
349,79,100629,1,2,0:2:0:0:
347,101,100704,1,2,1:2:0:0:
302,164,100854,1,0,1:0:0:0:
228,179,101004,1,10,2:2:0:0:
164,157,101154,1,0,0:0:0:0:
0,232,101304,6,0,L|186:228,1,180,2|8,1:2|2:0,0:0:0:0:
376,233,101754,1,0,0:0:0:0:
349,238,101829,1,0,0:0:0:0:
331,258,101904,1,2,1:2:0:0:
387,299,102054,1,0,0:0:0:0:
417,161,102204,1,8,2:0:0:0:
260,216,102354,6,0,P|308:279|288:380,1,180,2|0,1:2|1:0,0:0:0:0:
223,348,102804,1,8,2:0:0:0:
153,331,102954,1,0,0:0:0:0:
135,336,103029,1,0,0:0:0:0:
117,350,103104,1,2,1:2:0:0:
51,313,103254,1,0,1:0:0:0:
78,243,103404,1,10,2:2:0:0:
41,189,103554,1,0,0:0:0:0:
55,124,103704,5,2,1:2:0:0:
110,34,103854,1,0,0:0:0:0:
111,51,103929,1,0,0:0:0:0:
115,68,104004,1,10,2:2:0:0:
125,82,104079,1,0,0:0:0:0:
147,96,104154,1,0,0:0:0:0:
173,99,104229,1,0,0:0:0:0:
199,92,104304,1,2,1:2:0:0:
225,84,104379,1,0,0:0:0:0:
251,77,104454,1,0,0:0:0:0:
277,80,104529,1,0,0:0:0:0:
299,94,104604,1,10,2:2:0:0:
309,108,104679,1,0,0:0:0:0:
313,125,104754,1,0,1:0:0:0:
314,142,104829,1,0,0:0:0:0:
281,163,104904,5,2,0:0:0:0:
255,230,105054,1,0,1:0:0:0:
323,255,105204,1,10,2:0:0:0:
365,190,105354,1,0,0:0:0:0:
391,185,105429,1,0,0:0:0:0:
413,200,105504,1,2,1:2:0:0:
474,233,105654,1,0,1:0:0:0:
431,291,105804,1,12,2:0:0:0:
494,330,105954,1,4,2:0:0:0:
382,358,106104,5,6,1:2:0:0:
353,329,106179,1,0,0:0:0:0:
315,313,106254,1,0,0:0:0:0:
274,315,106329,1,0,0:0:0:0:
241,338,106404,1,8,2:0:0:0:
179,296,106554,1,2,0:0:0:0:
160,332,106629,1,0,0:0:0:0:
123,350,106704,1,0,1:0:0:0:
82,348,106779,1,0,0:0:0:0:
51,321,106854,1,0,0:0:0:0:
87,252,107004,1,10,2:0:0:0:
0,139,107154,5,0,1:0:0:0:
23,106,107229,1,0,0:0:0:0:
62,95,107304,1,2,0:0:0:0:
99,110,107379,1,0,0:0:0:0:
118,145,107454,1,0,1:2:0:0:
111,184,107529,1,0,0:0:0:0:
99,176,107604,1,10,2:0:0:0:
85,176,107679,1,0,0:0:0:0:
71,178,107754,1,0,0:0:0:0:
59,184,107829,1,0,0:0:0:0:
48,193,107904,1,2,1:2:0:0:
19,257,108054,1,0,1:0:0:0:
51,321,108204,1,10,2:2:0:0:
125,318,108354,1,0,0:0:0:0:
188,349,108504,5,2,1:2:0:0:
236,308,108654,1,2,1:2:0:0:
295,302,108804,1,8,2:0:0:0:
334,246,108954,1,0,0:0:0:0:
373,273,109104,1,2,1:2:0:0:
422,283,109254,1,2,0:0:0:0:
484,255,109404,5,8,2:0:0:0:
505,191,109554,1,0,1:0:0:0:
482,123,109704,1,2,0:0:0:0:
417,89,109854,1,0,1:0:0:0:
355,44,110004,2,0,P|346:93|359:138,1,90,10|0,2:2|0:0,0:0:0:0:
265,193,110304,2,0,L|361:195,1,90,2|0,1:2|1:0,0:0:0:0:
221,143,110604,1,10,2:2:0:0:
172,231,110754,1,0,0:0:0:0:
117,175,110904,2,0,P|139:240|129:318,1,135,2|0,1:2|0:0,0:0:0:0:
133,305,111204,2,0,L|30:300,1,90,8|0,2:0|0:0,0:0:0:0:
28,231,111504,1,0,1:0:0:0:
40,160,111654,1,2,0:0:0:0:
41,142,111729,1,0,0:0:0:0:
37,120,111804,1,8,2:0:0:0:
67,56,111954,6,0,P|148:33|246:54,1,180,2|0,1:2|1:0,0:0:0:0:
297,97,112404,1,8,2:0:0:0:
366,73,112554,1,0,0:0:0:0:
433,107,112704,1,2,1:2:0:0:
428,124,112779,1,0,0:0:0:0:
441,193,112929,1,2,0:0:0:0:
448,209,113004,1,8,2:0:0:0:
465,280,113154,1,2,0:0:0:0:
456,295,113229,1,0,0:0:0:0:
447,310,113304,6,0,P|394:325|277:291,1,180,2|8,1:2|2:0,0:0:0:0:
217,321,113754,1,0,0:0:0:0:
154,290,113904,1,2,1:2:0:0:
86,313,114054,1,2,0:0:0:0:
57,244,114204,1,8,2:0:0:0:
122,219,114354,1,0,1:0:0:0:
93,161,114504,5,2,0:0:0:0:
160,133,114654,1,0,1:0:0:0:
160,133,114729,1,0,0:0:0:0:
160,133,114804,1,8,2:0:0:0:
130,64,114954,1,0,0:0:0:0:
61,92,115104,1,2,1:2:0:0:
93,161,115254,1,0,1:0:0:0:
201,71,115404,5,14,2:0:0:0:
12,150,115554,1,6,2:0:0:0:
254,135,115704,5,4,1:2:0:0:
290,80,115854,1,0,0:0:0:0:
326,112,116004,1,0,0:0:0:0:
352,87,116154,1,0,0:0:0:0:
381,101,116304,1,0,0:0:0:0:
407,90,116454,1,0,0:0:0:0:
425,98,116604,1,0,0:0:0:0:
436,92,116754,1,0,0:0:0:0:
498,117,116904,5,0,0:0:0:0:
455,169,117054,1,0,0:0:0:0:
473,183,117204,1,0,0:0:0:0:
454,246,117354,1,0,0:0:0:0:
508,286,117504,5,2,0:0:0:0:
255,255,117729,1,0,0:0:0:0:
4,286,117954,1,0,0:0:0:0:
91,339,118104,5,0,0:0:0:0:
159,350,118254,1,0,0:0:0:0:
235,333,118404,1,0,0:0:0:0:
235,333,118854,1,0,0:0:0:0:
302,315,119004,1,0,0:0:0:0:
369,338,119154,1,0,0:0:0:0:
481,268,119304,5,0,0:0:0:0:
419,242,119454,1,0,0:0:0:0:
379,257,119604,1,0,0:0:0:0:
286,217,119754,5,0,0:0:0:0:
243,206,119920,1,0,0:0:0:0:
221,220,120087,1,0,0:0:0:0:
201,216,120254,1,0,0:0:0:0:
201,216,120596,5,0,0:0:0:0:
143,233,120768,1,0,0:0:0:0:
84,206,120939,1,0,0:0:0:0:
63,142,121111,1,0,0:0:0:0:
71,146,121282,5,0,0:0:0:0:
88,79,121454,1,0,0:0:0:0:
154,65,121625,1,0,0:0:0:0:
209,107,121796,1,0,0:0:0:0:
319,244,121968,5,0,0:0:0:0:
319,244,122695,1,0,0:0:0:0:
319,244,123230,1,0,0:0:0:0:
319,244,123680,5,0,0:0:0:0:
319,244,124226,1,0,0:0:0:0:
276,289,124559,1,0,0:0:0:0:
236,293,124892,5,0,0:0:0:0:
208,282,125346,5,0,0:0:0:0:
197,268,125801,5,0,0:0:0:0:
