osu file format v14

[General]
AudioFilename: audio.mp3
AudioLeadIn: 0
PreviewTime: 40118
Countdown: 0
SampleSet: Soft
StackLeniency: 0.5
Mode: 0
LetterboxInBreaks: 0
WidescreenStoryboard: 1

[Editor]
Bookmarks: 39593
DistanceSpacing: 0.2
BeatDivisor: 4
GridSize: 32
TimelineZoom: 2.179999

[Metadata]
Title:Mei
TitleUnicode:冥
Artist:Amuro vs. Killer
ArtistUnicode:Amuro vs. Killer
Creator:Ascended
Version:Hard (feat. Haruto)
Source:beatmania IIDX 12 HAPPY SKY
Tags:HUMAN SEQUENCER ddr DanceDanceRevolution X2 Toy'sMarch2 Electronic Acylica Haruto Haruto_Aizawa fanzhen0019 how2miss Firika Muya Garden Jounzan Natteke desu EvilElvis EvilElvisV2 Necho Atlust Kyouren gokugohan12468 KittyAdventure -ascended- -_ascended_- Takayuki Ishikawa 石川貴之 Tatsuya Shimizu 清水達也 D.J.Amuro 安室 皆伝 dj TAKA Tatsh TAKASH rhythm game electronic instrumental bemani konami 2dx 冥王星 PLUTO STORY
BeatmapID:4313547
BeatmapSetID:2062538

[Difficulty]
HPDrainRate:5
CircleSize:3.5
OverallDifficulty:6
ApproachRate:8
SliderMultiplier:1.3
SliderTickRate:1

[Events]
//Background and Video events
0,0,"70433861.png",0,0
//Break Periods
2,67393,68843
//Storyboard Layer 0 (Background)
//Storyboard Layer 1 (Fail)
//Storyboard Layer 2 (Pass)
//Storyboard Layer 3 (Foreground)
//Storyboard Layer 4 (Overlay)
//Storyboard Sound Samples

[TimingPoints]
2393,300,4,2,1,30,1,0
2393,-125,4,2,1,30,0,0
11993,-111.111111111111,4,2,1,40,0,0
20543,-100,4,2,2,40,0,0
21593,-100,4,2,2,50,0,0
21893,-100,4,2,2,50,0,0
59993,600,4,2,2,30,1,0
69593,545.454545454546,4,2,2,40,1,0
69593,-133.333333333333,4,2,2,40,0,0
71774,500,4,2,2,50,1,0
71774,-133.333333333333,4,2,2,50,0,0
73774,461.538461538462,4,2,2,50,1,0
73774,-133.333333333333,4,2,2,50,0,0
75620,428.571428571429,4,2,2,40,1,0
75620,-133.333333333333,4,2,2,40,0,0
77334,400,4,2,2,50,1,0
77334,-133.333333333333,4,2,2,50,0,0
78934,375,4,2,2,50,1,0
78934,-133.333333333333,4,2,2,50,0,0
80434,352.941176470588,4,2,2,60,1,0
81845,333.333333333333,4,2,2,70,1,0
81845,-133.333333333333,4,2,2,70,0,0
83178,315.789473684211,4,2,2,70,1,0
83178,-133.333333333333,4,2,2,70,0,0
84441,300,4,2,2,60,1,0
85641,315.789473684211,4,2,2,40,1,0
85680,-100,4,2,2,5,0,0
85719,-100,4,2,2,37,0,0
85758,-100,4,2,2,5,0,0
85798,-100,4,2,2,35,0,0
85837,-100,4,2,2,5,0,0
85877,-100,4,2,2,32,0,0
85916,-100,4,2,2,5,0,0
85956,-100,4,2,2,30,0,0
85995,-100,4,2,2,5,0,0
86035,-100,4,2,2,32,0,0
86074,-100,4,2,2,5,0,0
86114,-100,4,2,2,35,0,0
86153,-100,4,2,2,5,0,0
86193,-100,4,2,2,37,0,0
86232,-100,4,2,2,5,0,0
86272,-100,4,2,2,40,0,0
86311,-100,4,2,2,5,0,0
86351,-100,4,2,2,42,0,0
86390,-100,4,2,2,5,0,0
86430,-100,4,2,2,45,0,0
86469,-100,4,2,2,5,0,0
86509,-100,4,2,2,47,0,0
86548,-100,4,2,2,5,0,0
86588,-100,4,2,2,50,0,0
86627,-100,4,2,2,5,0,0
86667,-100,4,2,2,52,0,0
86706,-100,4,2,2,5,0,0
86746,-100,4,2,2,55,0,0
86785,-100,4,2,2,5,0,0
86825,-100,4,2,2,57,0,0
86864,-100,4,2,2,5,0,0
86904,300,4,2,2,70,1,0
86904,-90.9090909090909,4,2,2,70,0,0
115704,-153.846153846154,4,2,3,50,0,0
119754,333.333333333333,4,2,3,40,1,0
120254,342.857142857143,4,2,3,40,1,0
120254,-133.333333333333,4,2,3,40,0,0
121968,363.636363636364,4,2,3,40,1,0
122695,428.571428571429,4,2,3,40,1,0
122695,-133.333333333333,4,2,3,40,0,0
123230,600,4,2,3,40,1,0
123680,545.454545454546,4,2,3,40,1,0
124225,666.666666666667,4,2,1,40,1,0
124891,909.090909090909,4,2,1,40,1,0
125800,-100,4,2,3,40,0,0

[Colours]
Combo1 : 143,184,200
Combo2 : 77,103,154

[HitObjects]
0,384,2393,6,0,P|51:374|102:366,1,104,2|0,0:0|0:0,0:0:0:0:
186,333,2843,2,0,P|171:285|123:273,1,104,8|0,2:0|0:0,0:0:0:0:
52,220,3293,2,0,P|37:241|33:266,2,52,8|0|0,2:0|0:0|0:0,0:0:0:0:
146,48,4493,6,0,P|141:35|140:22,3,26
173,46,4793,2,0,B|223:40|224:74|272:68,1,104,2|0,0:0|0:0,0:0:0:0:
273,156,5243,2,0,B|323:162|324:128|372:133,1,104,2|0,0:0|0:0,0:0:0:0:
461,150,5692,2,0,P|464:124|456:99,1,52,2|0,0:0|0:0,0:0:0:0:
393,36,5992,1,0,0:0:0:0:
475,363,6893,6,0,P|460:360|447:358,3,26
482,376,7193,2,0,P|426:366|370:357,1,104,2|2,0:0|0:0,0:0:0:0:
309,295,7643,2,0,P|253:303|192:311,1,104,8|0,2:0|0:0,0:0:0:0:
129,354,8093,2,0,P|117:324|120:297,2,52,8|0|0,2:0|0:0|0:0,0:0:0:0:
463,44,9293,6,0,P|465:32|459:16,3,26,2|0|0|0,0:0|0:0|0:0|0:0,0:0:0:0:
438,38,9593,2,0,B|366:37|403:61|330:61,1,104,2|2,0:0|0:0,0:0:0:0:
263,111,10043,2,0,B|191:111|228:87|154:87,1,104,8|0,2:0|0:0,0:0:0:0:
86,43,10493,2,0,P|76:73|82:115,1,52,8|0,2:0|0:0,0:0:0:0:
0,239,10943,2,0,P|80:226|136:293,1,156
294,361,11693,6,0,P|296:341|299:322,3,26,2|0|0|0,0:0|0:0|0:0|0:0,0:0:0:0:
260,300,11993,2,0,P|255:268|250:237,1,58.4999982147217,0|0,3:0|3:0,2:0:0:0:
329,181,12293,1,2,2:3:0:0:
329,181,12443,2,0,P|338:118|348:56,1,116.999996429443,8|0,2:0|2:0,0:0:0:0:
279,4,12893,2,0,P|247:9|217:14,1,58.4999982147217,8|0,2:0|2:0,0:0:0:0:
195,46,13118,1,0,0:0:0:0:
195,46,13193,2,0,P|163:40|133:35,1,58.4999982147217,0|0,3:0|3:0,0:0:0:0:
54,107,13493,6,0,P|102:142|169:138,1,116.999996429443,2|0,2:3|3:0,0:0:0:0:
177,230,13943,1,2,2:3:0:0:
241,168,14093,2,0,P|259:164|282:161,3,29.2499991073609,0|0|0|0,3:0|0:0|3:0|0:0,0:0:0:0:
301,133,14393,6,0,P|332:138|363:144,1,58.4999982147217,0|0,3:0|3:0,2:0:0:0:
416,69,14693,1,2,2:3:0:0:
416,69,14843,2,0,P|451:117|440:178,1,116.999996429443,8|0,2:0|2:0,0:0:0:0:
460,268,15293,2,0,P|423:261|386:255,1,58.4999982147217,8|0,2:0|2:0,0:0:0:0:
355,335,15593,5,0,3:0:0:0:
355,335,15743,2,0,P|284:346|220:359,1,116.999996429443,0|0,3:0|3:0,0:0:0:0:
149,319,16193,1,0,3:0:0:0:
149,319,16268,1,0,0:0:0:0:
149,319,16343,2,0,P|118:316|90:330,2,58.4999982147217,0|2|0,3:0|2:3|2:0,0:0:0:0:
193,232,16793,6,0,P|189:200|253:132,1,116.999996429443,0|2,3:0|2:3,0:0:0:0:
318,175,17243,2,0,P|379:184|442:194,1,116.999996429443,8|0,2:0|2:0,0:0:0:0:
498,121,17693,1,8,2:0:0:0:
344,17,17993,5,0,3:0:0:0:
344,17,18143,1,0,3:0:0:0:
260,50,18293,2,0,P|217:43|175:36,1,58.4999982147217,2|0,2:3|3:0,0:0:0:0:
125,102,18593,1,0,3:0:0:0:
125,102,18668,1,0,0:0:0:0:
125,102,18743,2,0,P|82:109|40:116,2,58.4999982147217,2|0|0,2:3|3:0|3:0,0:0:0:0:
204,157,19193,6,0,P|207:186|212:214,1,58.4999982147217,0|0,3:0|3:0,2:0:0:0:
311,204,19493,1,0,2:3:0:0:
311,204,19643,2,0,P|299:268|288:333,1,116.999996429443,8|0,2:0|2:0,0:0:0:0:
394,365,20093,2,0,P|388:334|383:303,1,58.4999982147217,8|0,2:0|2:0,0:0:0:0:
47,50,21593,6,0,B|126:36|98:92|186:77,1,130,4|8,1:2|2:0,0:0:0:0:
255,26,22043,1,0,0:0:0:0:
255,26,22118,1,0,0:0:0:0:
255,26,22193,2,0,P|267:61|268:100,1,65,0|0,0:0|1:0,0:0:0:0:
356,151,22493,2,0,P|360:79|385:13,1,130,8|0,2:0|1:0,0:0:0:0:
459,85,22943,1,0,0:0:0:0:
459,85,23093,2,0,P|456:119|445:151,1,65,8|0,2:0|0:0,0:0:0:0:
356,151,23393,2,0,P|358:185|370:217,1,65,0|0,0:0|1:0,0:0:0:0:
456,244,23693,1,8,2:0:0:0:
345,375,23993,6,0,P|310:369|275:364,1,65,0|0,1:0|0:0,0:0:0:0:
223,293,24293,1,8,2:0:0:0:
222,293,24443,2,0,P|187:297|152:303,1,65
59,348,24743,1,0,1:0:0:0:
59,348,24893,2,0,P|68:288|83:202,1,130,8|0,2:0|1:0,0:0:0:0:
160,179,25343,5,0,0:0:0:0:
160,179,25493,2,0,P|161:143|173:111,1,65,8|8,2:0|2:0,0:0:0:0:
59,63,25793,2,0,P|70:94|74:139,1,65,0|0,0:0|1:0,0:0:0:0:
128,8,26093,2,0,P|187:38|261:34,1,130,8|0,2:0|1:0,0:0:0:0:
285,21,26468,1,0,0:0:0:0:
285,21,26543,1,0,0:0:0:0:
350,88,26693,6,0,P|344:122|338:157,1,65,8|0,2:0|0:0,0:0:0:0:
244,161,26993,2,0,P|249:195|254:230,1,65,0|0,0:0|1:0,0:0:0:0:
265,316,27293,1,8,2:0:0:0:
425,261,27593,5,0,1:0:0:0:
425,261,27668,1,0,0:0:0:0:
425,261,27743,1,0,0:0:0:0:
435,169,27893,1,8,2:0:0:0:
435,169,28043,2,0,P|403:107|338:88,1,130,0|0,0:0|1:0,0:0:0:0:
289,9,28493,2,0,P|280:42|256:73,1,65,8|0,2:0|0:0,0:0:0:0:
195,8,28793,6,0,P|163:13|130:18,1,65,0|0,1:0|0:0,0:0:0:0:
65,86,29093,1,8,2:0:0:0:
65,86,29243,2,0,P|76:149|85:214,1,130,0|0,0:0|1:0,0:0:0:0:
178,199,29693,2,0,P|174:234|168:268,1,65,8|0,2:0|0:0,0:0:0:0:
92,314,29993,6,0,P|149:353|216:345,1,130,0|8,1:0|2:0,0:0:0:0:
300,378,30443,1,0,0:0:0:0:
300,378,30518,1,0,0:0:0:0:
300,378,30593,2,0,P|301:345|291:315,1,65,0|0,0:0|1:0,0:0:0:0:
360,242,30893,2,0,P|333:224|301:218,1,65,8|8,2:0|2:0,0:0:0:0:
215,258,31193,6,0,P|202:190|192:119,1,130,4|8,1:2|2:0,0:0:0:0:
188,31,31643,2,0,P|219:38|251:46,1,65,8|0,2:0|0:0,0:0:0:0:
324,115,31943,1,0,1:0:0:0:
324,115,32093,2,0,P|357:106|391:99,1,65,8|0,2:0|0:0,0:0:0:0:
393,8,32393,6,0,P|432:17|475:104,1,130,0|8,1:0|2:0,0:0:0:0:
438,175,32843,2,0,P|411:238|345:251,1,130,8|0,2:0|1:0,0:0:0:0:
421,344,33293,1,8,2:0:0:0:
263,319,33593,6,0,P|227:314|193:307,1,65,0|0,1:0|0:0,0:0:0:0:
167,301,33818,1,0,0:0:0:0:
167,301,33893,1,8,2:0:0:0:
76,347,34043,2,0,P|70:278|104:218,1,130,8|0,2:0|1:0,0:0:0:0:
44,147,34493,2,0,P|74:131|110:131,1,65,8|0,2:0|0:0,0:0:0:0:
181,183,34793,6,0,P|249:171|320:159,1,130,0|8,1:0|2:0,0:0:0:0:
398,206,35243,1,8,2:0:0:0:
398,206,35318,1,0,0:0:0:0:
398,206,35393,2,0,P|406:159|414:117,1,65,0|0,0:0|1:0,0:0:0:0:
500,98,35693,2,0,P|505:131|511:166,1,65,8|0,2:0|0:0,0:0:0:0:
427,51,35993,6,0,B|347:64|371:13|288:23,1,130,0|8,1:0|2:0,0:0:0:0:
228,71,36443,2,0,B|148:57|172:108|93:93,1,130,8|0,2:0|1:0,0:0:0:0:
45,159,36893,2,0,P|51:190|57:222,1,65,8|0,2:0|0:0,0:0:0:0:
148,225,37193,6,0,P|137:293|125:362,1,130,0|8,1:0|2:0,0:0:0:0:
226,343,37643,1,8,2:0:0:0:
226,343,37718,1,0,0:0:0:0:
226,343,37793,2,0,P|233:309|238:274,1,65,0|0,0:0|1:0,0:0:0:0:
256,192,38093,1,8,2:0:0:0:
104,79,38393,6,0,B|181:90|159:42|237:52,1,130,0|8,1:0|2:0,0:0:0:0:
307,4,38843,1,8,2:0:0:0:
307,4,38918,1,0,0:0:0:0:
307,4,38993,2,0,P|318:47|317:83,1,65,0|0,0:0|1:0,0:0:0:0:
398,119,39293,2,0,P|388:162|389:199,1,65,8|0,2:0|0:0,0:0:0:0:
341,262,39593,1,6,1:2:0:0:
478,384,40193,5,0,0:0:0:0:
478,384,40268,1,0,0:0:0:0:
478,384,40343,2,0,P|506:379|535:374,2,32.5
378,359,40643,5,0,0:0:0:0:
378,359,40718,1,0,0:0:0:0:
378,359,40793,2,0,P|311:346|268:340,1,97.5,6|0,1:2|0:0,0:0:0:0:
254,337,41093,1,8,2:0:0:0:
159,355,41243,2,0,P|166:311|170:283,1,65,2|0,0:0|1:0,0:0:0:0:
76,308,41543,1,0,0:0:0:0:
76,308,41693,2,0,P|69:273|63:238,1,65,10|0,2:0|1:0,0:0:0:0:
129,166,41993,5,0,0:0:0:0:
129,166,42068,1,0,0:0:0:0:
129,166,42143,2,0,P|87:159|53:135,2,65,2|8|0,1:2|2:0|0:0,0:0:0:0:
209,212,42593,2,0,P|251:205|293:198,1,65,2|0,1:2|1:0,0:0:0:0:
350,151,42893,2,0,P|368:153|385:156,3,32.5,10|0|0|0,2:0|0:0|0:0|0:0,0:0:0:0:
406,160,43193,5,2,1:2:0:0:
466,97,43343,1,0,1:0:0:0:
407,28,43493,2,0,P|390:30|372:33,3,32.5,10|0|2|0,2:0|0:0|0:0|0:0,0:0:0:0:
337,57,43793,2,0,P|319:54|302:53,3,32.5,0|0|0|0,1:0|0:0|0:0|0:0,0:0:0:0:
267,31,44093,2,0,P|250:34|232:36,3,32.5,10|0|0|0,2:0|0:0|1:0|0:0,0:0:0:0:
200,63,44393,6,0,P|163:48|126:52,1,65,2|0,0:0|1:0,0:0:0:0:
68,101,44693,2,0,P|75:142|79:184,1,65,8|0,2:0|0:0,0:0:0:0:
146,215,44993,2,0,P|187:208|229:204,1,65,2|0,1:2|1:0,0:0:0:0:
272,143,45293,1,10,2:0:0:0:
449,174,45593,5,2,1:2:0:0:
496,262,45743,1,0,0:0:0:0:
496,262,45818,1,0,0:0:0:0:
496,262,45893,2,0,P|431:275|405:351,1,130,10|2,2:0|1:2,0:0:0:0:
372,367,46268,1,0,0:0:0:0:
372,367,46343,2,0,P|331:360|289:356,1,65,0|8,0:0|2:0,0:0:0:0:
134,374,46793,5,0,0:0:0:0:
36,336,46943,2,0,P|42:295|45:262,1,65,0|10,1:0|2:2,0:0:0:0:
64,177,47243,1,2,0:2:0:0:
64,177,47318,1,0,0:0:0:0:
64,177,47393,2,0,P|105:183|138:186,1,65,2|0,1:2|1:0,0:0:0:0:
198,246,47693,1,10,2:0:0:0:
362,273,47993,5,2,1:2:0:0:
449,237,48143,1,0,0:0:0:0:
449,237,48218,1,0,0:0:0:0:
449,237,48293,2,0,P|470:187|463:134,1,97.5,10|2,2:0|0:0,0:0:0:0:
441,102,48593,2,0,P|400:108|367:111,1,65,2|2,1:2|0:0,0:0:0:0:
319,34,48893,2,0,P|284:30|249:25,1,65,10|0,2:0|1:0,0:0:0:0:
160,48,49193,1,2,0:0:0:0:
0,95,49493,6,0,P|2:115|4:132,3,32.5,10|0|0|0,2:0|0:0|0:0|0:0,0:0:0:0:
37,156,49793,2,0,P|31:190|28:225,1,65,2|0,1:2|1:0,0:0:0:0:
45,312,50093,1,14,2:2:0:0:
45,312,50243,1,4,2:0:0:0:
139,282,50393,6,0,B|210:264|204:316|289:297,1,130,6|8,1:2|2:0,0:0:0:0:
139,102,50993,2,0,B|210:119|204:67|289:86,1,130,2|8,1:2|2:0,0:0:0:0:
351,12,51443,1,0,1:0:0:0:
351,12,51518,1,0,0:0:0:0:
351,12,51593,2,0,P|380:65|362:141,1,130,2|8,0:0|2:0,0:0:0:0:
489,252,52193,2,0,P|483:286|480:321,1,65,0|2,1:2|1:2,0:0:0:0:
408,374,52493,2,0,P|373:368|338:365,1,65,10|2,2:0|0:0,0:0:0:0:
274,299,52793,6,0,P|239:302|204:307,1,65,2|0,1:2|1:0,0:0:0:0:
118,347,53093,2,0,P|114:312|109:277,1,65,10|0,2:0|0:0,0:0:0:0:
38,215,53393,2,0,P|39:197|42:180,3,32.5,2|0|0|0,1:2|0:0|0:0|0:0,0:0:0:0:
76,155,53693,2,0,P|110:160|145:163,1,65,10|0,2:2|1:0,0:0:0:0:
226,213,53993,5,2,0:0:0:0:
298,150,54143,1,2,1:2:0:0:
298,150,54218,1,2,0:0:0:0:
298,150,54293,2,0,P|332:145|367:142,1,65,8|0,2:0|0:0,0:0:0:0:
442,100,54593,1,2,1:2:0:0:
393,20,54743,2,0,P|375:18|358:15,3,32.5,0|2|10|2,1:0|0:0|2:2|0:0,0:0:0:0:
329,37,55043,1,0,0:0:0:0:
241,47,55193,2,0,P|208:52|176:55,2,65,2|0|8,1:2|0:0|2:0,0:0:0:0:
43,216,55793,6,0,P|40:199|38:183,2,32.5,2|0|0,1:2|0:0|0:0,0:0:0:0:
98,294,56093,2,0,P|96:312|93:329,2,32.5,10|0|0,2:2|0:0|1:0,0:0:0:0:
136,204,56393,2,0,P|133:187|131:171,2,32.5,2|0|0,0:0|0:0|1:0,0:0:0:0:
191,282,56693,2,0,P|189:300|186:317,2,32.5,10|0|0,2:2|0:0|0:0,0:0:0:0:
270,240,56993,2,0,P|286:242|302:244,3,32.5,2|0|0|0,1:2|0:0|1:0|0:0,0:0:0:0:
332,269,57293,2,0,L|401:258,1,65,10|0,2:2|0:0,0:0:0:0:
494,290,57593,5,2,1:2:0:0:
494,290,57743,1,0,1:0:0:0:
475,196,57893,2,0,P|422:160|359:168,1,130,10|2,0:0|1:2,0:0:0:0:
282,118,58343,1,0,1:0:0:0:
282,118,58493,2,0,P|250:135|213:134,1,65,8|2,2:0|1:2,0:0:0:0:
163,211,58793,1,2,0:0:0:0:
163,211,58943,1,0,1:0:0:0:
67,195,59093,6,0,P|43:165|48:75,1,130,8|2,0:0|1:2,0:0:0:0:
89,0,59543,1,0,1:0:0:0:
171,43,59693,2,0,L|238:52,1,65,10|14,2:0|2:0,0:0:0:0:
321,16,59993,5,4,1:2:0:0:
256,192,60143,12,0,67193,0:0:0:0:
90,24,69593,6,0,B|224:-2|284:109|423:72,1,341.250013017655,4|0,1:2|0:0,0:0:0:0:
482,171,71774,2,0,B|347:145|287:256|148:219,1,341.250013017655,4|0,1:2|0:0,0:0:0:0:
55,192,73774,6,0,P|70:352|214:330,1,341.250013017655,4|0,1:2|0:0,0:0:0:0:
296,288,75620,2,0,P|448:298|453:146,1,341.250013017655,4|0,1:2|0:0,0:0:0:0:
365,193,77334,6,0,L|218:208,1,146.250005578995,4|0,1:2|0:0,0:0:0:0:
225,299,78134,2,0,L|79:285,1,146.250005578995,4|0,1:2|0:0,0:0:0:0:
13,208,78934,6,0,P|-1:141|29:68,1,146.250005578995,4|0,1:2|0:0,0:0:0:0:
107,0,79684,2,0,P|135:67|121:137,1,146.250005578995,4|0,1:2|0:0,0:0:0:0:
187,215,80434,5,4,1:2:0:0:
187,215,80610,1,4,1:2:0:0:
322,67,80963,1,0,1:0:0:0:
412,87,81139,1,4,1:2:0:0:
412,87,81316,1,4,1:2:0:0:
477,281,81669,1,0,1:0:0:0:
394,346,81845,6,0,P|386:307|383:248,1,97.50000371933,4|4,1:2|1:2,0:0:0:0:
153,162,82511,2,0,P|151:210|141:258,1,97.50000371933,4|4,1:2|1:2,0:0:0:0:
256,384,83178,6,0,L|247:329,1,48.750001859665,4|4,1:2|1:2,0:0:0:0:
274,249,83493,2,0,L|283:194,1,48.750001859665,4|4,1:2|1:2,0:0:0:0:
248,123,83809,1,4,1:2:0:0:
248,123,83967,1,4,1:2:0:0:
308,50,84125,1,4,1:2:0:0:
308,50,84283,1,4,1:2:0:0:
229,0,84441,5,4,1:2:0:0:
256,192,84516,12,2,85641,1:2:0:0:
497,299,86904,6,0,B|431:277|410:326|347:307,1,143.000004364014,4|8,1:2|2:0,0:0:0:0:
274,365,87354,1,2,0:0:0:0:
274,365,87429,1,2,0:0:0:0:
274,365,87504,2,0,P|261:325|262:294,1,71.5000021820069,2|0,1:2|0:0,0:0:0:0:
325,219,87804,1,8,2:0:0:0:
248,176,87954,5,2,1:2:0:0:
248,176,88029,1,2,0:2:0:0:
248,176,88104,2,0,P|208:189|177:188,1,71.5000021820069,2|0,0:0|1:0,0:0:0:0:
93,254,88404,2,0,P|91:218|82:183,1,71.5000021820069,8|0,2:0|0:0,0:0:0:0:
8,125,88704,1,2,1:2:0:0:
8,125,88854,1,0,1:0:0:0:
69,43,89005,2,0,P|103:52|139:53,1,71.5000021820069,10|0,2:2|0:0,0:0:0:0:
222,7,89304,5,2,1:2:0:0:
222,7,89454,1,0,1:0:0:0:
277,82,89604,2,0,P|311:72|347:71,1,71.5000021820069,8|2,2:0|0:2,0:0:0:0:
374,96,89829,1,2,0:2:0:0:
374,96,89904,1,2,1:2:0:0:
439,24,90054,1,2,0:0:0:0:
439,24,90204,2,0,P|492:53|496:138,1,143.000004364014,8|2,2:0|0:0,0:0:0:0:
422,197,90654,6,0,L|382:188,2,35.7500010910034,0|0|10,1:0|0:0|2:0,0:0:0:0:
473,275,90954,2,0,L|513:266,2,35.7500010910034,0|0|2,0:0|0:0|1:2,0:0:0:0:
410,353,91254,1,2,1:2:0:0:
326,313,91404,1,10,2:2:0:0:
141,363,91704,6,0,P|112:318|131:234,1,143.000004364014,2|8,1:2|2:0,0:0:0:0:
194,161,92154,1,2,0:0:0:0:
282,197,92304,2,0,B|343:179|360:235|426:212,1,143.000004364014,2|8,1:2|2:0,0:0:0:0:
495,150,92754,2,0,P|483:112|479:79,1,71.5000021820069,0|0,1:0|0:0,0:0:0:0:
392,24,93054,1,2,1:2:0:0:
392,24,93129,1,2,0:2:0:0:
392,24,93204,1,10,2:2:0:0:
218,68,93504,2,0,P|180:56|147:52,1,71.5000021820069,2|0,1:2|1:0,0:0:0:0:
68,8,93804,2,0,P|30:45|43:148,1,143.000004364014,10|2,2:2|1:2,0:0:0:0:
99,211,94254,5,0,0:0:0:0:
99,211,94329,1,0,0:0:0:0:
99,211,94404,2,0,L|139:201,3,35.7500010910034,10|0|0|0,2:0|0:0|0:0|0:0,0:0:0:0:
177,173,94704,2,0,L|217:182,3,35.7500010910034,2|0|0|0,1:2|0:0|0:0|0:0,0:0:0:0:
257,203,95004,2,0,L|297:194,3,35.7500010910034,10|0|0|0,2:2|0:0|1:0|0:0,0:0:0:0:
333,183,95304,5,2,0:0:0:0:
419,246,95454,1,0,1:0:0:0:
419,246,95529,1,0,0:0:0:0:
419,246,95604,2,0,P|457:251|495:264,1,71.5000021820069,10|0,2:2|0:0,0:0:0:0:
432,343,95904,2,0,P|394:348|356:361,1,71.5000021820069,2|0,1:2|1:0,0:0:0:0:
298,290,96204,1,12,2:0:0:0:
298,290,96354,1,4,2:0:0:0:
221,341,96504,6,0,B|159:324|134:374|68:360,1,143.000004364014,4|8,1:2|2:0,0:0:0:0:
0,290,96954,1,2,0:2:0:0:
0,290,97029,1,2,0:2:0:0:
0,290,97104,2,0,P|54:251|129:266,1,143.000004364014,2|8,1:2|2:0,0:0:0:0:
176,163,97554,2,0,P|230:202|305:187,1,143.000004364014,2|0,1:2|1:0,0:0:0:0:
351,275,98004,1,8,2:0:0:0:
448,244,98154,5,2,0:2:0:0:
448,244,98229,1,2,0:2:0:0:
448,244,98304,2,0,P|445:209|436:173,1,71.5000021820069,2|0,1:2|1:0,0:0:0:0:
489,91,98604,2,0,P|454:82|418:79,1,71.5000021820069,8|2,2:0|0:0,0:0:0:0:
358,5,98904,2,0,P|299:6|247:66,1,143.000004364014,0|8,1:0|2:0,0:0:0:0:
322,157,99354,5,2,0:2:0:0:
322,157,99429,1,2,0:2:0:0:
322,157,99504,2,0,B|260:140|235:190|169:176,1,143.000004364014,2|10,1:2|2:0,0:0:0:0:
209,272,99954,2,0,B|147:289|122:239|56:253,1,143.000004364014,2|0,1:2|1:0,0:0:0:0:
85,153,100404,1,8,2:0:0:0:
7,95,100554,5,2,0:2:0:0:
7,95,100629,1,2,0:2:0:0:
7,95,100704,2,0,P|13:56|13:19,1,71.5000021820069,2|0,1:2|1:0,0:0:0:0:
106,35,101004,1,10,2:2:0:0:
269,120,101304,6,0,P|341:129|409:87,1,143.000004364014,2|8,1:2|2:0,0:0:0:0:
481,191,101754,1,0,0:0:0:0:
481,191,101904,2,0,P|484:153|495:118,1,71.5000021820069,2|0,1:2|0:0,0:0:0:0:
383,213,102204,1,8,2:0:0:0:
383,213,102354,2,0,L|409:359,1,143.000004364014,2|0,1:2|1:0,0:0:0:0:
493,307,102804,1,8,2:0:0:0:
303,264,103104,1,2,1:2:0:0:
303,264,103254,1,0,1:0:0:0:
226,316,103404,2,0,P|188:300|150:300,1,71.5000021820069,10|0,2:2|0:0,0:0:0:0:
76,349,103704,1,2,1:2:0:0:
11,278,103854,5,0,0:0:0:0:
11,278,103929,1,0,0:0:0:0:
11,278,104004,2,0,L|19:237,3,35.7500010910034,10|0|0|0,2:2|0:0|0:0|0:0,0:0:0:0:
56,205,104304,2,0,L|48:164,3,35.7500010910034,2|0|0|0,1:2|0:0|0:0|0:0,0:0:0:0:
38,130,104604,1,10,2:2:0:0:
126,76,104754,5,0,1:0:0:0:
126,76,104829,1,0,0:0:0:0:
126,76,104904,2,0,L|167:84,3,35.7500010910034,2|0|0|0,0:0|0:0|1:0|0:0,0:0:0:0:
199,121,105204,2,0,L|240:113,3,35.7500010910034,10|0|0|0,2:0|0:0|0:0|0:0,0:0:0:0:
276,105,105504,5,2,1:2:0:0:
329,180,105654,1,0,1:0:0:0:
247,244,105804,2,0,P|255:281|261:319,1,71.5000021820069,12|4,2:0|2:0,0:0:0:0:
344,349,106104,6,0,L|336:390,4,35.7500010910034,6|0|0|0|8,1:2|0:0|0:0|0:0|2:0,0:0:0:0:
436,312,106554,2,0,L|471:318,4,35.7500010910034,2|0|0|0|0,0:0|0:0|1:0|0:0|0:0,0:0:0:0:
406,225,107004,1,10,2:0:0:0:
495,191,107154,1,0,1:0:0:0:
495,191,107229,1,2,0:0:0:0:
495,191,107304,2,0,P|491:154|493:114,1,71.5000021820069,2|0,0:0|1:2,0:0:0:0:
422,54,107604,2,0,P|385:58|345:56,1,71.5000021820069,10|0,2:0|0:0,0:0:0:0:
292,136,107904,1,2,1:2:0:0:
207,94,108054,1,0,1:0:0:0:
207,94,108129,1,0,0:0:0:0:
207,94,108204,1,10,2:2:0:0:
87,246,108504,5,2,1:2:0:0:
17,191,108654,2,0,P|21:154|19:114,1,71.5000021820069,2|8,1:2|2:0,0:0:0:0:
176,221,109104,1,2,1:2:0:0:
269,190,109254,2,0,P|265:227|267:267,1,71.5000021820069,2|8,0:0|2:0,0:0:0:0:
344,312,109554,1,0,1:0:0:0:
261,362,109704,2,0,P|224:358|184:360,1,71.5000021820069,2|0,0:0|1:0,0:0:0:0:
103,377,110004,2,0,P|53:341|60:252,1,143.000004364014,10|2,2:2|1:2,0:0:0:0:
111,190,110454,1,0,1:0:0:0:
67,100,110604,2,0,P|104:96|144:98,1,71.5000021820069,10|0,2:2|0:0,0:0:0:0:
220,158,110904,6,0,B|280:145|300:185|362:175,1,143.000004364014,2|8,1:2|2:0,0:0:0:0:
306,362,111504,1,0,1:0:0:0:
306,362,111654,1,2,0:0:0:0:
391,332,111804,1,8,2:0:0:0:
484,364,111954,2,0,P|514:325|499:230,1,143.000004364014,2|0,1:2|1:0,0:0:0:0:
457,161,112404,1,8,2:0:0:0:
512,0,112704,2,0,P|467:9|427:10,1,71.5000021820069,2|0,1:2|1:2,0:0:0:0:
403,44,112929,1,2,0:0:0:0:
403,44,113004,2,0,P|358:35|318:34,1,71.5000021820069,8|2,2:0|0:0,0:0:0:0:
227,7,113304,6,0,L|250:163,1,143.000004364014,2|8,1:2|2:0,0:0:0:0:
295,237,113754,1,0,0:0:0:0:
222,296,113904,1,2,1:2:0:0:
222,296,114054,2,0,P|183:283|150:286,1,71.5000021820069,2|8,0:0|2:0,0:0:0:0:
34,309,114354,5,0,1:0:0:0:
34,309,114429,1,0,0:0:0:0:
34,309,114504,2,0,L|44:238,1,71.5000021820069,2|0,0:0|1:0,0:0:0:0:
69,208,114729,1,0,0:0:0:0:
69,208,114804,2,0,L|58:137,1,71.5000021820069,8|0,2:0|0:0,0:0:0:0:
17,47,115104,1,2,1:2:0:0:
17,47,115254,1,0,1:0:0:0:
108,6,115404,1,14,2:0:0:0:
108,6,115554,1,6,2:0:0:0:
149,89,115704,5,4,1:2:0:0:
256,192,115779,12,0,118104,0:0:0:0:
41,54,119304,6,0,P|95:63|159:25,1,126.749994197846
194,190,120254,2,0,P|234:183|282:212,1,97.50000371933
359,359,120939,1,0,0:0:0:0:
503,289,121282,2,0,L|494:235,1,48.750001859665
421,179,121625,2,0,L|430:125,1,48.750001859665
445,39,121968,5,0,0:0:0:0:
293,185,122695,2,0,B|243:170|215:213|168:196,1,121.875004649162
256,192,123680,12,0,125800,0:0:0:0:
