osu file format v14

[General]
AudioFilename: audio.mp3
AudioLeadIn: 0
PreviewTime: 40118
Countdown: 0
SampleSet: Soft
StackLeniency: 0.7
Mode: 0
LetterboxInBreaks: 0
WidescreenStoryboard: 0

[Editor]
DistanceSpacing: 0.2
BeatDivisor: 4
GridSize: 4
TimelineZoom: 3.799999

[Metadata]
Title:Mei
TitleUnicode:冥
Artist:Amuro vs. Killer
ArtistUnicode:Amuro vs. Killer
Creator:Ascended
Version:Atlust's Another
Source:beatmania IIDX 12 HAPPY SKY
Tags:HUMAN SEQUENCER ddr DanceDanceRevolution X2 Toy'sMarch2 Electronic Acylica Haruto Haruto_Aizawa fanzhen0019 how2miss Firika Muya Garden Jounzan Natteke desu EvilElvis EvilElvisV2 Necho Atlust Kyouren gokugohan12468 KittyAdventure -ascended- -_ascended_- Takayuki Ishikawa 石川貴之 Tatsuya Shimizu 清水達也 D.J.Amuro 安室 皆伝 dj TAKA Tatsh TAKASH rhythm game electronic instrumental bemani konami 2dx 冥王星 PLUTO STORY
BeatmapID:4313544
BeatmapSetID:2062538

[Difficulty]
HPDrainRate:5
CircleSize:5
OverallDifficulty:9
ApproachRate:9
SliderMultiplier:1.4
SliderTickRate:1

[Events]
//Background and Video events
0,0,"70433861.png",0,0
//Break Periods
2,61993,68993
//Storyboard Layer 0 (Background)
//Storyboard Layer 1 (Fail)
//Storyboard Layer 2 (Pass)
//Storyboard Layer 3 (Foreground)
//Storyboard Layer 4 (Overlay)
//Storyboard Sound Samples

[TimingPoints]
2393,300,4,2,1,30,1,0
11993,-100,4,2,1,40,0,0
20543,-100,4,2,1,40,0,0
21593,-100,4,2,2,50,0,0
21893,-100,4,2,2,50,0,0
59993,600,4,2,2,30,1,0
59993,-200,4,2,2,30,0,0
69593,545.454545454546,4,2,2,40,1,0
71774,500,4,2,2,50,1,0
73774,461.538461538462,4,2,2,50,1,0
75620,428.571428571429,4,2,2,40,1,0
77334,400,4,2,2,50,1,0
78934,375,4,2,2,50,1,0
80434,352.941176470588,4,2,2,60,1,0
81845,333.333333333333,4,2,2,70,1,0
83178,315.789473684211,4,2,2,70,1,0
84441,300,4,2,2,60,1,0
85641,315.789473684211,4,2,2,40,1,0
85680,-100,4,2,2,5,0,0
85719,-100,4,2,2,37,0,0
85758,-100,4,2,2,5,0,0
85798,-100,4,2,2,35,0,0
85837,-100,4,2,2,5,0,0
85877,-100,4,2,2,32,0,0
85916,-100,4,2,2,5,0,0
85956,-100,4,2,2,30,0,0
85995,-100,4,2,2,5,0,0
86035,-100,4,2,2,32,0,0
86074,-100,4,2,2,5,0,0
86114,-100,4,2,2,35,0,0
86153,-100,4,2,2,5,0,0
86193,-100,4,2,2,37,0,0
86232,-100,4,2,2,5,0,0
86272,-100,4,2,2,40,0,0
86311,-100,4,2,2,5,0,0
86351,-100,4,2,2,42,0,0
86390,-100,4,2,2,5,0,0
86430,-100,4,2,2,45,0,0
86469,-100,4,2,2,5,0,0
86509,-100,4,2,2,47,0,0
86548,-100,4,2,2,5,0,0
86588,-100,4,2,2,50,0,0
86627,-100,4,2,2,5,0,0
86667,-100,4,2,2,52,0,0
86706,-100,4,2,2,5,0,0
86746,-100,4,2,2,55,0,0
86785,-100,4,2,2,5,0,0
86825,-100,4,2,2,57,0,0
86864,-100,4,2,2,5,0,0
86904,300,4,2,2,70,1,0
115704,-100,4,2,3,50,0,0
119754,333.333333333333,4,2,1,40,1,0
120254,342.857142857143,4,2,1,40,1,0
121968,363.636363636364,4,2,1,40,1,0
122695,428.571428571429,4,2,1,40,1,0
123230,600,4,2,1,40,1,0
123680,545.454545454546,4,2,1,40,1,0
124225,666.666666666667,4,2,1,40,1,0
124891,909.090909090909,4,2,1,40,1,0

[Colours]
Combo1 : 143,184,200
Combo2 : 77,103,154

[HitObjects]
56,0,11693,5,2,0:0:0:0:
116,40,11843,1,0,0:0:0:0:
124,44,11918,1,0,0:0:0:0:
132,48,11993,2,0,L|220:40,2,70,0|0|2,3:0|3:0|2:3,2:0:0:0:
28,64,12443,2,0,P|8:132|44:216,1,140,8|0,2:0|2:0,0:0:0:0:
120,148,12893,2,0,L|208:140,1,70,8|0,2:0|2:0,0:0:0:0:
260,136,13193,1,0,3:0:0:0:
260,136,13343,1,0,3:0:0:0:
360,140,13493,2,0,L|368:16,1,105,2|0,2:3|0:0,0:0:0:0:
372,32,13793,2,0,L|460:24,1,70,0|2,3:0|2:3,0:0:0:0:
492,128,14093,6,0,L|488:168,3,35,0|0|0|0,3:0|0:0|3:0|0:0,0:0:0:0:
476,144,14393,2,0,P|464:188|476:228,1,70,0|0,3:0|3:0,2:0:0:0:
504,276,14693,1,2,2:3:0:0:
396,244,14843,2,0,L|248:256,1,140,8|0,2:0|2:0,0:0:0:0:
216,340,15293,2,0,P|256:352|292:340,1,70,8|0,2:0|2:0,0:0:0:0:
184,268,15593,2,0,L|188:228,3,35,0|0|0|0,3:0|0:0|3:0|0:0,0:0:0:0:
164,256,15893,2,0,L|52:265,1,105,2|0,0:3|0:0,0:0:0:0:
59,264,16193,1,0,3:0:0:0:
16,328,16343,2,0,L|4:364,2,35,0|0|2,3:0|0:0|2:3,0:0:0:0:
64,268,16643,5,0,2:0:0:0:
32,200,16793,2,0,L|24:120,1,70,0|0,3:0|3:0,0:0:0:0:
48,64,17093,1,2,2:3:0:0:
132,112,17243,2,0,L|272:100,1,140,8|0,2:0|2:0,0:0:0:0:
408,36,17693,2,0,L|416:0,2,35,8|0|0,2:0|0:0|2:0,0:0:0:0:
352,88,17993,1,0,3:0:0:0:
352,88,18143,1,0,3:0:0:0:
392,164,18293,6,0,L|504:152,1,105,2|0,2:3|0:0,0:0:0:0:
496,148,18593,2,0,L|504:112,2,35,0|0|2,3:0|0:0|2:3,0:0:0:0:
432,232,18893,5,0,3:0:0:0:
348,312,19043,1,0,3:0:0:0:
344,316,19118,1,0,0:0:0:0:
340,320,19193,1,0,3:0:0:0:
356,236,19343,1,0,3:0:0:0:
252,296,19493,1,0,2:3:0:0:
252,296,19643,2,0,L|104:308,1,140,8|0,2:0|2:0,0:0:0:0:
228,216,20093,6,0,L|238:65,1,140,8|0,2:0|2:0,0:0:0:0:
242,8,20543,1,0,0:0:0:0:
256,192,20618,12,0,21293,0:0:0:0:
356,72,21593,5,4,1:2:0:0:
428,28,21743,1,0,0:0:0:0:
456,104,21893,1,8,2:0:0:0:
356,72,22043,2,0,P|344:140|380:232,1,140,0|0,0:0|1:0,0:0:0:0:
496,244,22493,2,0,B|508:212|508:212|488:172,1,70,8|0,2:0|0:0,0:0:0:0:
424,264,22793,5,0,1:0:0:0:
356,296,22943,1,0,0:0:0:0:
288,328,23093,1,8,2:0:0:0:
424,264,23243,1,0,0:0:0:0:
424,264,23318,2,0,P|472:264|516:308,1,105,0|0,0:0|1:0,0:0:0:0:
363,207,23693,2,0,L|348:132,1,70,8|0,2:0|0:0,0:0:0:0:
352,132,23918,1,0,0:0:0:0:
356,128,23993,6,0,P|388:116|468:132,2,105,0|0|0,1:0|0:0|0:0,0:0:0:0:
280,116,24518,1,0,0:0:0:0:
280,116,24593,2,0,P|216:128|192:120,1,70,0|0,0:0|1:0,0:0:0:0:
36,88,24893,2,0,L|172:100,1,105,8|0,2:0|0:0,0:0:0:0:
148,92,25193,5,0,1:0:0:0:
100,176,25343,1,0,0:0:0:0:
192,204,25493,1,8,2:0:0:0:
160,272,25643,1,8,2:0:0:0:
156,280,25718,1,0,0:0:0:0:
152,288,25793,2,0,L|60:305,1,70,0|0,0:0|1:0,0:0:0:0:
232,284,26093,2,0,P|264:272|312:280,1,70,8|0,2:0|1:0,0:0:0:0:
304,280,26318,1,0,0:0:0:0:
308,284,26393,5,0,1:0:0:0:
424,272,26543,1,0,0:0:0:0:
420,280,26618,1,0,0:0:0:0:
416,288,26693,1,8,2:0:0:0:
424,196,26843,2,0,L|436:100,2,70,0|0|0,0:0|0:0|1:0,0:0:0:0:
416,288,27293,2,0,P|416:340|472:376,1,105,8|0,2:0|0:0,0:0:0:0:
460,368,27593,5,0,1:0:0:0:
348,356,27743,1,0,0:0:0:0:
280,380,27893,1,8,2:0:0:0:
288,288,28043,2,0,L|300:132,1,140,0|0,0:0|1:0,0:0:0:0:
216,268,28493,2,0,P|212:292|216:316,2,35,8|0|0,2:0|0:0|0:0,0:0:0:0:
144,192,28793,6,0,P|80:184|36:212,1,105,0|0,1:0|0:0,0:0:0:0:
45,202,29093,1,8,2:0:0:0:
4,296,29243,2,0,L|88:284,2,70,0|0|0,0:0|0:0|1:0,0:0:0:0:
45,202,29693,1,8,2:0:0:0:
49,198,29768,1,0,0:0:0:0:
53,194,29843,1,0,0:0:0:0:
136,108,29993,6,0,L|144:32,1,70,0|0,1:0|0:0,0:0:0:0:
148,36,30218,1,0,0:0:0:0:
152,32,30293,2,0,L|200:24,2,35,8|0|0,2:0|0:0|0:0,0:0:0:0:
136,108,30593,2,0,L|88:100,3,35,0|0|0|0,0:0|0:0|1:0|0:0,0:0:0:0:
144,116,30893,2,0,L|192:108,1,35,8|0,2:0|0:0,0:0:0:0:
72,36,31043,2,0,L|24:28,1,35,8|0,2:0|0:0,0:0:0:0:
40,140,31193,6,0,P|32:188|44:216,1,70,4|0,1:2|0:0,0:0:0:0:
88,264,31493,1,8,2:0:0:0:
88,264,31643,2,0,L|244:248,1,140,8|0,2:0|1:0,0:0:0:0:
324,200,32093,2,0,L|328:164,2,35,8|0|0,2:0|0:0|0:0,0:0:0:0:
408,268,32393,5,0,1:0:0:0:
428,360,32543,1,0,0:0:0:0:
320,328,32693,1,8,2:0:0:0:
408,268,32843,2,0,L|496:260,2,70,8|0|0,2:0|0:0|1:0,0:0:0:0:
320,328,33293,2,0,L|312:368,2,35,8|0|0,2:0|0:0|0:0,0:0:0:0:
420,196,33593,5,0,1:0:0:0:
432,124,33743,1,0,0:0:0:0:
512,56,33893,1,8,2:0:0:0:
432,124,34043,2,0,L|292:140,1,140,8|0,2:0|1:0,0:0:0:0:
424,52,34493,2,0,L|444:12,2,35,8|0|0,2:0|0:0|0:0,0:0:0:0:
212,104,34793,6,0,P|204:56|212:32,1,70,0|0,1:0|0:0,0:0:0:0:
216,32,35018,1,0,0:0:0:0:
224,28,35093,1,8,2:0:0:0:
136,60,35243,1,8,2:0:0:0:
0,84,35393,2,0,L|84:72,1,70,0|0,0:0|1:0,0:0:0:0:
64,72,35618,1,0,0:0:0:0:
56,68,35693,1,8,2:0:0:0:
52,168,35843,1,0,0:0:0:0:
36,268,35993,5,0,1:0:0:0:
124,296,36143,1,0,0:0:0:0:
128,292,36218,1,0,0:0:0:0:
132,288,36293,1,8,2:0:0:0:
124,212,36443,2,0,L|220:204,2,70,8|0|0,2:0|0:0|1:0,0:0:0:0:
136,376,36893,2,0,L|232:368,1,70,8|0,2:0|0:0,0:0:0:0:
272,256,37193,5,0,1:0:0:0:
376,272,37343,1,0,0:0:0:0:
380,268,37418,1,0,0:0:0:0:
384,264,37493,1,8,2:0:0:0:
336,348,37643,2,0,P|432:348|480:328,1,140,8|0,2:0|1:0,0:0:0:0:
420,192,38093,1,8,2:0:0:0:
424,188,38168,1,0,0:0:0:0:
428,184,38243,1,0,0:0:0:0:
300,148,38393,5,0,1:0:0:0:
296,140,38468,1,0,0:0:0:0:
292,132,38543,1,0,0:0:0:0:
296,124,38618,1,0,0:0:0:0:
300,116,38693,1,8,2:0:0:0:
431,53,38843,2,0,P|451:113|415:197,1,140,8|0,2:0|1:0,0:0:0:0:
340,32,39293,1,8,2:0:0:0:
300,116,39443,1,0,0:0:0:0:
431,53,39593,5,6,1:2:0:0:
448,220,40193,5,0,0:0:0:0:
444,228,40268,1,0,0:0:0:0:
440,236,40343,1,0,0:0:0:0:
356,232,40493,2,0,L|360:276,1,35
272,228,40643,2,0,L|276:272,1,35
224,320,40793,6,0,P|176:328|96:316,1,105,6|0,1:2|0:0,0:0:0:0:
120,323,41093,1,8,2:0:0:0:
296,340,41243,2,0,L|376:336,1,70,2|0,0:0|1:0,0:0:0:0:
372,332,41468,1,0,0:0:0:0:
376,328,41543,1,0,0:0:0:0:
124,328,41693,1,10,2:0:0:0:
48,360,41843,2,0,L|56:280,1,70,0|0,1:0|0:0,0:0:0:0:
60,284,42143,1,2,1:2:0:0:
99,62,42293,6,0,L|89:156,1,70,8|0,2:0|0:0,0:0:0:0:
93,132,42593,1,2,1:2:0:0:
20,72,42743,1,0,1:0:0:0:
186,199,42893,2,0,L|152:204,2,35,10|0|0,2:0|0:0|0:0,0:0:0:0:
192,188,43118,1,0,0:0:0:0:
196,180,43193,5,2,1:2:0:0:
300,68,43343,1,0,1:0:0:0:
384,200,43493,1,10,2:0:0:0:
384,200,43643,2,0,L|392:112,1,70,2|0,0:0|1:0,0:0:0:0:
390,130,43943,1,0,0:0:0:0:
460,220,44093,1,10,2:0:0:0:
352,268,44243,1,0,1:0:0:0:
348,276,44318,1,0,0:0:0:0:
344,284,44393,5,2,0:0:0:0:
420,316,44543,1,0,1:0:0:0:
420,316,44618,1,0,0:0:0:0:
420,316,44693,1,8,2:0:0:0:
360,360,44843,1,0,0:0:0:0:
272,308,44993,5,2,1:2:0:0:
248,216,45143,1,0,1:0:0:0:
324,252,45293,1,10,2:0:0:0:
360,152,45443,1,0,0:0:0:0:
272,308,45593,6,0,L|172:320,1,70,2|0,1:2|0:0,0:0:0:0:
140,348,45818,2,0,P|132:296|148:228,1,105
272,308,46193,2,0,L|213:315,2,35,2|0|0,1:2|0:0|0:0,0:0:0:0:
364,328,46493,1,8,2:0:0:0:
364,328,46643,2,0,L|398:323,1,35,2|0,1:2|0:0,0:0:0:0:
484,164,46793,6,0,P|490:206|477:261,1,70,0|0,0:0|1:0,0:0:0:0:
408,248,47018,2,0,L|416:112,1,105,0|2,0:0|0:2,0:0:0:0:
466,299,47393,1,2,1:2:0:0:
474,303,47468,1,0,0:0:0:0:
482,307,47543,1,0,1:0:0:0:
398,323,47693,1,10,2:0:0:0:
314,339,47843,1,0,0:0:0:0:
336,232,47993,5,2,1:2:0:0:
314,339,48143,1,0,0:0:0:0:
320,344,48218,1,0,0:0:0:0:
324,348,48293,1,10,2:0:0:0:
208,312,48443,1,2,0:0:0:0:
208,312,48518,2,0,P|196:256|208:208,1,105,2|2,0:0|0:0,0:0:0:0:
248,148,48893,1,10,2:0:0:0:
252,140,48968,1,0,0:0:0:0:
256,132,49043,1,0,1:0:0:0:
140,184,49193,5,2,0:0:0:0:
56,124,49343,1,0,1:0:0:0:
44,106,49418,1,0,0:0:0:0:
47,86,49493,1,10,2:0:0:0:
61,72,49568,1,0,0:0:0:0:
81,70,49643,1,0,0:0:0:0:
140,184,49793,5,2,1:2:0:0:
137,201,49868,1,0,0:0:0:0:
135,218,49943,1,0,1:0:0:0:
133,236,50018,1,0,0:0:0:0:
131,253,50093,1,14,2:2:0:0:
129,270,50168,1,0,0:0:0:0:
126,288,50243,1,4,2:0:0:0:
0,376,50393,6,0,P|68:376|120:348,1,105,6|0,1:2|0:0,0:0:0:0:
108,360,50693,2,0,L|200:352,1,70,8|8,2:0|2:0,0:0:0:0:
244,288,50993,1,2,1:2:0:0:
284,208,51143,1,0,0:0:0:0:
336,280,51293,1,8,2:0:0:0:
404,308,51443,2,0,L|408:220,2,70,0|2|0,1:0|0:0|1:0,0:0:0:0:
476,224,51893,2,0,P|482:178|466:136,1,70,8|2,2:0|0:0,0:0:0:0:
440,88,52118,2,0,L|320:100,1,105,2|2,0:0|1:2,0:0:0:0:
252,140,52493,1,10,2:0:0:0:
272,68,52643,1,2,0:0:0:0:
372,216,52793,5,2,1:2:0:0:
304,216,52943,1,0,1:0:0:0:
240,236,53093,1,10,2:0:0:0:
188,280,53243,1,0,0:0:0:0:
304,352,53393,5,2,1:2:0:0:
304,216,53543,1,0,0:0:0:0:
188,280,53693,1,10,2:2:0:0:
64,344,53843,2,0,L|148:328,2,70,0|2|2,1:0|0:0|1:2,0:0:0:0:
136,224,54293,2,0,L|132:184,2,35,8|0|0,2:0|0:0|0:0,0:0:0:0:
236,196,54593,1,2,1:2:0:0:
304,216,54743,1,0,1:0:0:0:
368,184,54893,2,0,L|408:180,2,35,10|0|0,2:2|0:0|0:0,0:0:0:0:
236,196,55193,6,0,P|224:140|240:88,1,105,2|0,1:2|0:0,0:0:0:0:
236,94,55493,1,8,2:0:0:0:
312,84,55643,1,0,0:0:0:0:
476,16,55793,5,2,1:2:0:0:
312,84,55943,1,0,0:0:0:0:
316,80,56018,1,0,0:0:0:0:
320,76,56093,1,10,2:2:0:0:
236,94,56243,2,0,L|156:98,1,70,0|2,1:0|0:0,0:0:0:0:
160,92,56468,1,0,0:0:0:0:
156,88,56543,1,0,1:0:0:0:
28,136,56693,2,0,P|16:80|48:16,1,105,10|0,2:2|0:0,0:0:0:0:
31,36,56993,1,2,1:2:0:0:
92,88,57143,1,0,1:0:0:0:
172,42,57293,2,0,L|180:2,1,35,10|0,2:2|0:0,0:0:0:0:
164,114,57518,1,0,0:0:0:0:
168,120,57593,5,2,1:2:0:0:
284,104,57743,1,0,1:0:0:0:
288,100,57818,1,2,0:0:0:0:
292,96,57893,1,10,0:0:0:0:
300,212,58043,2,0,L|292:308,1,70,2|2,0:0|1:2,0:0:0:0:
300,288,58268,1,2,0:0:0:0:
304,208,58418,1,0,0:0:0:0:
308,204,58493,1,8,2:0:0:0:
512,168,58643,6,0,L|452:176,2,35,2|0|2,1:2|0:0|0:0,0:0:0:0:
376,176,58943,1,0,1:0:0:0:
380,172,59018,1,2,0:0:0:0:
384,168,59093,1,8,0:0:0:0:
392,96,59243,1,2,0:0:0:0:
452,252,59393,5,2,1:2:0:0:
396,304,59543,1,0,1:0:0:0:
400,308,59618,1,0,0:0:0:0:
404,312,59693,1,10,2:0:0:0:
328,280,59843,1,14,2:0:0:0:
256,344,59993,2,0,L|48:368,1,210,4|0,1:2|0:0,0:0:0:0:
256,192,69593,6,0,L|264:152,1,35,4|0,1:2|0:0,0:0:0:0:
320,116,69865,1,0,0:0:0:0:
320,116,70002,2,0,L|412:104,1,70
464,96,70411,1,0,0:0:0:0:
504,164,70683,1,0,0:0:0:0:
500,172,70820,1,0,0:0:0:0:
328,292,71093,2,0,P|329:234|340:176,1,105
337,187,71638,1,0,0:0:0:0:
256,192,71774,6,0,L|248:232,1,35,4|0,1:2|0:0,0:0:0:0:
192,268,72024,1,0,0:0:0:0:
192,268,72149,2,0,L|100:280,1,70
48,288,72524,1,0,0:0:0:0:
8,220,72774,1,0,0:0:0:0:
12,212,72899,1,0,0:0:0:0:
184,92,73149,2,0,P|182:149|172:208,1,105
174,196,73649,1,0,0:0:0:0:
256,192,73774,6,0,L|264:232,1,35,4|0,1:2|0:0,0:0:0:0:
320,268,74004,1,0,0:0:0:0:
320,268,74120,2,0,L|412:280,1,70
464,288,74466,1,0,0:0:0:0:
504,220,74697,1,0,0:0:0:0:
500,212,74812,1,0,0:0:0:0:
328,92,75043,2,0,P|329:149|340:208,1,105
337,196,75504,1,0,0:0:0:0:
256,192,75620,6,0,L|248:152,1,35,4|0,1:2|0:0,0:0:0:0:
192,116,75834,1,0,0:0:0:0:
192,116,75941,2,0,L|100:104,1,70
48,96,76262,1,0,0:0:0:0:
8,164,76477,1,0,0:0:0:0:
12,172,76584,1,0,0:0:0:0:
184,292,76798,2,0,P|182:234|172:176,1,105
174,187,77227,1,0,0:0:0:0:
256,192,77334,5,4,1:2:0:0:
376,168,77534,1,0,0:0:0:0:
380,164,77634,1,0,0:0:0:0:
420,108,77834,1,0,0:0:0:0:
376,168,77934,2,0,L|315:179,1,52.5
256,192,78134,5,4,1:2:0:0:
136,216,78334,1,0,0:0:0:0:
132,220,78434,1,0,0:0:0:0:
92,276,78634,1,0,0:0:0:0:
136,216,78734,2,0,L|196:204,1,52.5
256,192,78934,5,4,1:2:0:0:
376,216,79121,1,0,0:0:0:0:
380,220,79215,1,0,0:0:0:0:
420,276,79402,1,0,0:0:0:0:
376,216,79496,2,0,L|315:204,1,52.5
256,192,79684,5,4,1:2:0:0:
136,168,79871,1,0,0:0:0:0:
136,168,79965,1,0,0:0:0:0:
92,108,80152,1,0,0:0:0:0:
136,168,80246,2,0,L|196:179,1,52.5
256,192,80434,5,4,1:2:0:0:
324,152,80610,1,4,1:2:0:0:
328,144,80698,1,0,0:0:0:0:
328,160,80875,1,0,0:0:0:0:
324,168,80963,1,0,1:0:0:0:
256,192,81139,5,4,1:2:0:0:
188,232,81315,1,4,1:2:0:0:
184,240,81403,1,0,0:0:0:0:
184,224,81580,1,0,0:0:0:0:
188,216,81668,1,0,1:0:0:0:
256,192,81845,5,4,1:2:0:0:
364,248,82011,1,0,0:0:0:0:
372,244,82095,1,0,0:0:0:0:
396,224,82261,1,0,0:0:0:0:
388,228,82345,1,0,0:0:0:0:
256,192,82511,5,4,1:2:0:0:
148,136,82677,1,0,0:0:0:0:
140,140,82761,1,0,0:0:0:0:
116,160,82927,1,0,0:0:0:0:
124,156,83011,1,0,0:0:0:0:
236,153,83178,5,4,1:2:0:0:
275,230,83335,1,4,1:2:0:0:
259,127,83493,5,4,1:2:0:0:
252,256,83650,1,4,1:2:0:0:
309,110,83809,5,4,1:2:0:0:
202,273,83966,1,4,1:2:0:0:
386,126,84125,5,4,1:2:0:0:
125,257,84282,1,4,1:2:0:0:
474,205,84441,6,0,L|468:256,3,35,4|0|0|0,1:2|1:0|1:0|1:0,0:0:0:0:
404,236,84741,5,0,1:0:0:0:
404,236,84816,1,0,1:0:0:0:
404,236,84891,2,0,L|397:286,1,35,0|0,1:0|1:0,0:0:0:0:
333,266,85041,5,0,1:0:0:0:
333,266,85116,1,0,1:0:0:0:
333,266,85191,2,0,L|326:316,1,35,0|0,1:0|1:0,0:0:0:0:
262,296,85341,5,0,1:0:0:0:
262,296,85416,1,0,1:0:0:0:
262,296,85491,2,0,L|255:346,1,35,0|0,1:0|1:0,0:0:0:0:
184,312,85641,5,2,1:2:0:0:
176,313,85719,1,0,0:0:0:0:
169,314,85798,1,0,0:0:0:0:
163,315,85877,1,0,0:0:0:0:
194,268,85956,5,0,0:0:0:0:
187,269,86035,1,0,0:0:0:0:
180,270,86114,1,0,0:0:0:0:
174,272,86193,1,0,0:0:0:0:
205,225,86272,5,0,0:0:0:0:
198,226,86351,1,0,0:0:0:0:
191,227,86430,1,0,0:0:0:0:
185,228,86509,1,0,0:0:0:0:
216,181,86588,5,0,0:0:0:0:
209,182,86667,1,0,0:0:0:0:
202,183,86746,1,0,0:0:0:0:
195,185,86825,1,0,0:0:0:0:
215,114,86904,6,0,L|231:38,1,70,4|0,1:2|0:0,0:0:0:0:
320,72,87204,5,8,2:0:0:0:
352,56,87279,1,0,0:0:0:0:
388,52,87354,1,2,0:0:0:0:
424,60,87429,1,2,0:0:0:0:
456,76,87504,2,0,P|460:112|444:152,2,70,2|0|8,1:2|0:0|2:0,0:0:0:0:
384,148,87954,2,0,L|336:160,2,35,2|2|2,1:2|0:2|0:0,0:0:0:0:
304,224,88254,2,0,L|352:236,2,35,0|0|8,1:0|0:0|2:0,0:0:0:0:
308,228,88479,1,0,0:0:0:0:
312,232,88554,1,0,0:0:0:0:
316,236,88629,1,0,0:0:0:0:
248,280,88704,5,2,1:2:0:0:
304,224,88854,1,0,1:0:0:0:
245,169,89004,1,10,2:2:0:0:
128,204,89154,1,0,0:0:0:0:
128,204,89304,6,0,L|132:128,1,70,2|0,1:2|1:0,0:0:0:0:
136,64,89604,1,8,2:0:0:0:
36,152,89754,1,2,0:2:0:0:
32,144,89829,1,2,0:2:0:0:
28,136,89904,2,0,P|12:192|24:232,1,70,2|2,1:2|0:0,0:0:0:0:
48,264,90204,1,8,2:0:0:0:
168,348,90354,2,0,P|184:292|172:252,1,70,0|2,1:0|0:0,0:0:0:0:
182,281,90654,1,0,1:0:0:0:
256,260,90804,5,10,2:0:0:0:
352,312,90954,1,0,0:0:0:0:
460,284,91104,1,2,1:2:0:0:
460,284,91254,1,2,1:2:0:0:
256,260,91404,1,10,2:2:0:0:
112,372,91554,1,2,0:0:0:0:
163,212,91704,6,0,P|163:240|155:264,2,35,2|0|0,1:2|0:0|0:0,0:0:0:0:
96,228,92004,1,8,2:0:0:0:
20,144,92154,1,2,0:0:0:0:
236,144,92304,2,0,P|164:135|96:136,1,140,2|8,1:2|2:0,0:0:0:0:
20,144,92754,2,0,L|32:60,2,70,0|0|2,1:0|0:0|1:2,0:0:0:0:
20,152,93129,1,2,0:2:0:0:
20,160,93204,6,0,P|88:147|149:147,1,105,10|0,2:2|0:0,0:0:0:0:
123,145,93504,1,2,1:2:0:0:
208,156,93654,1,0,1:0:0:0:
324,104,93804,2,0,L|332:12,1,70,10|0,2:2|0:0,0:0:0:0:
324,104,94104,5,2,1:2:0:0:
432,132,94254,1,0,0:0:0:0:
436,140,94329,1,0,0:0:0:0:
440,148,94404,1,10,2:0:0:0:
444,156,94479,1,0,0:0:0:0:
448,164,94554,1,0,0:0:0:0:
424,196,94629,1,0,0:0:0:0:
400,220,94704,5,2,1:2:0:0:
396,224,94779,1,0,0:0:0:0:
392,228,94854,1,0,0:0:0:0:
388,232,94929,1,0,0:0:0:0:
384,236,95004,1,10,2:2:0:0:
380,240,95079,1,0,0:0:0:0:
384,244,95154,5,0,1:0:0:0:
388,248,95229,1,0,0:0:0:0:
392,252,95304,1,2,0:0:0:0:
396,256,95379,1,0,0:0:0:0:
400,260,95454,1,0,1:0:0:0:
404,264,95529,1,0,0:0:0:0:
408,268,95604,2,0,L|416:320,1,35,10|0,2:2|0:0,0:0:0:0:
352,348,95754,2,0,L|360:400,1,35
288,336,95904,6,0,L|280:284,1,35,2|0,1:2|0:0,0:0:0:0:
484,288,96054,2,0,L|489:322,1,35,0|0,1:0|0:0,0:0:0:0:
320,188,96204,2,0,P|312:144|316:76,1,105,12|0,2:0|0:0,0:0:0:0:
314,83,96504,6,0,P|322:127|318:195,2,105,4|0|2,1:2|0:0|0:2,0:0:0:0:
320,76,97029,1,2,0:2:0:0:
324,68,97104,1,2,1:2:0:0:
380,28,97254,1,0,0:0:0:0:
448,48,97404,1,8,2:0:0:0:
324,68,97554,6,0,L|164:80,1,140,2|0,1:2|1:0,0:0:0:0:
324,72,98004,1,8,2:0:0:0:
204,296,98154,1,2,0:2:0:0:
196,304,98229,1,2,0:2:0:0:
188,312,98304,1,2,1:2:0:0:
132,356,98454,1,0,1:0:0:0:
64,336,98604,1,8,2:0:0:0:
188,312,98754,6,0,L|280:305,2,70,2|0|0,0:0|1:0|0:0,0:0:0:0:
332,300,99204,1,8,2:0:0:0:
336,168,99354,1,2,0:2:0:0:
344,160,99429,1,2,0:2:0:0:
352,152,99504,1,2,1:2:0:0:
460,180,99654,2,0,L|456:220,2,35,2|2|10,0:0|0:0|2:0,0:0:0:0:
471,40,99954,2,0,L|459:184,1,140,2|0,1:2|1:0,0:0:0:0:
452,160,100329,2,0,L|455:125,1,35,0|8,0:0|2:0,0:0:0:0:
400,236,100554,5,2,0:2:0:0:
408,244,100629,1,2,0:2:0:0:
416,252,100704,1,2,1:2:0:0:
488,244,100854,1,0,1:0:0:0:
460,344,101004,1,10,2:2:0:0:
388,352,101154,1,0,0:0:0:0:
324,248,101304,6,0,P|324:200|340:164,1,70,2|0,1:2|0:0,0:0:0:0:
252,224,101604,2,0,L|124:236,1,105,8|0,2:0|0:0,0:0:0:0:
147,233,101904,1,2,1:2:0:0:
76,244,102054,1,0,0:0:0:0:
92,152,102204,1,8,2:0:0:0:
76,244,102354,2,0,L|60:392,1,140,2|0,1:2|1:0,0:0:0:0:
24,188,102804,6,0,P|20:136|36:92,1,70,8|0,2:0|0:0,0:0:0:0:
28,108,103029,1,0,0:0:0:0:
32,100,103104,1,2,1:2:0:0:
92,152,103254,1,0,1:0:0:0:
196,120,103404,2,0,L|328:112,1,105,10|0,2:2|0:0,0:0:0:0:
300,113,103704,5,2,1:2:0:0:
424,136,103854,2,0,L|444:188,1,35
376,204,104004,1,10,2:2:0:0:
368,212,104079,1,0,0:0:0:0:
360,220,104154,1,0,0:0:0:0:
352,228,104229,1,0,0:0:0:0:
280,224,104304,5,2,1:2:0:0:
272,220,104379,1,0,0:0:0:0:
264,216,104454,1,0,0:0:0:0:
256,212,104529,1,0,0:0:0:0:
184,208,104604,5,10,2:2:0:0:
176,204,104679,1,0,0:0:0:0:
168,200,104754,1,0,1:0:0:0:
160,196,104829,1,0,0:0:0:0:
152,192,104904,6,0,L|72:200,1,70,2|0,0:0|1:0,0:0:0:0:
16,176,105204,2,0,P|16:96|32:56,1,105,10|0,2:0|0:0,0:0:0:0:
60,12,105504,5,2,1:2:0:0:
132,124,105654,1,0,1:0:0:0:
240,44,105804,1,12,2:0:0:0:
60,12,105954,1,4,2:0:0:0:
132,124,106104,5,6,1:2:0:0:
212,128,106254,1,0,0:0:0:0:
216,136,106329,1,0,0:0:0:0:
220,144,106404,1,8,2:0:0:0:
308,80,106554,5,2,0:0:0:0:
388,84,106704,1,0,1:0:0:0:
392,92,106779,1,0,0:0:0:0:
396,100,106854,1,0,0:0:0:0:
512,184,107004,5,10,2:0:0:0:
432,180,107154,1,0,1:0:0:0:
428,172,107229,1,0,0:0:0:0:
424,164,107304,5,2,0:0:0:0:
420,168,107379,1,0,0:0:0:0:
416,172,107454,1,0,1:2:0:0:
412,176,107529,1,0,0:0:0:0:
408,180,107604,2,0,L|320:188,1,70,10|0,2:0|0:0,0:0:0:0:
268,164,107904,5,2,1:2:0:0:
268,268,108054,1,0,1:0:0:0:
276,264,108129,1,0,0:0:0:0:
284,260,108204,1,10,2:2:0:0:
360,272,108354,1,0,0:0:0:0:
488,220,108504,5,2,1:2:0:0:
476,352,108654,1,2,1:2:0:0:
360,272,108804,2,0,L|372:140,1,105,8|0,2:0|0:0,0:0:0:0:
369,167,109104,5,2,1:2:0:0:
292,180,109254,1,2,0:0:0:0:
232,108,109404,1,8,2:0:0:0:
180,164,109554,2,0,L|84:172,1,70,0|2,1:0|0:0,0:0:0:0:
56,28,109854,1,0,1:0:0:0:
60,20,109929,1,0,0:0:0:0:
64,12,110004,2,0,L|56:136,1,105,10|0,2:2|0:0,0:0:0:0:
57,116,110304,5,2,1:2:0:0:
4,240,110454,1,0,1:0:0:0:
132,296,110604,1,10,2:2:0:0:
120,368,110754,1,0,0:0:0:0:
132,296,110904,6,0,L|212:288,1,70,2|0,1:2|0:0,0:0:0:0:
276,304,111204,2,0,P|352:308|424:280,1,140,8|0,2:0|1:0,0:0:0:0:
276,304,111654,1,2,0:0:0:0:
324,160,111804,1,8,2:0:0:0:
220,44,111954,2,0,L|208:208,1,140,2|0,1:2|1:0,0:0:0:0:
220,44,112404,1,8,2:0:0:0:
116,64,112554,5,0,0:0:0:0:
112,60,112629,1,0,0:0:0:0:
108,56,112704,1,2,1:2:0:0:
40,148,112854,1,0,1:2:0:0:
36,152,112929,1,2,0:0:0:0:
32,156,113004,1,8,2:0:0:0:
112,140,113154,1,2,0:0:0:0:
132,268,113304,5,2,1:2:0:0:
204,292,113454,2,0,P|268:296|364:272,1,140
408,240,113904,1,2,1:2:0:0:
408,312,114054,1,2,0:0:0:0:
411,170,114204,1,8,2:0:0:0:
408,240,114354,2,0,L|412:156,1,70,0|2,1:0|0:0,0:0:0:0:
416,96,114654,1,0,1:0:0:0:
424,92,114729,1,0,0:0:0:0:
432,88,114804,1,8,2:0:0:0:
344,128,114954,5,0,0:0:0:0:
336,124,115029,1,0,0:0:0:0:
328,120,115104,1,2,1:2:0:0:
260,148,115254,1,0,1:0:0:0:
152,136,115404,1,14,2:0:0:0:
128,212,115554,1,6,2:0:0:0:
176,60,115704,5,4,1:2:0:0:
