osu file format v14

[General]
AudioFilename: beatmania IIDX 12 HAPPY SKY - Mei.mp3
AudioLeadIn: 0
PreviewTime: 40537
Countdown: 0
SampleSet: Normal
StackLeniency: 0.7
Mode: 1
LetterboxInBreaks: 0
WidescreenStoryboard: 0

[Editor]
DistanceSpacing: 2
BeatDivisor: 2
GridSize: 32
TimelineZoom: 1.4

[Metadata]
Title:Mei
TitleUnicode:冥
Artist:Amuro vs Killer
ArtistUnicode:Amuro vs Killer
Creator:Dainesl
Version:Kantan
Source:beatmania IIDX 12 HAPPY SKY
Tags:cheesiest 2DX 12th style human sequencer tatsh dj taka
BeatmapID:324648
BeatmapSetID:117451

[Difficulty]
HPDrainRate:7
CircleSize:5
OverallDifficulty:4
ApproachRate:5
SliderMultiplier:1.40000000596046
SliderTickRate:1

[Events]
//Background and Video events
0,0,"mei-bg.jpg",0,0
//Break Periods
//Storyboard Layer 0 (Background)
//Storyboard Layer 1 (Fail)
//Storyboard Layer 2 (Pass)
//Storyboard Layer 3 (Foreground)
//Storyboard Sound Samples

[TimingPoints]
2137,300,4,1,0,50,1,0
21337,-100,4,1,0,75,0,0
40537,-100,4,1,0,90,0,0
59737,600,4,1,0,50,1,0
59737,-66.6666666666667,4,1,0,50,0,0
69337,545.454545454546,4,1,0,55,1,0
69337,-68.9655172413793,4,1,0,55,0,0
71518,500,4,1,0,60,1,0
71518,-71.4285714285714,4,1,0,60,0,0
73518,461.538461538462,4,1,0,65,1,0
73518,-74.0740740740741,4,1,0,65,0,0
75364,428.571428571429,4,1,0,70,1,0
75364,-76.9230769230769,4,1,0,70,0,0
77078,400,4,1,0,75,1,0
77078,-80,4,1,0,75,0,0
78678,375,4,1,0,80,1,0
78678,-83.3333333333333,4,1,0,80,0,0
80178,352.941176470588,4,1,0,85,1,0
80178,-86.9565217391304,4,1,0,85,0,0
81589,333.333333333333,4,1,0,90,1,0
81589,-90.9090909090909,4,1,0,90,0,0
82922,315.789473684211,4,1,0,95,1,0
82922,-95.2380952380952,4,1,0,95,0,0
84185,300,4,1,0,60,1,0
84185,-100,4,1,0,60,0,0
85385,-100,4,1,0,60,0,0
86585,-100,4,1,0,90,0,1
115385,-100,4,2,0,100,0,0
119585,333.333333333333,4,2,0,95,1,8
120251,352.941176470588,4,2,0,90,1,0
121309,324.324324324324,4,2,0,80,1,8
121309,-108.82458565039,4,2,0,80,0,0
121633,352.941176470588,4,2,0,75,1,0
122338,545.454545454546,4,2,0,70,1,8
122338,-83.3333333333333,4,2,0,70,0,0
122883,500,4,2,0,60,1,8
123383,500,4,2,0,60,1,0
123883,705.882352941176,4,2,0,55,1,8
123883,-75.187969924812,4,2,0,55,0,0
124586,909.090909090909,4,2,0,50,1,8
124586,-55.5555555555556,4,2,0,50,0,0

[Colours]
Combo1 : 18,124,255
Combo2 : 255,0,0

[HitObjects]
256,192,2137,5,0,0:0:0:0:
256,192,3037,1,8,0:0:0:0:
256,192,4537,1,0,0:0:0:0:
256,192,5737,1,0,0:0:0:0:
256,192,6937,1,0,0:0:0:0:
256,192,7837,1,8,0:0:0:0:
256,192,9337,1,0,0:0:0:0:
256,192,10237,1,8,0:0:0:0:
256,192,11737,1,0,0:0:0:0:
256,192,12637,1,8,0:0:0:0:
256,192,13537,1,0,0:0:0:0:
256,192,14137,1,0,0:0:0:0:
256,192,15037,1,8,0:0:0:0:
256,192,15937,1,8,0:0:0:0:
256,192,16537,1,0,0:0:0:0:
256,192,17437,1,8,0:0:0:0:
256,192,18337,1,0,0:0:0:0:
256,192,18937,1,0,0:0:0:0:
256,192,19837,1,8,0:0:0:0:
256,192,21337,1,4,0:0:0:0:
256,192,21937,1,0,0:0:0:0:
256,192,22537,1,8,0:0:0:0:
256,192,23737,1,0,0:0:0:0:
256,192,24337,1,0,0:0:0:0:
256,192,24937,1,8,0:0:0:0:
256,192,25537,1,8,0:0:0:0:
256,192,26137,1,0,0:0:0:0:
256,192,26737,1,0,0:0:0:0:
256,192,27337,1,8,0:0:0:0:
256,192,28537,1,0,0:0:0:0:
256,192,29137,1,0,0:0:0:0:
256,192,29737,1,8,0:0:0:0:
256,192,30337,1,0,0:0:0:0:
256,192,30937,1,4,0:0:0:0:
256,192,31537,1,0,0:0:0:0:
256,192,32137,1,8,0:0:0:0:
256,192,33337,1,0,0:0:0:0:
256,192,33937,1,0,0:0:0:0:
256,192,34537,1,8,0:0:0:0:
256,192,35137,1,8,0:0:0:0:
256,192,35737,1,0,0:0:0:0:
256,192,36337,1,0,0:0:0:0:
256,192,36937,1,8,0:0:0:0:
256,192,38137,1,0,0:0:0:0:
256,192,38737,1,8,0:0:0:0:
256,192,39337,1,4,0:0:0:0:
256,192,40537,1,4,0:0:0:0:
256,192,41137,1,8,0:0:0:0:
256,192,42337,1,8,0:0:0:0:
256,192,42937,1,0,0:0:0:0:
256,192,43537,1,8,0:0:0:0:
256,192,44137,1,0,0:0:0:0:
256,192,45337,1,0,0:0:0:0:
256,192,45937,1,8,0:0:0:0:
256,192,47137,1,8,0:0:0:0:
256,192,47737,1,0,0:0:0:0:
256,192,48337,1,8,0:0:0:0:
256,192,48937,1,0,0:0:0:0:
256,192,49237,1,0,0:0:0:0:
256,192,49537,1,8,0:0:0:0:
256,192,50137,1,4,0:0:0:0:
256,192,50737,1,8,0:0:0:0:
256,192,51937,1,8,0:0:0:0:
256,192,52537,1,0,0:0:0:0:
256,192,53737,1,8,0:0:0:0:
256,192,54337,1,8,0:0:0:0:
256,192,54937,1,0,0:0:0:0:
256,192,55537,1,8,0:0:0:0:
256,192,56137,1,8,0:0:0:0:
256,192,56737,1,8,0:0:0:0:
256,192,57337,1,0,0:0:0:0:
256,192,58537,1,0,0:0:0:0:
256,192,59737,1,4,0:0:0:0:
256,192,62137,1,0,0:0:0:0:
256,192,64537,1,0,0:0:0:0:
256,192,66937,1,0,0:0:0:0:
256,192,69337,1,4,0:0:0:0:
256,192,71518,1,4,0:0:0:0:
256,192,73518,1,12,0:0:0:0:
256,192,75364,1,12,0:0:0:0:
256,192,77078,1,4,0:0:0:0:
256,192,77878,1,12,0:0:0:0:
256,192,78678,1,4,0:0:0:0:
256,192,79428,1,12,0:0:0:0:
256,192,80178,1,4,0:0:0:0:
256,192,80883,1,0,0:0:0:0:
256,192,81589,1,12,0:0:0:0:
256,192,82255,1,8,0:0:0:0:
256,192,82922,1,4,0:0:0:0:
256,192,83553,1,0,0:0:0:0:
256,192,84185,1,0,0:0:0:0:
256,192,84785,1,0,0:0:0:0:
256,192,85085,1,0,0:0:0:0:
256,192,85385,1,0,0:0:0:0:
256,192,86585,1,4,0:0:0:0:
256,192,87185,1,8,0:0:0:0:
256,192,87785,1,0,0:0:0:0:
256,192,88385,1,8,0:0:0:0:
256,192,88985,1,0,0:0:0:0:
256,192,90185,1,0,0:0:0:0:
256,192,90785,1,8,0:0:0:0:
256,192,91085,1,8,0:0:0:0:
256,192,91385,1,0,0:0:0:0:
256,192,91985,1,8,0:0:0:0:
256,192,93185,1,8,0:0:0:0:
256,192,93785,1,0,0:0:0:0:
256,192,94385,1,8,0:0:0:0:
256,192,94985,1,0,0:0:0:0:
256,192,95585,1,0,0:0:0:0:
256,192,95885,1,0,0:0:0:0:
256,192,96185,1,8,0:0:0:0:
256,192,97385,1,8,0:0:0:0:
256,192,97985,1,8,0:0:0:0:
256,192,98585,1,0,0:0:0:0:
256,192,99785,1,8,0:0:0:0:
256,192,100385,1,8,0:0:0:0:
256,192,100985,1,0,0:0:0:0:
256,192,101585,1,8,0:0:0:0:
256,192,102185,1,0,0:0:0:0:
256,192,102785,1,0,0:0:0:0:
256,192,103085,1,0,0:0:0:0:
256,192,103385,1,8,0:0:0:0:
256,192,104585,1,8,0:0:0:0:
256,192,105785,1,4,0:0:0:0:
256,192,106985,1,0,0:0:0:0:
256,192,107585,1,8,0:0:0:0:
256,192,108185,1,0,0:0:0:0:
256,192,108785,1,0,0:0:0:0:
256,192,109385,1,8,0:0:0:0:
256,192,109985,1,8,0:0:0:0:
256,192,110585,1,0,0:0:0:0:
256,192,111785,1,8,0:0:0:0:
256,192,112385,1,0,0:0:0:0:
256,192,112985,1,8,0:0:0:0:
256,192,113585,1,0,0:0:0:0:
256,192,114185,1,8,0:0:0:0:
256,192,115385,1,4,0:0:0:0:
256,192,116585,1,0,0:0:0:0:
256,192,117785,1,0,0:0:0:0:
256,192,118985,1,0,0:0:0:0:
256,192,120251,1,0,0:0:0:0:
256,192,121633,1,8,0:0:0:0:
256,192,122338,1,8,0:0:0:0:
256,192,123383,1,8,0:0:0:0:
256,192,124235,1,0,0:0:0:0:
256,192,125040,1,8,0:0:0:0:
256,192,125495,1,8,0:0:0:0:
