osu file format v14

[General]
AudioFilename: audio.mp3
AudioLeadIn: 0
PreviewTime: 42904
Countdown: 0
SampleSet: Soft
StackLeniency: 0.2
Mode: 0
LetterboxInBreaks: 0
WidescreenStoryboard: 1

[Editor]
Bookmarks: 42904
DistanceSpacing: 1
BeatDivisor: 2
GridSize: 16
TimelineZoom: 5.499997

[Metadata]
Title:Lotus
TitleUnicode:Lotus
Artist:Ampzer
ArtistUnicode:Ampzer
Creator:-PC
Version:Extra
Source:
Tags:
BeatmapID:1571592
BeatmapSetID:745475

[Difficulty]
HPDrainRate:7
CircleSize:5.3
OverallDifficulty:8
ApproachRate:9.2
SliderMultiplier:1.8
SliderTickRate:1

[Events]
//Background and Video events
0,0,"lotus.jpg",0,0
//Break Periods
2,27946,32228
2,83366,102965
//Storyboard Layer 0 (Background)
//Storyboard Layer 1 (Fail)
//Storyboard Layer 2 (Pass)
//Storyboard Layer 3 (Foreground)
//Storyboard Sound Samples

[TimingPoints]
2483,315.789473684211,4,2,0,50,1,0
22693,-166.666666666667,4,2,1,50,0,0
23246,-166.666666666667,4,2,1,5,0,0
23325,-166.666666666667,4,2,1,50,0,0
25772,-166.666666666667,4,2,1,5,0,0
25851,-166.666666666667,4,2,1,50,0,0
26719,-166.666666666667,4,2,1,5,0,0
26798,-166.666666666667,4,2,1,50,0,0
27035,-166.666666666667,4,2,1,5,0,0
27114,-166.666666666667,4,2,1,50,0,0
27667,-166.666666666667,4,2,1,5,0,0
27746,-166.666666666667,4,2,1,50,0,0
28298,-166.666666666667,4,2,1,5,0,0
28377,-166.666666666667,4,2,1,50,0,0
33351,-166.666666666667,4,2,1,5,0,0
33430,-166.666666666667,4,2,1,50,0,0
35877,-166.666666666667,4,2,1,5,0,0
35956,-166.666666666667,4,2,1,50,0,0
36825,-166.666666666667,4,2,1,5,0,0
36904,-166.666666666667,4,2,1,50,0,0
37140,-166.666666666667,4,2,1,5,0,0
37219,-166.666666666667,4,2,1,50,0,0
37772,-166.666666666667,4,2,1,5,0,0
37851,-166.666666666667,4,2,1,50,0,0
38483,-125,4,2,1,50,0,0
39114,-100,4,2,1,50,0,0
40377,-178.571428571429,4,2,1,50,0,0
40456,-178.571428571429,4,2,1,5,0,0
42904,-100,4,2,0,70,0,1
43140,-100,4,2,0,5,0,1
43219,-100,4,2,0,70,0,1
43298,-100,4,2,0,5,0,1
43535,-50,4,2,0,70,0,1
43614,-50,4,2,0,5,0,1
43693,-50,4,2,0,70,0,1
43851,-166.666666666667,4,2,0,70,0,1
43930,-166.666666666667,4,2,0,5,0,1
44009,-100,4,2,0,70,0,1
44246,-100,4,2,0,5,0,1
44325,-166.666666666667,4,2,0,70,0,1
44404,-166.666666666667,4,2,0,5,0,1
44483,-71.4285714285714,4,2,0,70,0,1
44719,-71.4285714285714,4,2,0,5,0,1
44798,-100,4,2,0,70,0,1
46062,-50,4,2,0,70,0,1
46140,-50,4,2,0,5,0,1
46219,-50,4,2,0,70,0,1
46377,-166.666666666667,4,2,0,70,0,1
46456,-166.666666666667,4,2,0,5,0,1
46535,-100,4,2,0,70,0,1
46851,-166.666666666667,4,2,0,70,0,1
46930,-166.666666666667,4,2,0,5,0,1
47009,-166.666666666667,4,2,0,70,0,1
47956,-71.4285714285714,4,2,0,70,0,1
48430,-166.666666666667,4,2,0,70,0,1
48509,-166.666666666667,4,2,0,5,0,1
48588,-50,4,2,0,70,0,1
48667,-50,4,2,0,5,0,1
48746,-166.666666666667,4,2,0,70,0,1
48825,-166.666666666667,4,2,0,5,0,1
48904,-166.666666666667,4,2,0,70,0,1
48983,-166.666666666667,4,2,0,5,0,1
49062,-166.666666666667,4,2,0,70,0,1
49140,-166.666666666667,4,2,0,5,0,1
49219,-166.666666666667,4,2,0,70,0,1
49298,-166.666666666667,4,2,0,5,0,1
49377,-166.666666666667,4,2,0,70,0,1
49456,-166.666666666667,4,2,0,5,0,1
49535,-166.666666666667,4,2,0,70,0,1
49614,-166.666666666667,4,2,0,5,0,1
49851,-50,4,2,0,70,0,1
49930,-50,4,2,0,5,0,1
50009,-50,4,2,0,70,0,1
50404,-50,4,2,0,5,0,1
50483,-71.4285714285714,4,2,0,70,0,1
50956,-166.666666666667,4,2,0,70,0,1
51035,-166.666666666667,4,2,0,5,0,1
51114,-50,4,2,0,70,0,1
51193,-50,4,2,0,5,0,1
51272,-166.666666666667,4,2,0,70,0,1
51351,-166.666666666667,4,2,0,5,0,1
51430,-166.666666666667,4,2,0,70,0,1
51509,-166.666666666667,4,2,0,5,0,1
51588,-166.666666666667,4,2,0,70,0,1
51667,-166.666666666667,4,2,0,5,0,1
51746,-166.666666666667,4,2,0,70,0,1
51825,-166.666666666667,4,2,0,5,0,1
51904,-166.666666666667,4,2,0,70,0,1
51983,-166.666666666667,4,2,0,5,0,1
52062,-166.666666666667,4,2,0,70,0,1
52219,-100,4,2,0,70,0,1
52298,-100,4,2,0,5,0,1
52377,-100,4,2,0,70,0,1
53009,-125,4,2,0,70,0,1
53246,-125,4,2,0,5,0,1
53325,-125,4,2,0,70,0,1
53562,-125,4,2,0,5,0,1
53640,-50,4,2,0,70,0,1
53719,-50,4,2,0,5,0,1
53798,-50,4,2,0,70,0,1
53956,-166.666666666667,4,2,0,70,0,1
54035,-166.666666666667,4,2,0,5,0,1
54114,-100,4,2,0,70,0,1
54351,-100,4,2,0,5,0,1
54430,-100,4,2,0,70,0,1
54509,-100,4,2,0,5,0,1
54588,-100,4,2,0,70,0,1
54667,-100,4,2,0,5,0,1
54746,-100,4,2,0,70,0,1
56167,-50,4,2,0,70,0,1
56246,-50,4,2,0,5,0,1
56325,-50,4,2,0,70,0,1
56640,-71.4285714285714,4,2,0,70,0,1
56956,-166.666666666667,4,2,0,70,0,1
57035,-166.666666666667,4,2,0,5,0,1
57114,-166.666666666667,4,2,0,70,0,1
58062,-71.4285714285714,4,2,0,70,0,1
58298,-71.4285714285714,4,2,0,5,0,1
58377,-71.4285714285714,4,2,0,70,0,1
58693,-50,4,2,0,70,0,1
58772,-50,4,2,0,5,0,1
58851,-166.666666666667,4,2,0,70,0,1
58930,-166.666666666667,4,2,0,5,0,1
59009,-166.666666666667,4,2,0,70,0,1
59088,-166.666666666667,4,2,0,5,0,1
59167,-166.666666666667,4,2,0,70,0,1
59246,-166.666666666667,4,2,0,5,0,1
59325,-166.666666666667,4,2,0,70,0,1
59404,-166.666666666667,4,2,0,5,0,1
59483,-166.666666666667,4,2,0,70,0,1
59562,-166.666666666667,4,2,0,5,0,1
59640,-166.666666666667,4,2,0,70,0,1
59719,-166.666666666667,4,2,0,5,0,1
59956,-50,4,2,0,70,0,1
60035,-50,4,2,0,5,0,1
60114,-50,4,2,0,70,0,1
60509,-50,4,2,0,5,0,1
60588,-71.4285714285714,4,2,0,70,0,1
61062,-166.666666666667,4,2,0,70,0,1
61140,-166.666666666667,4,2,0,5,0,1
61219,-50,4,2,0,70,0,1
61298,-50,4,2,0,5,0,1
61377,-166.666666666667,4,2,0,70,0,1
61456,-166.666666666667,4,2,0,5,0,1
61535,-166.666666666667,4,2,0,70,0,1
61614,-166.666666666667,4,2,0,5,0,1
61693,-166.666666666667,4,2,0,70,0,1
61772,-166.666666666667,4,2,0,5,0,1
61851,-166.666666666667,4,2,0,70,0,1
61930,-166.666666666667,4,2,0,5,0,1
62009,-166.666666666667,4,2,0,70,0,1
62088,-166.666666666667,4,2,0,5,0,1
62167,-166.666666666667,4,2,0,70,0,1
62325,-100,4,2,0,70,0,1
62404,-100,4,2,0,5,0,1
62483,-100,4,2,0,70,0,1
62956,-166.666666666667,4,2,0,70,0,1
63114,-125,4,2,0,70,0,1
63351,-125,4,2,0,5,0,1
63430,-125,4,2,0,70,0,1
63667,-125,4,2,0,5,0,1
63746,-300,4,2,0,70,0,1
64693,-100,4,2,0,70,0,1
66272,-125,4,2,0,70,0,1
66509,-125,4,2,0,5,0,1
66588,-166.666666666667,4,2,0,70,0,1
66667,-166.666666666667,4,2,0,5,0,1
66746,-125,4,2,0,70,0,1
66983,-125,4,2,0,5,0,1
67062,-125,4,2,0,70,0,1
68167,-71.4285714285714,4,2,0,70,0,1
68640,-166.666666666667,4,2,0,70,0,1
68719,-166.666666666667,4,2,0,5,0,1
68798,-50,4,2,0,70,0,1
68877,-50,4,2,0,5,0,1
68956,-166.666666666667,4,2,0,70,0,1
69035,-166.666666666667,4,2,0,5,0,1
69114,-166.666666666667,4,2,0,70,0,1
69193,-166.666666666667,4,2,0,5,0,1
69272,-166.666666666667,4,2,0,70,0,1
69351,-166.666666666667,4,2,0,5,0,1
69430,-166.666666666667,4,2,0,70,0,1
69509,-166.666666666667,4,2,0,5,0,1
69588,-166.666666666667,4,2,0,70,0,1
69667,-166.666666666667,4,2,0,5,0,1
69746,-166.666666666667,4,2,0,70,0,1
69825,-166.666666666667,4,2,0,5,0,1
70062,-50,4,2,0,70,0,1
70140,-50,4,2,0,5,0,1
70219,-50,4,2,0,70,0,1
70614,-50,4,2,0,5,0,1
70693,-71.4285714285714,4,2,0,70,0,1
70930,-71.4285714285714,4,2,0,5,0,1
71009,-71.4285714285714,4,2,0,70,0,1
71246,-71.4285714285714,4,2,0,5,0,1
71325,-50,4,2,0,70,0,1
71404,-50,4,2,0,5,0,1
71483,-166.666666666667,4,2,0,70,0,1
71562,-166.666666666667,4,2,0,5,0,1
71640,-166.666666666667,4,2,0,70,0,1
71719,-166.666666666667,4,2,0,5,0,1
71798,-166.666666666667,4,2,0,70,0,1
71877,-166.666666666667,4,2,0,5,0,1
71956,-166.666666666667,4,2,0,70,0,1
72035,-166.666666666667,4,2,0,5,0,1
72114,-166.666666666667,4,2,0,70,0,1
72193,-166.666666666667,4,2,0,5,0,1
72272,-166.666666666667,4,2,0,70,0,1
72430,-100,4,2,0,70,0,1
72509,-100,4,2,0,5,0,1
72588,-100,4,2,0,70,0,1
73219,-125,4,2,0,70,0,1
73456,-125,4,2,0,5,0,1
73535,-125,4,2,0,70,0,1
73772,-125,4,2,0,5,0,1
73851,-125,4,2,0,70,0,1
75035,-125,4,2,0,5,0,1
75114,-300,4,2,0,70,0,1
76140,-300,4,2,0,5,0,1
76219,-166.666666666667,4,2,0,70,0,1
76298,-166.666666666667,4,2,0,5,0,1
76377,-50,4,2,0,70,0,1
76456,-50,4,2,0,5,0,1
76535,-50,4,2,0,70,0,1
76693,-166.666666666667,4,2,0,70,0,1
76772,-166.666666666667,4,2,0,5,0,1
76851,-100,4,2,0,70,0,1
77088,-100,4,2,0,5,0,1
77167,-166.666666666667,4,2,0,70,0,1
77246,-166.666666666667,4,2,0,5,0,1
77325,-100,4,2,0,70,0,1
77404,-100,4,2,0,5,0,1
77483,-100,4,2,0,70,0,1
78272,-71.4285714285714,4,2,0,70,0,1
78746,-166.666666666667,4,2,0,70,0,1
78825,-166.666666666667,4,2,0,5,0,1
78904,-50,4,2,0,70,0,1
78983,-50,4,2,0,5,0,1
79062,-166.666666666667,4,2,0,70,0,1
79140,-166.666666666667,4,2,0,5,0,1
79219,-166.666666666667,4,2,0,70,0,1
79298,-166.666666666667,4,2,0,5,0,1
79377,-166.666666666667,4,2,0,70,0,1
79456,-166.666666666667,4,2,0,5,0,1
79535,-166.666666666667,4,2,0,70,0,1
79614,-166.666666666667,4,2,0,5,0,1
79693,-166.666666666667,4,2,0,70,0,1
79772,-166.666666666667,4,2,0,5,0,1
79851,-166.666666666667,4,2,0,70,0,1
79930,-166.666666666667,4,2,0,5,0,1
80167,-50,4,2,0,70,0,1
80246,-50,4,2,0,5,0,1
80325,-50,4,2,0,70,0,1
80719,-50,4,2,0,5,0,1
80798,-71.4285714285714,4,2,0,70,0,1
81272,-166.666666666667,4,2,0,70,0,1
81351,-166.666666666667,4,2,0,5,0,1
81430,-50,4,2,0,70,0,1
81509,-50,4,2,0,5,0,1
81588,-50,4,2,0,70,0,1
81667,-50,4,2,0,5,0,1
81746,-50,4,2,0,70,0,1
82693,-50,4,2,0,70,0,0
103535,-100,4,2,0,60,0,0
103930,-100,4,2,0,5,0,0
104009,-100,4,2,0,60,0,0
106456,-100,4,2,0,5,0,0
106535,-100,4,2,0,60,0,0
108351,-100,4,2,0,5,0,0
108430,-100,4,2,0,60,0,0
108450,-100,4,2,0,30,0,0
108588,-100,4,2,0,60,0,0
108983,-100,4,2,0,5,0,0
109062,-100,4,2,0,60,0,0
111509,-100,4,2,0,5,0,0
111588,-100,4,2,0,60,0,0
113404,-100,4,2,0,5,0,0
113483,-100,4,2,0,35,0,0
113640,-100,4,2,0,65,0,0
121219,-178.571428571429,4,2,1,65,0,0
121298,-178.571428571429,4,2,1,5,0,0
123746,-100,4,2,0,70,0,1
123982,-100,4,2,0,5,0,1
124061,-50,4,2,0,70,0,1
124140,-50,4,2,0,5,0,1
124219,-50,4,2,0,70,0,1
124377,-166.666666666667,4,2,0,70,0,1
124456,-166.666666666667,4,2,0,5,0,1
124535,-166.666666666667,4,2,0,70,0,1
124614,-166.666666666667,4,2,0,5,0,1
124693,-50,4,2,0,70,0,1
124772,-50,4,2,0,5,0,1
124851,-100,4,2,0,70,0,1
125088,-100,4,2,0,5,0,1
125167,-166.666666666667,4,2,0,70,0,1
125246,-166.666666666667,4,2,0,5,0,1
125325,-71.4285714285714,4,2,0,70,0,1
125561,-71.4285714285714,4,2,0,5,0,1
125640,-100,4,2,0,70,0,1
126904,-166.666666666667,4,2,0,70,0,1
126983,-166.666666666667,4,2,0,5,0,1
127062,-166.666666666667,4,2,0,70,0,1
127219,-50,4,2,0,70,0,1
127298,-50,4,2,0,5,0,1
127377,-100,4,2,0,70,0,1
127693,-166.666666666667,4,2,0,70,0,1
127772,-166.666666666667,4,2,0,5,0,1
127851,-166.666666666667,4,2,0,70,0,1
128798,-71.4285714285714,4,2,0,70,0,1
129272,-166.666666666667,4,2,0,70,0,1
129351,-166.666666666667,4,2,0,5,0,1
129430,-50,4,2,0,70,0,1
129509,-50,4,2,0,5,0,1
129588,-125,4,2,0,70,0,1
129667,-125,4,2,0,5,0,1
129746,-125,4,2,0,70,0,1
129825,-125,4,2,0,5,0,1
129904,-125,4,2,0,70,0,1
129982,-125,4,2,0,5,0,1
130061,-125,4,2,0,70,0,1
130140,-125,4,2,0,5,0,1
130219,-125,4,2,0,70,0,1
130298,-125,4,2,0,5,0,1
130377,-125,4,2,0,70,0,1
130456,-125,4,2,0,5,0,1
130693,-50,4,2,0,70,0,1
130772,-50,4,2,0,5,0,1
130851,-50,4,2,0,70,0,1
131246,-50,4,2,0,5,0,1
131325,-71.4285714285714,4,2,0,70,0,1
131798,-166.666666666667,4,2,0,70,0,1
131877,-166.666666666667,4,2,0,5,0,1
131956,-50,4,2,0,70,0,1
132035,-50,4,2,0,5,0,1
132114,-125,4,2,0,70,0,1
132193,-125,4,2,0,5,0,1
132272,-125,4,2,0,70,0,1
132351,-125,4,2,0,5,0,1
132430,-125,4,2,0,70,0,1
132509,-125,4,2,0,5,0,1
132588,-125,4,2,0,70,0,1
132667,-125,4,2,0,5,0,1
132746,-125,4,2,0,70,0,1
132825,-125,4,2,0,5,0,1
132904,-125,4,2,0,70,0,1
133061,-100,4,2,0,70,0,1
133140,-100,4,2,0,5,0,1
133219,-100,4,2,0,70,0,1
133851,-125,4,2,0,70,0,1
134088,-125,4,2,0,5,0,1
134167,-125,4,2,0,70,0,1
134404,-125,4,2,0,5,0,1
134483,-125,4,2,0,70,0,1
134719,-125,4,2,0,5,0,1
134798,-125,4,2,0,70,0,1
135035,-125,4,2,0,5,0,1
135114,-125,4,2,0,70,0,1
135351,-125,4,2,0,5,0,1
135430,-71.4285714285714,4,2,0,70,0,1
135667,-71.4285714285714,4,2,0,5,0,1
135746,-100,4,2,0,70,0,1
137009,-50,4,2,0,70,0,1
137088,-50,4,2,0,5,0,1
137167,-50,4,2,0,70,0,1
137482,-71.4285714285714,4,2,0,70,0,1
137798,-166.666666666667,4,2,0,70,0,1
137877,-166.666666666667,4,2,0,5,0,1
137956,-166.666666666667,4,2,0,70,0,1
138904,-71.4285714285714,4,2,0,70,0,1
139140,-71.4285714285714,4,2,0,5,0,1
139219,-71.4285714285714,4,2,0,70,0,1
139535,-50,4,2,0,70,0,1
139614,-50,4,2,0,5,0,1
139693,-125,4,2,0,70,0,1
139772,-125,4,2,0,5,0,1
139851,-125,4,2,0,70,0,1
139930,-125,4,2,0,5,0,1
140009,-125,4,2,0,70,0,1
140088,-125,4,2,0,5,0,1
140167,-125,4,2,0,70,0,1
140246,-125,4,2,0,5,0,1
140325,-125,4,2,0,70,0,1
140404,-125,4,2,0,5,0,1
140482,-125,4,2,0,70,0,1
140561,-125,4,2,0,5,0,1
140798,-50,4,2,0,70,0,1
140877,-50,4,2,0,5,0,1
140956,-50,4,2,0,70,0,1
141351,-50,4,2,0,5,0,1
141430,-71.4285714285714,4,2,0,70,0,1
141904,-166.666666666667,4,2,0,70,0,1
141982,-166.666666666667,4,2,0,5,0,1
142061,-50,4,2,0,70,0,1
142140,-50,4,2,0,5,0,1
142219,-125,4,2,0,70,0,1
142298,-125,4,2,0,5,0,1
142377,-125,4,2,0,70,0,1
142456,-125,4,2,0,5,0,1
142535,-125,4,2,0,70,0,1
142614,-125,4,2,0,5,0,1
142693,-125,4,2,0,70,0,1
142772,-125,4,2,0,5,0,1
142851,-125,4,2,0,70,0,1
142930,-125,4,2,0,5,0,1
143009,-125,4,2,0,70,0,1
143167,-100,4,2,0,70,0,1
143246,-100,4,2,0,5,0,1
143325,-100,4,2,0,70,0,1
143798,-166.666666666667,4,2,0,70,0,1
143956,-125,4,2,0,70,0,1
144193,-125,4,2,0,5,0,1
144272,-125,4,2,0,70,0,1
144509,-125,4,2,0,5,0,1
144588,-300,4,2,0,70,0,1
145535,-100,4,2,0,70,0,1
147114,-125,4,2,0,70,0,1
147351,-125,4,2,0,5,0,1
147430,-166.666666666667,4,2,0,70,0,1
147509,-166.666666666667,4,2,0,5,0,1
147588,-125,4,2,0,70,0,1
147825,-125,4,2,0,5,0,1
147904,-125,4,2,0,70,0,1
149009,-71.4285714285714,4,2,0,70,0,1
149482,-166.666666666667,4,2,0,70,0,1
149561,-166.666666666667,4,2,0,5,0,1
149640,-50,4,2,0,70,0,1
149719,-50,4,2,0,5,0,1
149798,-125,4,2,0,70,0,1
149877,-125,4,2,0,5,0,1
149956,-125,4,2,0,70,0,1
150035,-125,4,2,0,5,0,1
150114,-125,4,2,0,70,0,1
150193,-125,4,2,0,5,0,1
150272,-125,4,2,0,70,0,1
150351,-125,4,2,0,5,0,1
150430,-125,4,2,0,70,0,1
150509,-125,4,2,0,5,0,1
150588,-125,4,2,0,70,0,1
150667,-125,4,2,0,5,0,1
150904,-50,4,2,0,70,0,1
150982,-50,4,2,0,5,0,1
151061,-50,4,2,0,70,0,1
151456,-50,4,2,0,5,0,1
151535,-71.4285714285714,4,2,0,70,0,1
151772,-71.4285714285714,4,2,0,5,0,1
151851,-71.4285714285714,4,2,0,70,0,1
152088,-71.4285714285714,4,2,0,5,0,1
152167,-50,4,2,0,70,0,1
152246,-50,4,2,0,5,0,1
152325,-125,4,2,0,70,0,1
152404,-125,4,2,0,5,0,1
152482,-125,4,2,0,70,0,1
152561,-125,4,2,0,5,0,1
152640,-125,4,2,0,70,0,1
152719,-125,4,2,0,5,0,1
152798,-125,4,2,0,70,0,1
152877,-125,4,2,0,5,0,1
152956,-125,4,2,0,70,0,1
153035,-125,4,2,0,5,0,1
153114,-125,4,2,0,70,0,1
153272,-100,4,2,0,70,0,1
153351,-100,4,2,0,5,0,1
153430,-100,4,2,0,70,0,1
154061,-125,4,2,0,70,0,1
154298,-125,4,2,0,5,0,1
154377,-125,4,2,0,70,0,1
154614,-125,4,2,0,5,0,1
154693,-125,4,2,0,70,0,1
155877,-125,4,2,0,5,0,1
155956,-151.515151515152,4,2,0,70,0,1
156982,-300,4,2,0,5,0,1
157061,-166.666666666667,4,2,0,70,0,1
157140,-166.666666666667,4,2,0,5,0,1
157219,-50,4,2,0,70,0,1
157298,-50,4,2,0,5,0,1
157377,-50,4,2,0,70,0,1
157535,-166.666666666667,4,2,0,70,0,1
157614,-166.666666666667,4,2,0,5,0,1
157693,-100,4,2,0,70,0,1
157930,-100,4,2,0,5,0,1
158009,-166.666666666667,4,2,0,70,0,1
158088,-166.666666666667,4,2,0,5,0,1
158167,-100,4,2,0,70,0,1
158246,-100,4,2,0,5,0,1
158325,-100,4,2,0,70,0,1
159114,-71.4285714285714,4,2,0,70,0,1
159588,-166.666666666667,4,2,0,70,0,1
159667,-166.666666666667,4,2,0,5,0,1
159746,-50,4,2,0,70,0,1
159825,-50,4,2,0,5,0,1
159904,-125,4,2,0,70,0,1
159982,-125,4,2,0,5,0,1
160061,-125,4,2,0,70,0,1
160140,-125,4,2,0,5,0,1
160219,-125,4,2,0,70,0,1
160298,-125,4,2,0,5,0,1
160377,-125,4,2,0,70,0,1
160456,-125,4,2,0,5,0,1
160535,-125,4,2,0,70,0,1
160614,-125,4,2,0,5,0,1
160693,-125,4,2,0,70,0,1
160772,-125,4,2,0,5,0,1
161009,-50,4,2,0,70,0,1
161088,-50,4,2,0,5,0,1
161167,-50,4,2,0,70,0,1
161561,-50,4,2,0,5,0,1
161640,-71.4285714285714,4,2,0,70,0,1
162114,-166.666666666667,4,2,0,70,0,1
162193,-166.666666666667,4,2,0,5,0,1
162272,-50,4,2,0,70,0,1
162351,-50,4,2,0,5,0,1
162430,-50,4,2,0,70,0,1
162509,-50,4,2,0,5,0,1
162588,-50,4,2,0,70,0,1
163535,-50,4,2,0,70,0,0
164009,-100,4,2,0,70,0,0
164246,-38.4615384615385,4,2,0,50,0,0

[Colours]
Combo1 : 208,109,216
Combo2 : 227,197,102
Combo3 : 99,228,228
Combo4 : 155,242,142

[HitObjects]
60,62,22693,6,0,P|161:89|261:88,1,188.999994232178,2|0,1:2|0:0,0:0:0:0:
299,68,23325,1,8,0:0:0:0:
9,134,23798,1,2,0:0:0:0:
62,68,23956,2,0,P|125:88|172:95,1,107.999996704102,2|0,0:0|0:0,0:0:0:0:
303,75,24588,1,8,0:0:0:0:
429,114,25219,6,0,P|413:199|408:312,1,188.999994232178,2|0,0:0|0:0,0:0:0:0:
422,358,25851,1,8,0:0:0:0:
502,85,26325,1,2,0:0:0:0:
423,117,26483,6,0,L|336:142,1,80.9999975280763,2|0,0:0|0:0,0:0:0:0:
204,44,26798,2,0,L|254:120,1,80.9999975280763,2|0,0:0|0:0,0:0:0:0:
288,162,27114,1,10,0:0:0:0:
288,166,27430,2,0,L|267:255,1,80.9999975280763,2|0,0:0|0:0,0:0:0:0:
241,356,27746,5,2,1:2:0:0:
367,85,32798,6,0,P|282:88|180:109,1,188.999994232178,2|0,1:2|0:0,0:0:0:0:
137,150,33430,1,8,0:0:0:0:
413,11,33904,1,2,0:0:0:0:
364,80,34061,2,0,P|317:78|254:87,1,107.999996704102,2|0,0:2|0:0,0:0:0:0:
133,144,34693,1,8,0:0:0:0:
182,317,35325,6,0,P|199:256|203:130,1,188.999994232178,2|0,0:0|0:0,0:0:0:0:
185,74,35956,1,8,0:0:0:0:
108,291,36430,1,2,0:0:0:0:
188,321,36588,2,0,L|284:313,1,80.9999975280763,2|0,0:0|0:0,0:0:0:0:
265,171,36904,2,0,L|223:258,1,80.9999975280763,2|0,0:0|0:0,0:0:0:0:
301,251,37219,1,10,0:0:0:0:
308,252,37535,2,0,L|388:258,1,80.9999975280763,2|0,0:0|0:0,0:0:0:0:
462,301,37851,6,0,B|476:326|476:326|464:351,1,53.9999983520508,2|0,1:2|0:0,0:0:0:0:
267,353,38167,2,0,B|256:330|256:330|270:305,1,53.9999983520508,0|0,1:0|0:0,0:0:0:0:
399,190,38483,6,0,P|431:206|436:238,1,72,0|0,1:0|0:0,0:0:0:0:
308,252,38798,2,0,P|305:215|331:195,1,72,0|0,1:0|0:0,0:0:0:0:
425,75,39114,6,0,L|486:71,2,60,0|8|8,1:0|0:3|0:3,0:0:0:0:
294,61,39430,2,0,L|355:57,2,60,0|8|8,1:0|0:3|0:3,0:0:0:0:
163,47,39746,2,0,L|224:43,2,60,0|8|8,1:0|0:3|0:3,0:0:0:0:
32,33,40061,2,0,L|93:29,2,60,0|8|8,1:0|0:3|0:3,0:0:0:0:
90,182,40377,6,0,P|93:170|94:158,1,25.2000003076172
95,158,40535,6,2,B|117:208|116:278|78:305|61:271|28:297|22:361|52:456|176:434|201:338|159:295,1,415.800005075684,0|2,0:0|0:0,0:2:0:0:
166,161,42904,6,0,P|214:159|256:90,1,135,4|0,1:0|0:0,0:0:0:0:
212,43,43219,2,0,B|197:43|197:43|186:46|186:46|168:46,1,45,2|0,0:3|0:0,0:0:0:0:
232,31,43535,6,0,L|143:35,1,90,8|0,1:0|0:0,0:0:0:0:
38,38,43693,1,2,0:3:0:0:
34,41,43851,2,0,P|27:58|30:74,1,26.9999991760254
166,161,44009,6,0,P|213:169|268:110,1,135,2|0,1:3|0:0,0:0:0:0:
249,52,44325,2,0,P|234:32|229:28,1,26.9999991760254,0|0,1:0|0:0,0:0:0:0:
162,164,44483,6,0,B|174:269|99:214|108:336,1,188.999994232178,2|0,1:3|0:0,0:0:0:0:
165,365,44798,5,8,1:0:0:0:
177,361,44877,1,2,0:0:0:0:
187,354,44956,1,2,0:0:0:0:
194,344,45035,1,0,0:0:0:0:
198,332,45114,5,0,0:0:0:0:
238,324,45193,1,2,0:0:0:0:
257,287,45272,1,2,0:0:0:0:
254,276,45351,1,2,0:0:0:0:
254,276,46062,6,0,L|356:284,1,90,8|0,1:0|0:0,1:0:0:0:
443,294,46219,1,2,0:3:0:0:
480,354,46377,2,0,P|457:363|439:360,1,26.9999991760254,0|0,1:0|0:0,0:0:0:0:
347,285,46535,6,0,P|303:269|284:188,1,135,2|0,1:3|0:0,0:0:0:0:
412,228,46851,2,0,P|397:248|380:255,1,26.9999991760254,0|0,1:0|0:0,0:0:0:0:
267,321,47009,1,2,1:3:0:0:
169,218,47167,1,2,0:1:0:0:
313,125,47325,5,10,1:0:0:0:
174,308,47483,1,0,0:1:0:0:
75,156,47640,1,2,0:0:0:0:
236,209,47798,1,2,0:1:0:0:
54,334,47956,6,2,B|35:183|134:253|103:98,1,251.999992309571,4|0,1:0|0:0,0:1:0:0:
46,17,48430,2,0,P|36:19|24:30,1,26.9999991760254,2|0,1:3|0:0,0:0:0:0:
101,93,48588,2,0,L|201:84,1,90,8|0,1:0|0:0,0:0:0:0:
363,66,48746,6,0,B|368:53|368:53|370:66,1,26.9999991760254,2|0,0:0|0:0,0:0:0:0:
297,168,48904,2,0,B|284:170|284:170|294:163,1,26.9999991760254,2|0,0:0|0:0,0:0:0:0:
421,103,49062,2,0,B|434:101|434:101|425:109,1,26.9999991760254,2|0,1:2|0:0,0:0:0:0:
355,205,49219,2,0,B|350:218|350:218|349:206,1,26.9999991760254,2|0,0:0|0:0,0:0:0:0:
300,97,49377,2,0,B|292:86|292:86|304:92,1,26.9999991760254,2|0,1:2|0:0,0:0:0:0:
418,174,49535,2,0,B|426:185|426:185|415:180,1,26.9999991760254,2|0,1:2|0:0,0:0:0:0:
289,286,49851,6,0,L|189:278,1,90,8|0,1:0|0:0,0:0:0:0:
98,161,50009,1,8,0:3:0:0:
55,169,50088,1,8,0:3:0:0:
36,208,50167,1,8,0:3:0:0:
40,211,50325,2,0,L|129:203,1,90,8|0,1:0|0:0,0:0:0:0:
191,72,50483,6,0,B|343:64|263:161|420:146,1,251.999992309571,4|0,1:0|0:0,0:0:0:0:
488,51,50956,2,0,P|471:43|456:42,1,26.9999991760254,0|0,1:0|0:0,0:0:0:0:
424,146,51114,2,0,L|427:243,1,90,8|0,1:0|0:0,0:0:0:0:
262,316,51272,6,0,B|248:318|248:318|258:309,1,26.9999991760254,2|0,0:3|0:0,0:0:0:0:
339,237,51430,2,0,B|348:226|348:226|345:239,1,26.9999991760254,2|0,0:0|0:0,0:0:0:0:
322,347,51588,2,0,B|320:360|320:360|315:348,1,26.9999991760254,2|0,1:3|0:0,0:0:0:0:
273,249,51746,2,0,B|266:237|266:237|277:243,1,26.9999991760254,2|0,0:0|0:0,0:0:0:0:
370,299,51904,2,0,B|382:304|382:304|369:305,1,26.9999991760254,2|0,1:3|0:0,0:0:0:0:
206,271,52062,5,2,1:3:0:0:
144,260,52219,2,0,B|125:259|125:259|119:256|119:256|98:255,1,45,2|0,0:0|0:0,0:0:0:0:
33,103,52377,5,10,1:0:0:0:
101,327,52535,1,2,0:1:0:0:
113,133,52693,1,2,0:1:0:0:
14,346,52851,1,2,0:1:0:0:
184,210,53009,6,0,B|217:207|217:207|224:212|224:212|230:206|230:206|291:200,1,108,0|0,1:0|0:0,0:0:0:0:
412,188,53325,2,0,B|379:191|379:191|373:197|373:197|366:192|366:192|305:198,1,108,0|0,1:0|0:0,0:0:0:0:
299,203,53640,6,0,L|287:110,1,90,8|0,1:0|0:0,0:0:0:0:
271,15,53798,1,2,1:3:0:0:
270,12,53956,2,0,P|249:10|233:14,1,26.9999991760254,0|0,1:0|0:0,0:0:0:0:
216,134,54114,6,0,P|197:88|121:95,1,135,2|0,1:3|0:0,0:0:0:0:
104,151,54430,2,0,B|105:168|105:168|101:171|101:171|103:193,1,45,2|0,0:3|0:0,0:0:0:0:
109,361,54588,2,0,B|107:339|107:339|111:336|111:336|109:318,1,45,2|0,1:3|0:0,0:0:0:0:
107,255,54746,1,0,1:0:0:0:
62,273,54904,5,8,1:0:0:0:
69,262,54983,1,2,0:0:0:0:
79,255,55062,1,2,0:0:0:0:
90,252,55140,1,0,0:0:0:0:
104,253,55219,5,0,0:0:0:0:
132,288,55298,1,2,0:0:0:0:
109,329,55377,1,2,0:0:0:0:
100,333,55456,1,2,0:0:0:0:
100,333,56167,6,0,L|195:327,1,90,8|0,1:0|0:0,0:0:0:0:
326,313,56325,1,2,0:3:0:0:
330,317,56640,6,0,P|385:295|385:235,1,125.999996154785,2|0,1:3|0:0,0:0:0:0:
27,208,56956,2,0,P|24:225|26:235,1,26.9999991760254,2|0,1:3|0:0,0:0:0:0:
96,330,57114,1,2,1:3:0:0:
223,233,57272,1,2,0:1:0:0:
154,111,57430,5,10,1:0:0:0:
209,301,57588,1,0,0:0:0:0:
364,148,57746,1,2,0:0:0:0:
237,165,57904,1,2,0:1:0:0:
366,270,58062,6,2,B|389:151|313:204|328:89,1,188.999994232178,4|0,1:0|0:0,0:1:0:0:
372,48,58377,2,0,P|437:65|451:123,1,125.999996154785,0|2,1:0|0:3,0:0:0:0:
368,273,58693,2,0,L|269:265,1,90,0|0,1:0|0:0,0:0:0:0:
89,225,58851,6,0,B|100:230|100:230|100:244,1,26.9999991760254,2|0,0:0|0:0,0:0:0:0:
40,293,59009,2,0,B|50:285|50:285|62:292,1,26.9999991760254,2|0,0:0|0:0,0:0:0:0:
214,305,59167,2,0,B|202:311|202:311|189:305,1,26.9999991760254,2|0,1:2|0:0,0:0:0:0:
175,225,59325,2,0,B|174:237|174:237|163:245,1,26.9999991760254,2|0,0:2|0:0,0:0:0:0:
75,370,59482,2,0,B|74:356|74:356|85:349,1,26.9999991760254,2|0,1:2|0:0,0:0:0:0:
163,377,59640,2,0,B|150:370|150:370|150:356,1,26.9999991760254,2|0,1:2|0:0,0:0:0:0:
133,180,59956,6,0,L|234:174,1,90,8|0,1:0|0:0,0:0:0:0:
356,272,60114,1,8,0:3:0:0:
399,280,60193,1,8,0:3:0:0:
418,319,60272,1,8,0:3:0:0:
414,322,60430,2,0,L|325:314,1,90,8|0,1:0|0:0,0:0:0:0:
177,269,60588,6,0,B|326:283|249:180|406:195,1,251.999992309571,4|2,1:0|0:3,0:0:0:0:
512,241,61062,2,0,P|503:256|494:262,1,26.9999991760254,0|0,1:0|0:0,0:0:0:0:
411,196,61219,2,0,L|415:104,1,90,8|0,1:0|0:0,0:0:0:0:
200,73,61377,6,0,B|211:67|211:67|222:75,1,26.9999991760254,2|0,0:3|0:0,0:0:0:0:
240,151,61535,2,0,B|238:138|238:138|248:129,1,26.9999991760254,2|0,0:0|0:0,0:0:0:0:
342,48,61693,2,0,B|334:60|334:60|320:60,1,26.9999991760254,2|0,0:3|0:0,0:0:0:0:
262,8,61851,2,0,B|270:17|270:17|266:30,1,26.9999991760254,2|0,0:0|0:0,0:0:0:0:
330,136,62009,2,0,B|315:134|315:134|312:120,1,26.9999991760254,2|0,1:3|0:0,0:0:0:0:
144,34,62167,5,2,1:3:0:0:
135,95,62325,2,0,B|134:114|134:114|131:120|131:120|131:140,1,45,2|0,0:0|0:0,0:0:0:0:
37,266,62483,5,10,1:0:0:0:
285,295,62640,1,2,0:1:0:0:
84,320,62798,1,2,0:1:0:0:
321,236,62956,1,2,1:0:0:0:
459,349,63114,6,0,B|418:344|418:344|409:336|409:336|399:341|399:341|356:337,1,108,0|0,1:0|0:0,0:0:0:0:
358,327,63430,2,0,B|398:331|398:331|407:339|407:339|417:334|417:334|460:338,1,108,0|0,1:0|0:0,0:0:0:0:
474,340,63746,6,0,B|477:333|477:333|475:326|475:326|478:320|478:320|476:313|476:313|480:307|480:307|478:300|478:300|481:294|481:294|479:286|479:286|483:280|483:280|480:272|480:272|483:264|483:264|481:255|481:255|484:243,1,105
453,143,64456,2,0,P|454:130|468:138,1,30,2|0,0:0|0:0,0:0:0:0:
461,149,64693,6,0,P|419:163|371:158,1,90,0|2,1:0|1:2,0:0:0:0:
82,40,65009,1,8,1:1:0:0:
77,39,66272,6,0,B|79:74|79:74|82:77|82:77|79:81|79:81|83:151,1,108,8|0,1:0|0:0,0:0:0:0:
128,189,66588,2,0,P|143:190|158:183,1,26.9999991760254,0|0,1:0|0:0,0:0:0:0:
251,226,66746,6,0,B|248:261|248:261|245:264|245:264|248:268|248:268|242:339,1,108,2|0,0:3|0:0,0:0:0:0:
189,363,67062,1,2,0:3:0:0:
315,222,67219,1,2,1:3:0:0:
153,185,67377,1,2,0:1:0:0:
279,44,67535,5,10,1:0:0:0:
437,197,67693,1,0,0:0:0:0:
272,292,67851,1,2,0:0:0:0:
315,152,68009,1,2,0:1:0:0:
434,379,68167,6,2,B|277:394|356:294|205:305,1,251.999992309571,4|0,1:0|0:0,0:1:0:0:
116,349,68640,2,0,P|122:368|131:376,1,26.9999991760254,2|0,1:3|0:0,0:0:0:0:
200,307,68798,2,0,L|203:211,1,90,8|0,1:0|0:0,0:0:0:0:
140,15,68956,6,0,L|165:8,1,26.9999991760254,2|0,0:0|0:0,0:0:0:0:
186,131,69114,2,0,L|177:155,1,26.9999991760254,2|0,0:0|0:0,0:0:0:0:
60,113,69272,2,0,L|42:93,1,26.9999991760254,2|0,1:2|0:0,0:0:0:0:
195,59,69430,2,0,L|212:77,1,26.9999991760254,2|0,0:0|0:0,0:0:0:0:
118,158,69588,2,0,L|92:163,1,26.9999991760254,2|0,1:2|1:2,0:0:0:0:
70,40,69746,2,0,L|77:14,1,26.9999991760254,2|0,1:2|0:0,0:0:0:0:
19,185,70062,6,0,L|25:275,1,90,8|0,1:0|0:0,0:0:0:0:
114,357,70219,1,8,0:3:0:0:
170,247,70377,1,8,0:3:0:0:
292,342,70535,2,0,L|382:336,1,90,8|0,1:0|0:0,0:0:0:0:
456,380,70693,6,0,B|479:261|403:314|418:199,1,188.999994232178,4|0,1:0|0:0,0:0:0:0:
379,151,71008,2,0,P|305:183|341:269,1,188.999994232178,0|0,1:0|0:0,0:0:0:0:
418,199,71325,2,0,L|424:90,1,90,8|0,1:0|0:0,0:0:0:0:
255,80,71483,6,0,L|263:104,1,26.9999991760254,2|0,0:0|0:0,0:3:0:0:
141,98,71640,2,0,L|119:82,1,26.9999991760254,2|0,0:0|0:0,0:0:0:0:
222,16,71798,2,0,L|248:15,1,26.9999991760254,2|0,1:3|0:0,0:0:0:0:
206,128,71955,2,0,L|184:143,1,26.9999991760254,2|0,0:0|0:0,0:0:0:0:
152,28,72114,2,0,L|160:3,1,26.9999991760254,2|0,1:3|1:3,0:0:0:0:
314,38,72272,5,2,0:3:0:0:
376,34,72430,2,0,B|395:33|395:33|401:30|401:30|421:30,1,45,2|0,0:0|0:0,0:0:0:0:
423,317,72588,5,10,1:0:0:0:
489,97,72746,1,2,0:1:0:0:
499,344,72904,1,2,0:1:0:0:
419,150,73062,1,2,1:0:0:0:
309,260,73219,6,0,B|264:255|264:255|254:260|254:260|245:252|245:252|205:248,1,108,0|0,1:0|0:0,0:0:0:0:
212,187,73535,2,0,B|255:191|255:191|265:186|265:186|274:194|274:194|315:199,1,108,0|0,1:0|0:0,0:0:0:0:
371,235,73851,5,8,1:0:0:0:
49,253,74009,1,4,1:2:0:0:
44,251,74640,5,8,0:3:0:0:
40,185,74719,1,8,0:3:0:0:
98,156,74798,2,0,B|120:174|120:174|125:173|125:173|125:178|125:178|179:223,1,108,0|0,1:0|0:0,0:0:0:0:
239,242,75114,6,2,B|244:240|247:238|247:238|251:238|256:238|256:238|259:238|263:239|263:239|267:236|271:235|271:235|276:235|279:232|279:232|283:232|286:232|286:232|291:232|295:232|295:232|299:230|303:229|303:229|306:229|310:226|310:226|314:227|318:226|318:226|321:226|326:226|326:226|331:224|334:222|334:222|338:223|342:222|342:222|346:222|350:223|350:223|354:221|358:220|358:220|362:219|366:217|366:217|371:218|375:217|375:217|377:216|381:217|381:217|386:215|390:214|390:214|394:214|397:211|397:211|401:212|405:211|405:211|409:211|413:213|413:213|417:209|421:209|421:209|426:207,1,195,8|0,1:0|0:0,0:1:0:0:
492,162,76219,2,0,P|499:174|499:192,1,26.9999991760254,0|0,1:0|0:0,0:0:0:0:
424,207,76377,6,0,L|329:201,1,90,8|0,1:0|0:0,0:0:0:0:
188,59,76535,1,2,0:3:0:0:
190,57,76693,2,2,P|194:75|194:85,1,26.9999991760254,0|0,0:0|0:0,0:0:0:0:
134,207,76851,6,0,P|92:201|62:120,1,135,2|0,1:3|0:0,0:0:0:0:
88,67,77167,2,2,P|106:63|116:63,1,26.9999991760254,0|0,1:0|0:0,0:0:0:0:
219,167,77325,2,0,B|236:166|236:166|242:163|242:163|263:163,1,45,2|0,1:3|0:0,0:0:0:0:
378,131,77483,1,2,0:1:0:0:
248,23,77640,5,10,1:0:0:0:
126,140,77798,1,0,0:0:0:0:
232,270,77956,1,2,0:0:0:0:
219,167,78114,1,2,0:1:0:0:
51,351,78272,6,2,B|206:382|136:283|287:302,1,251.999992309571,4|0,1:0|0:0,0:1:0:0:
381,362,78746,2,0,P|369:375|360:380,1,26.9999991760254,2|0,0:3|0:0,0:0:0:0:
291,303,78904,2,0,L|295:213,1,90,8|0,1:0|0:0,0:0:0:0:
341,8,79062,6,0,B|326:13|326:13|323:24,1,26.9999991760254,2|0,0:0|0:0,0:0:0:0:
416,47,79219,2,0,B|403:37|403:37|392:40,1,26.9999991760254,2|0,0:0|0:0,0:0:0:0:
420,134,79377,2,0,B|422:118|422:118|414:110,1,26.9999991760254,2|0,1:2|0:0,0:0:0:0:
348,180,79534,2,0,B|362:174|362:174|365:163,1,26.9999991760254,2|0,0:0|0:0,0:0:0:0:
271,140,79693,2,0,B|283:149|283:149|294:146,1,26.9999991760254,2|0,1:2|0:0,0:0:0:0:
267,55,79850,2,0,B|264:70|264:70|272:78,1,26.9999991760254,2|0,1:2|0:0,0:0:0:0:
510,43,80167,6,0,L|502:143,1,90,8|0,1:0|0:0,0:0:0:0:
385,234,80325,1,8,0:3:0:0:
393,277,80404,1,8,0:3:0:0:
432,296,80483,1,8,0:3:0:0:
435,292,80641,2,0,L|427:203,1,90,8|0,1:0|0:0,0:0:0:0:
326,129,80798,6,0,B|174:126|254:218|97:203,1,251.999992309571,4|2,1:0|0:3,0:0:0:0:
37,268,81272,2,0,P|48:283|60:288,1,26.9999991760254,0|0,1:0|0:0,0:0:0:0:
91,202,81430,2,0,L|87:112,1,90,8|0,1:0|0:0,0:0:0:0:
164,24,81588,6,2,P|156:4|154:34,1,90,4|0,0:2|0:0,0:2:0:0:
200,77,81746,2,2,B|312:87|252:22|368:32,1,180,0|4,0:0|1:0,0:2:0:0:
372,37,82219,5,2,1:3:0:0:
497,141,82377,2,0,B|486:212|486:212|460:223|460:223|449:309,1,180,4|0,1:2|0:0,0:0:0:0:
240,329,82693,6,0,L|143:323,2,90,0|2|2,0:0|0:0|0:0,0:0:0:0:
62,312,83009,2,0,L|241:323,1,180,0|2,0:0|0:0,0:0:0:0:
248,192,103535,6,0,P|350:128|456:118,1,225,0|0,1:2|0:0,0:0:0:0:
508,134,104009,1,0,1:2:0:0:
261,8,104167,2,0,L|254:110,1,90,12|0,1:2|0:0,0:0:0:0:
239,283,104483,1,0,1:2:0:0:
307,270,104640,1,2,0:0:0:0:
374,256,104798,1,2,0:0:0:0:
447,373,105114,6,0,L|350:363,1,90,0|0,1:2|0:0,0:0:0:0:
133,336,105430,1,12,1:2:0:0:
129,338,106062,6,0,P|171:227|169:119,1,225,0|0,1:2|0:0,0:0:0:0:
155,66,106535,1,0,1:2:0:0:
333,277,106693,2,0,L|243:283,1,90,12|0,1:2|0:0,0:0:0:0:
35,294,107009,1,0,1:2:0:0:
24,226,107167,1,2,0:0:0:0:
74,179,107325,2,0,P|68:134|56:84,1,90,2|0,0:0|0:0,0:0:0:0:
179,33,107640,6,0,P|168:76|162:121,1,90,0|0,1:2|0:0,0:0:0:0:
261,210,107956,1,12,0:2:0:0:
459,109,108114,2,0,P|394:94|324:93,1,135,0|0,1:2|0:0,0:0:0:0:
274,57,108430,2,0,L|276:43,4,11.25,0|0|0|0|0,1:2|3:0|3:0|3:0|3:0,3:0:0:0:
267,119,108588,6,0,P|176:182|58:192,1,225,0|0,1:2|0:0,0:0:0:0:
9,175,109062,1,0,1:2:0:0:
260,210,109219,2,0,L|358:203,1,90,12|0,1:2|0:0,0:0:0:0:
413,354,109535,2,0,L|323:360,1,90,0|0,1:2|0:0,0:0:0:0:
208,368,109851,1,2,0:0:0:0:
475,327,110167,6,0,L|481:237,1,90,0|0,1:2|0:0,0:0:0:0:
497,5,110483,1,12,1:2:0:0:
493,3,111114,6,0,P|434:101|426:213,1,225,0|0,1:2|0:0,0:0:0:0:
431,268,111588,1,0,1:2:0:0:
360,70,111746,2,0,L|268:64,1,90,12|0,1:2|0:0,0:0:0:0:
85,214,112062,2,0,L|134:139,1,90,0|0,1:2|0:0,0:0:0:0:
181,65,112377,1,2,0:0:0:0:
39,25,112693,6,0,L|44:115,1,90,0|0,1:2|0:0,0:0:0:0:
169,214,113009,1,12,0:2:0:0:
30,303,113167,2,0,P|37:232|72:178,1,135,0|0,1:2|0:0,0:0:0:0:
79,177,113483,1,4,0:3:0:0:
44,115,113640,6,0,P|22:79|20:21,1,90,8|0,1:2|0:0,0:0:0:0:
192,76,113956,2,0,B|169:213|169:213|218:202,2,180,8|12|8,1:2|1:2|1:2,0:0:0:0:
300,18,114746,1,2,0:0:0:0:
397,86,114904,6,0,P|419:126|415:192,1,90,10|0,1:2|0:0,0:0:0:0:
388,325,115219,2,0,P|442:336|490:237,1,180,8|12,1:2|1:2,0:0:0:0:
327,352,115851,2,0,P|282:346|231:346,1,90,8|0,1:2|0:0,0:0:0:0:
44,347,116167,6,0,P|88:349|127:328,1,90,8|0,1:2|0:0,0:0:0:0:
189,204,116483,2,0,B|179:62|179:62|152:98,2,180,8|12|8,1:2|1:2|1:2,0:0:0:0:
116,148,117272,1,2,0:2:0:0:
255,82,117430,6,0,P|299:85|348:92,1,90,10|0,1:2|0:0,0:0:0:0:
447,262,117746,2,0,P|427:222|409:176,1,90,10|0,1:2|0:0,0:0:0:0:
486,8,118062,2,0,P|461:44|430:83,1,90,12|0,1:2|0:0,0:0:0:0:
256,169,118377,2,0,P|218:143|183:116,1,90,10|0,1:2|0:0,0:0:0:0:
46,29,118693,5,10,1:2:0:0:
20,96,118851,1,8,1:2:0:0:
51,161,119009,1,8,1:2:0:0:
122,173,119167,1,8,1:2:0:0:
152,282,119325,5,12,1:2:0:0:
189,137,119483,1,8,1:2:0:0:
241,88,119640,1,8,1:2:0:0:
312,91,119798,1,8,1:2:0:0:
360,144,119956,5,8,1:2:0:0:
321,72,120114,1,8,1:2:0:0:
240,66,120272,1,8,1:2:0:0:
182,122,120430,1,8,1:2:0:0:
152,282,120588,5,12,1:2:0:0:
106,152,120746,1,8,1:2:0:0:
26,134,120904,1,8,1:2:0:0:
8,54,121062,1,8,1:2:0:0:
79,70,121219,6,0,P|79:81|75:96,1,25.2000003076172
75,94,121377,6,2,B|125:116|195:115|222:77|188:60|214:27|278:21|373:51|351:175|255:200|212:158,1,415.800005075684,0|2,0:0|0:0,0:2:0:0:
133,335,123746,6,0,P|72:313|59:249,1,135,4|0,1:0|0:0,0:0:0:0:
98,200,124062,2,0,L|197:205,1,90,8|0,1:0|0:0,0:0:0:0:
247,282,124219,5,0,0:0:0:0:
248,278,124377,2,0,P|234:268|218:264,1,26.9999991760254,2|0,0:0|0:0,0:0:0:0:
206,134,124535,2,0,P|189:136|174:145,1,26.9999991760254,2|0,1:3|0:0,0:0:0:0:
95,204,124693,2,0,L|184:207,1,90,8|0,1:0|0:0,0:0:0:0:
133,335,124851,6,0,P|68:327|42:268,1,135,2|0,1:3|0:0,0:0:0:0:
11,213,125167,2,0,P|15:191|21:182,1,26.9999991760254,0|0,1:0|0:0,0:0:0:0:
136,330,125325,6,0,B|251:302|211:384|322:354,1,188.999994232178,8|0,1:0|0:0,0:0:0:0:
369,308,125640,5,0,0:0:0:0:
377,298,125719,1,2,0:0:0:0:
387,292,125798,1,2,0:0:0:0:
399,289,125877,1,0,0:0:0:0:
412,290,125956,5,0,0:0:0:0:
390,255,126035,1,2,0:0:0:0:
409,218,126114,1,2,0:0:0:0:
422,216,126193,1,2,0:0:0:0:
422,216,126904,6,0,P|419:203|418:190,1,26.9999991760254,0|0,1:0|0:0,0:0:0:0:
455,67,127062,1,2,0:3:0:0:
480,130,127219,2,0,L|390:125,1,90,8|0,1:0|0:0,0:0:0:0:
212,77,127377,6,0,P|243:133|307:135,1,135,0|0,1:0|0:0,0:0:0:0:
281,17,127693,2,0,P|268:21|258:30,1,26.9999991760254,0|0,1:0|0:0,0:0:0:0:
165,150,127851,1,8,1:0:0:0:
268,259,128009,1,2,0:1:0:0:
384,126,128167,5,2,0:1:0:0:
209,222,128325,1,2,0:1:0:0:
389,309,128483,1,0,0:0:0:0:
348,195,128640,1,2,0:1:0:0:
237,371,128798,6,2,B|388:390|318:291|473:322,1,251.999992309571,4|0,1:0|0:0,0:1:0:0:
399,233,129272,2,0,P|389:248|388:268,1,26.9999991760254,2|0,0:3|0:0,0:0:0:0:
478,323,129430,2,0,L|489:233,1,90,8|0,1:0|0:0,0:0:0:0:
391,26,129588,6,0,B|385:17|388:8|388:8|394:14|396:24,1,36,2|0,0:0|0:0,0:0:0:0:
431,163,129746,2,0,B|432:172|439:178|439:178|441:169|436:161,1,36,2|0,0:0|0:0,0:0:0:0:
485,108,129904,2,0,B|495:107|501:114|501:114|493:117|484:113,1,36,2|0,1:2|0:0,0:0:0:0:
344,74,130062,2,0,B|334:70|326:73|326:73|333:79|343:79,1,36,2|0,0:0|0:0,0:0:0:0:
367,148,130220,2,0,B|362:156|353:159|353:159|354:150|362:144,1,36,2|0,1:2|0:0,0:0:0:0:
462,40,130377,2,0,B|466:31|475:28|475:28|474:37|466:43,1,36,2|0,1:2|0:0,0:0:0:0:
287,130,130693,6,0,L|191:126,1,90,8|0,1:0|0:0,0:0:0:0:
103,298,130851,1,8,0:3:0:0:
146,300,130930,1,8,0:3:0:0:
178,268,131009,1,8,0:3:0:0:
177,263,131167,2,0,L|74:258,1,90,8|0,1:0|0:0,0:0:0:0:
18,124,131325,6,0,B|170:116|90:213|247:198,1,251.999992309571,4|0,1:0|0:0,0:0:0:0:
201,100,131798,2,0,P|197:112|196:126,1,26.9999991760254,0|0,1:0|0:0,0:0:0:0:
252,197,131956,2,0,L|344:189,1,90,8|0,1:0|0:0,0:0:0:0:
505,108,132114,6,0,B|514:104|518:96|518:96|509:96|502:103,1,36,2|0,0:3|0:0,0:0:0:0:
424,188,132272,2,0,B|418:196|419:204|419:204|427:199|429:190,1,36,2|0,0:0|0:0,0:0:0:0:
440,76,132430,2,0,B|439:65|433:59|433:59|430:68|434:77,1,36,2|0,1:3|0:0,0:0:0:0:
493,177,132588,2,0,B|499:184|507:186|507:186|505:177|496:172,1,36,2|0,0:0|0:0,0:0:0:0:
391,131,132746,2,0,B|381:132|373:126|373:126|381:122|391:125,1,36,2|0,1:3|0:0,0:0:0:0:
462,283,132904,5,2,1:3:0:0:
400,277,133062,2,0,B|381:276|381:276|375:273|375:273|355:272,1,45,2|0,0:0|0:0,0:0:0:0:
225,101,133219,5,10,1:0:0:0:
145,334,133377,1,2,0:1:0:0:
159,129,133535,1,2,0:1:0:0:
211,362,133693,1,2,0:1:0:0:
69,263,133851,6,0,B|65:230|65:230|59:224|59:224|64:217|64:217|58:159,1,108,0|0,1:0|0:0,0:0:0:0:
47,35,134167,2,0,B|50:68|50:68|45:75|45:75|51:81|51:81|56:138,1,108,0|0,1:0|0:0,0:0:0:0:
159,129,134483,6,0,B|191:125|191:125|197:119|197:119|204:124|204:124|262:118,1,108,0|0,1:0|0:0,0:0:0:0:
269,179,134799,2,0,B|236:182|236:182|230:188|230:188|223:183|223:183|165:189,1,108,0|0,1:0|0:0,0:0:0:0:
317,318,135114,6,0,B|320:285|320:285|326:279|326:279|321:272|321:272|327:214,1,108,0|0,1:0|0:0,0:0:0:0:
399,55,135430,2,0,B|414:80|413:108|413:108|417:111|417:111|413:112|413:112|401:181|333:193,1,188.999994232178,0|0,1:0|0:0,0:0:0:0:
269,179,135746,5,8,1:0:0:0:
258,170,135825,1,2,0:0:0:0:
253,157,135904,1,2,0:0:0:0:
254,143,135983,1,0,0:0:0:0:
262,132,136062,5,0,0:0:0:0:
266,92,136140,1,2,0:0:0:0:
234,67,136219,1,2,0:0:0:0:
241,57,136298,1,2,0:0:0:0:
241,57,137009,6,0,L|237:158,1,90,8|0,1:0|0:0,0:0:0:0:
227,280,137167,1,2,0:3:0:0:
228,286,137483,6,0,P|208:343|149:357,1,125.999996154785,2|0,1:3|0:0,0:0:0:0:
102,69,137798,2,0,P|100:82|102:95,1,26.9999991760254,2|0,1:3|0:0,0:0:0:0:
156,211,137956,1,2,1:3:0:0:
307,216,138114,1,2,0:1:0:0:
254,74,138272,5,10,1:0:0:0:
228,286,138430,1,2,0:1:0:0:
383,189,138588,1,0,0:0:0:0:
242,191,138746,1,2,0:1:0:0:
445,307,138904,6,2,B|468:188|392:241|407:126,1,188.999994232178,4|0,1:0|0:0,0:1:0:0:
403,67,139219,2,0,P|343:55|322:0,1,125.999996154785,0|2,1:0|0:3,0:0:0:0:
444,314,139535,2,0,L|343:311,1,90,8|0,1:0|0:0,0:0:0:0:
117,324,139693,6,0,B|110:322|110:322|95:304|95:304|96:299,1,36,2|0,0:0|0:0,0:0:0:0:
186,200,139851,2,0,B|190:195|190:195|213:191|213:191|217:194,1,36,2|0,0:0|0:0,0:0:0:0:
258,322,140009,2,0,B|260:328|260:328|251:350|251:350|247:352,1,36,2|0,1:2|0:0,0:0:0:0:
279,265,140167,2,0,B|280:260|280:260|264:241|264:241|258:240,1,36,2|0,0:0|0:0,0:0:0:0:
126,210,140325,2,0,B|121:211|121:211|113:234|113:234|115:240,1,36,2|0,1:2|0:0,0:0:0:0:
155,371,140483,2,0,B|158:374|158:374|182:370|182:370|186:365,1,36,2|0,1:2|0:0,0:0:0:0:
38,255,140798,6,0,L|41:165,1,90,8|0,1:0|0:0,0:0:0:0:
232,102,140956,1,8,0:3:0:0:
229,143,141035,1,8,0:3:0:0:
194,172,141114,1,8,0:3:0:0:
188,169,141272,2,0,L|191:79,1,90,8|0,1:0|0:0,0:0:0:0:
48,9,141430,6,0,B|40:161|137:81|122:238,1,251.999992309571,4|2,1:0|0:3,0:0:0:0:
214,164,141904,2,0,P|200:165|188:169,1,26.9999991760254,0|0,1:0|0:0,0:0:0:0:
123,244,142062,2,0,L|221:242,1,90,8|0,1:0|0:0,0:0:0:0:
410,222,142219,6,0,B|416:219|416:219|438:228|438:228|440:232,1,36,2|0,0:3|0:0,0:0:0:0:
385,353,142377,2,0,B|381:358|381:358|358:364|358:364|354:361,1,36,2|0,0:0|0:0,0:0:0:0:
327,232,142535,2,0,B|326:225|326:225|341:206|341:206|346:206,1,36,2|0,0:3|0:0,0:0:0:0:
294,288,142693,2,0,B|292:292|292:292|305:312|305:312|311:314,1,36,2|0,0:0|0:0,0:0:0:0:
445,328,142851,2,0,B|449:325|449:325|449:301|449:301|446:296,1,36,2|0,1:3|0:0,0:0:0:0:
389,158,143009,5,2,1:3:0:0:
327,148,143167,2,0,B|308:147|308:147|302:144|302:144|282:143,1,45,2|0,0:0|0:0,0:0:0:0:
133,3,143325,5,10,1:0:0:0:
380,83,143483,1,2,0:1:0:0:
163,81,143640,1,2,0:1:0:0:
410,5,143798,1,2,1:0:0:0:
460,203,143956,6,0,B|465:162|465:162|473:153|473:153|468:143|468:143|472:100,1,108,0|0,1:0|0:0,0:0:0:0:
482,102,144272,2,0,B|478:142|478:142|470:151|470:151|475:161|475:161|471:204,1,108,0|0,1:0|0:0,0:0:0:0:
471,221,144588,6,0,B|458:221|458:221|457:223|457:223|451:221|451:221|440:222|440:222|439:224|439:224|428:223|428:223|426:225|426:225|420:223|420:223|410:224|410:224|408:226|408:226|401:225|401:225|397:228|397:228|390:226|390:226|381:227|381:227|379:230|379:230|372:229,1,105
258,326,145298,2,0,P|246:333|241:320,1,30,2|0,0:0|0:0,0:0:0:0:
252,314,145535,6,0,P|290:283|285:237,1,90,0|2,1:0|1:2,0:0:0:0:
225,10,145851,1,8,1:1:0:0:
225,10,147114,6,0,B|288:13|288:13|292:10|292:10|295:13|295:13|330:15,1,108,8|0,1:0|0:0,0:0:0:0:
382,48,147430,2,0,P|387:64|388:79,1,26.9999991760254,0|0,1:0|0:0,0:0:0:0:
320,150,147588,6,0,B|256:153|256:153|252:150|252:150|249:153|249:153|214:155,1,108,2|0,1:3|0:0,0:0:0:0:
163,116,147904,1,2,0:3:0:0:
278,237,148061,1,2,1:3:0:0:
320,79,148219,1,2,0:1:0:0:
435,200,148377,5,10,1:0:0:0:
243,326,148535,1,2,0:1:0:0:
230,94,148693,1,0,0:0:0:0:
314,227,148851,1,2,0:1:0:0:
82,181,149009,6,2,B|231:191|152:91|309:106,1,251.999992309571,4|0,1:0|0:0,0:1:0:0:
190,46,149483,2,0,P|203:48|215:54,1,26.9999991760254,0|0,1:0|0:0,0:0:0:0:
315,109,149640,2,0,L|306:209,1,90,8|0,1:0|0:0,0:0:0:0:
428,370,149798,6,0,P|445:364|462:368,1,36,2|0,0:0|0:0,0:0:0:0:
402,203,149956,2,0,P|384:207|367:203,1,36,2|0,0:0|0:0,0:0:0:0:
349,339,150114,2,0,P|361:350|367:368,1,36,2|0,1:2|0:0,0:0:0:0:
481,232,150272,2,0,P|468:218|463:201,1,36,2|0,0:0|0:0,0:0:0:0:
335,256,150430,2,0,P|330:272|318:285,1,36,2|0,1:2|0:0,0:0:0:0:
492,316,150588,2,0,P|496:297|508:284,1,36,2|0,1:2|0:0,0:0:0:0:
275,335,150904,6,0,L|174:325,1,90,8|0,1:0|0:0,0:0:0:0:
117,190,151061,1,8,0:3:0:0:
244,229,151219,1,8,0:3:0:0:
340,135,151377,2,0,L|239:125,1,90,8|0,1:0|0:0,0:0:0:0:
7,237,151535,6,0,B|126:260|73:184|188:199,1,188.999994232178,4|0,1:0|0:0,0:0:0:0:
244,228,151850,2,0,P|236:312|321:324,1,188.999994232178,0|0,1:0|0:0,0:0:0:0:
189,197,152167,2,0,L|195:88,1,90,8|0,1:0|0:0,0:0:0:0:
390,58,152325,6,0,P|398:74|412:85,1,36,2|0,0:3|0:0,0:0:0:0:
299,158,152483,2,0,P|284:150|266:149,1,36,2|0,0:0|0:0,0:0:0:0:
315,23,152640,2,0,P|332:22|347:11,1,36,2|0,1:3|0:0,0:0:0:0:
382,141,152798,2,0,P|369:152|363:169,1,36,2|0,0:0|0:0,0:0:0:0:
258,86,152956,2,0,P|261:68|256:51,1,36,2|0,1:3|0:0,0:0:0:0:
466,47,153114,5,2,0:3:0:0:
471,109,153272,2,0,B|472:128|472:128|475:134|475:134|476:154,1,45,2|0,0:0|0:0,0:0:0:0:
484,319,153430,5,10,1:0:0:0:
245,264,153588,1,2,0:1:0:0:
443,245,153746,1,2,0:1:0:0:
204,338,153904,1,2,1:0:0:0:
60,287,154061,6,0,B|65:242|65:242|60:232|60:232|68:223|68:223|72:183,1,108,0|0,1:0|0:0,0:0:0:0:
133,190,154377,2,0,B|129:233|129:233|134:243|134:243|126:252|126:252|121:293,1,108,0|0,1:0|0:0,0:0:0:0:
85,349,154693,5,8,1:0:0:0:
350,337,154851,1,4,1:2:0:0:
350,337,155483,5,8,0:3:0:0:
367,272,155561,1,8,0:3:0:0:
318,225,155640,2,0,B|285:221|285:221|279:215|279:215|272:220|272:220|214:214,1,108,0|0,1:0|0:0,0:0:0:0:
143,163,155956,6,0,B|198:326|-32:372|-87:116|68:101|78:185|51:213,1,386.099998821716,8|0,1:0|0:0,0:0:0:0:
0,341,157061,6,0,P|2:327|7:315,1,26.9999991760254,0|0,1:0|0:0,0:0:0:0:
51,212,157219,2,0,L|140:222,1,90,8|0,1:0|0:0,0:0:0:0:
295,306,157377,1,2,0:3:0:0:
295,310,157535,2,0,P|315:307|328:300,1,26.9999991760254,2|0,0:0|0:0,0:0:0:0:
352,193,157693,6,0,P|290:174|249:223,1,135,2|0,1:3|0:0,0:0:0:0:
219,285,158009,2,0,P|224:304|233:316,1,26.9999991760254,0|0,1:0|0:0,0:0:0:0:
384,318,158167,2,0,B|386:298|386:298|392:293|392:293|395:277,1,45,2|0,1:3|0:0,0:0:0:0:
430,133,158325,1,2,0:1:0:0:
265,100,158483,5,10,1:0:0:0:
294,310,158640,1,2,0:1:0:0:
451,211,158798,1,0,0:0:0:0:
306,194,158956,1,2,0:1:0:0:
469,373,159114,6,2,B|500:218|401:288|420:137,1,251.999992309571,4|0,1:0|0:0,0:1:0:0:
512,186,159588,2,0,P|495:194|480:192,1,26.9999991760254,2|0,0:3|0:0,0:0:0:0:
420,131,159746,2,0,L|325:133,1,90,8|0,1:0|0:0,0:0:0:0:
112,230,159904,6,0,P|99:218|94:200,1,36,2|0,0:0|0:0,0:0:0:0:
129,150,160061,2,0,P|132:133|145:120,1,36,2|0,0:0|0:0,0:0:0:0:
207,126,160219,2,0,P|222:121|241:125,1,36,2|0,1:2|0:0,0:0:0:0:
269,181,160376,2,0,P|281:192|286:210,1,36,2|0,0:0|0:0,0:0:0:0:
250,261,160535,2,0,P|246:277|233:290,1,36,2|0,1:2|0:0,0:0:0:0:
172,285,160693,2,0,P|156:289|137:285,1,36,2|0,1:2|0:0,0:0:0:0:
180,65,161009,6,0,L|281:71,1,90,8|0,1:0|0:0,0:0:0:0:
426,200,161167,1,8,0:3:0:0:
383,197,161246,1,8,0:3:0:0:
354,162,161325,1,8,0:3:0:0:
356,157,161483,2,0,L|458:162,1,90,8|0,1:0|0:0,0:0:0:0:
479,335,161640,6,0,B|322:350|402:258|250:261,1,251.999992309571,4|2,1:0|0:3,0:0:0:0:
306,359,162114,2,0,P|303:339|295:326,1,26.9999991760254,0|0,1:0|0:0,0:0:0:0:
244,261,162272,2,0,L|142:267,1,90,8|0,1:0|0:0,0:0:0:0:
27,326,162430,6,0,P|3:344|37:336,1,90,4|4,1:2|1:2,0:0:0:0:
83,291,162588,2,0,B|104:180|33:233|53:118,1,180,0|4,0:0|1:0,0:0:0:0:
60,115,163061,5,2,1:3:0:0:
204,38,163219,2,0,B|194:85|236:118|236:118|281:127|317:92,1,180,4|0,1:2|0:0,0:0:0:0:
465,185,163535,6,0,L|454:286,2,90,2|0|2,0:0|0:0|0:0,0:0:0:0:
438,364,163851,2,0,L|448:274,1,90,2|0,0:3|0:0,0:0:0:0:
475,63,164009,5,2,1:3:0:0:
256,192,164246,12,0,168667,0:0:0:0:
