osu file format v14

[General]
AudioFilename: audio.mp3
AudioLeadIn: 0
PreviewTime: 42904
Countdown: 0
SampleSet: None
StackLeniency: 0.6
Mode: 0
LetterboxInBreaks: 0
WidescreenStoryboard: 1

[Editor]
Bookmarks: 22693,42904
DistanceSpacing: 1
BeatDivisor: 4
GridSize: 16
TimelineZoom: 1.4

[Metadata]
Title:Lotus
TitleUnicode:Lotus
Artist:Ampzer
ArtistUnicode:Ampzer
Creator:-PC
Version:Easy
Source:
Tags:
BeatmapID:1858261
BeatmapSetID:745475

[Difficulty]
HPDrainRate:2
CircleSize:3
OverallDifficulty:2
ApproachRate:2
SliderMultiplier:0.899999999999999
SliderTickRate:1

[Events]
//Background and Video events
0,0,"lotus.jpg",0,0
//Break Periods
2,27946,31238
2,83325,101975
//Storyboard Layer 0 (Background)
//Storyboard Layer 1 (Fail)
//Storyboard Layer 2 (Pass)
//Storyboard Layer 3 (Foreground)
//Storyboard Sound Samples

[TimingPoints]
2483,315.789473684211,4,2,0,50,1,0
42904,-100,4,2,0,70,0,1
82693,-100,4,2,0,70,0,0
103535,-100,4,2,0,60,0,0
113640,-100,4,2,0,65,0,0
121219,-100,4,2,0,65,0,0
123746,-100,4,2,0,70,0,1
163535,-100,4,2,0,70,0,0
164246,-100,4,2,0,50,0,0

[Colours]
Combo1 : 208,109,216
Combo2 : 227,197,102
Combo3 : 99,228,228
Combo4 : 155,242,142

[HitObjects]
436,51,22693,6,0,P|406:105|375:221,2,180,2|8|2,1:2|0:0|0:0,0:0:0:0:
76,51,25219,2,0,P|106:105|137:221,2,180,2|8|2,0:0|0:0|0:0,0:0:0:0:
45,228,27114,1,10,0:0:0:0:
221,265,27746,1,2,1:2:0:0:
76,333,32798,6,0,P|106:279|137:163,2,180,2|8|2,1:2|0:0|0:2,0:0:0:0:
436,333,35324,2,0,P|406:279|375:163,2,180,2|8|2,0:0|0:0|0:0,0:0:0:0:
504,166,37219,1,10,0:0:0:0:
256,192,37851,12,0,40377,0:0:0:0:
501,266,42904,5,4,1:0:0:0:
332,325,43535,2,0,L|185:311,2,135,8|2|2,1:0|1:3|1:3,0:0:0:0:
405,271,44798,2,0,B|424:225|424:225|358:106,1,180,8|0,1:0|0:0,0:0:0:0:
209,12,46061,6,0,L|68:27,2,135,8|2|2,1:0|1:3|1:3,0:0:0:0:
283,62,47325,2,0,P|274:105|247:141,1,89.9999999999999,10|2,1:0|0:0,0:0:0:0:
169,185,47956,6,2,B|83:157|83:157|30:244,1,180,4|8,1:0|1:0,0:1:0:0:
0,317,48904,1,2,0:0:0:0:
67,376,49219,2,0,P|112:378|151:353,1,89.9999999999999,2|2,0:0|1:2,0:0:0:0:
185,272,49851,1,8,1:0:0:0:
343,185,50483,6,0,B|429:157|429:157|482:244,1,180,4|8,1:0|1:0,0:0:0:0:
512,317,51431,1,2,0:0:0:0:
445,376,51746,2,0,P|400:378|361:353,1,89.9999999999999,2|2,0:0|1:3,0:0:0:0:
327,272,52377,2,0,B|223:245|262:330|156:301,1,180,10|0,1:0|1:0,0:0:0:0:
35,170,53640,6,0,L|18:30,2,135,8|2|2,1:0|1:3|1:3,0:0:0:0:
46,259,54904,2,0,B|51:308|51:308|167:380,1,180,8|0,1:0|0:0,0:0:0:0:
340,349,56167,6,0,L|478:337,2,135,8|2|2,1:0|1:3|1:3,0:0:0:0:
259,309,57430,2,0,P|240:269|240:223,1,89.9999999999999,10|2,1:0|0:0,0:0:0:0:
304,160,58061,6,2,B|355:171|355:171|389:239|389:239|438:254,1,180,4|0,1:0|1:0,0:1:0:0:
509,198,59009,1,2,0:0:0:0:
510,107,59325,2,0,P|493:73|445:44,1,89.9999999999999,2|2,0:2|1:2,0:0:0:0:
367,82,59956,1,8,1:0:0:0:
208,160,60588,6,0,B|156:171|156:171|123:239|123:239|73:254,1,180,4|8,1:0|1:0,0:0:0:0:
3,198,61536,1,2,0:0:0:0:
2,107,61852,2,0,P|18:73|66:44,1,89.9999999999999,2|2,0:0|1:3,0:0:0:0:
145,76,62483,2,0,B|251:87|199:9|306:20,1,180,10|0,1:0|1:0,0:0:0:0:
482,54,63746,6,0,B|500:105|500:105|460:168|460:168|461:175|461:175|454:177|454:177|413:240|413:240|404:242|404:242|406:250|406:250|372:300|372:300|397:364,1,360,0|8,0:0|1:1,0:0:0:0:
148,351,66272,6,0,L|5:324,2,135,8|2|2,1:0|0:3|1:3,0:0:0:0:
235,373,67535,2,0,P|279:369|314:340,1,89.9999999999999,10|2,1:0|0:0,0:0:0:0:
305,252,68167,6,2,B|351:245|351:245|347:251|347:251|479:231,1,180,4|8,1:0|1:0,0:1:0:0:
511,151,69114,1,2,0:0:0:0:
478,67,69430,2,0,P|430:51|384:62,1,89.9999999999999,2|2,0:0|1:2,0:0:0:0:
319,110,70061,1,8,1:0:0:0:
207,252,70693,6,0,B|161:245|161:245|165:251|165:251|33:231,1,180,4|8,1:0|1:0,0:0:0:0:
1,151,71640,1,2,0:0:0:0:
34,67,71956,2,0,P|82:51|128:62,1,89.9999999999999,2|2,0:0|0:3,0:0:0:0:
193,110,72588,2,0,B|300:117|245:41|355:49,1,180,10|0,1:0|1:0,0:0:0:0:
505,213,74009,6,0,B|465:209|465:209|404:338|404:338|360:343,1,225,4|0,1:2|1:0,0:0:0:0:
273,355,75114,1,8,1:0:0:0:
29,169,76377,6,0,L|12:24,2,135,8|2|2,1:0|1:3|1:3,0:0:0:0:
39,259,77640,2,0,P|56:303|90:330,1,89.9999999999999,10|2,1:0|0:0,0:0:0:0:
178,320,78272,6,2,B|188:254|188:254|202:234|202:234|193:210|193:210|201:147,1,180,4|8,1:0|1:0,0:1:0:0:
171,64,79219,1,2,0:0:0:0:
81,71,79535,2,0,P|54:106|48:150,1,89.9999999999999,2|2,0:0|1:2,0:0:0:0:
104,221,80167,1,8,1:0:0:0:
282,201,80798,6,0,P|331:179|357:139,1,89.9999999999999,4|2,1:0|0:3,0:0:0:0:
387,67,81430,2,0,B|324:58|324:58|315:60|315:60|251:50,2,135,8|4|4,1:0|1:0|1:2,0:0:0:0:
192,316,103535,6,0,P|101:328|8:331,2,180,0|12|2,1:2|1:2|0:0,0:0:0:0:
256,147,105430,1,12,1:2:0:0:
320,316,106061,6,0,P|411:328|504:331,2,180,0|12|2,1:2|1:2|0:0,0:0:0:0:
170,215,107956,2,0,P|157:171|152:128,1,89.9999999999999,12|0,0:2|0:0,0:0:0:0:
176,40,108588,6,0,P|121:40|-6:15,2,180,0|12|2,1:2|1:2|0:0,0:0:0:0:
354,12,110483,1,12,1:2:0:0:
290,181,111114,6,0,P|317:228|359:351,2,180,0|12|2,1:2|1:2|0:0,0:0:0:0:
176,41,113009,1,12,0:2:0:0:
18,127,113640,6,0,P|3:211|4:311,1,180,8|12,1:2|1:2,0:0:0:0:
77,357,114588,1,8,1:2:0:0:
151,307,114904,2,0,P|151:217|136:128,1,180,10|12,1:2|1:2,0:0:0:0:
270,8,116167,6,0,P|255:92|256:192,1,180,8|12,1:2|1:2,0:0:0:0:
329,238,117115,1,8,1:2:0:0:
403,188,117431,2,0,P|403:98|388:9,1,180,10|12,1:2|1:2,0:0:0:0:
256,192,118693,12,0,121219,0:0:0:0:
33,75,123746,6,0,L|124:84,1,89.9999999999999,4|8,1:0|1:0,0:0:0:0:
196,197,124535,1,2,1:3:0:0:
284,173,124851,2,0,L|427:136,1,135,2|8,1:3|1:0,0:0:0:0:
496,178,125640,2,0,B|515:224|515:224|449:343,1,180,0|0,0:0|0:0,0:0:0:0:
273,366,126904,6,0,L|135:342,2,135,0|0|8,1:0|1:0|1:0,0:0:0:0:
359,339,128167,2,0,P|383:296|380:237,1,89.9999999999999,2|0,0:1|0:0,0:0:0:0:
347,173,128798,6,2,B|356:142|356:142|469:126|469:126|485:155,1,180,4|8,1:0|1:0,0:1:0:0:
508,242,129746,1,2,0:0:0:0:
466,321,130061,2,0,P|421:339|378:327,1,89.9999999999999,2|2,0:0|1:2,0:0:0:0:
326,259,130693,1,8,1:0:0:0:
165,173,131325,6,0,B|156:142|156:142|43:126|43:126|27:155,1,180,4|8,1:0|1:0,0:0:0:0:
4,242,132273,1,2,0:0:0:0:
46,321,132588,2,0,P|91:339|134:327,1,89.9999999999999,2|2,0:0|1:3,0:0:0:0:
186,259,133219,2,0,B|290:232|251:317|357:288,1,180,10|0,1:0|1:0,0:0:0:0:
510,205,134483,6,0,B|505:134|505:134|474:112|474:112|468:38,1,180,0|0,1:0|1:0,0:0:0:0:
382,0,135430,1,0,1:0:0:0:
323,68,135746,2,0,B|282:97|282:97|151:62,1,180,8|0,1:0|0:0,0:0:0:0:
14,173,137009,6,0,L|-2:313,2,135,8|2|2,1:0|1:3|1:3,0:0:0:0:
92,128,138272,2,0,P|143:136|166:166,1,89.9999999999999,10|0,1:0|0:0,0:0:0:0:
181,253,138904,6,2,B|166:342|166:342|78:329,1,180,4|8,1:0|1:0,0:1:0:0:
9,269,139851,1,2,0:0:0:0:
26,181,140167,2,0,P|48:145|91:128,1,89.9999999999999,2|2,0:0|1:2,0:0:0:0:
176,161,140798,1,8,1:0:0:0:
331,253,141430,6,0,B|346:342|346:342|434:329,1,180,4|8,1:0|1:0,0:0:0:0:
503,269,142377,1,2,0:0:0:0:
486,181,142693,2,0,P|464:145|421:128,1,89.9999999999999,2|2,0:0|1:3,0:0:0:0:
336,161,143325,2,0,B|232:134|271:219|165:190,1,180,10|0,1:0|1:0,0:0:0:0:
37,66,144588,6,0,B|6:110|6:110|28:181|28:181|25:188|25:188|32:192|32:192|54:255|54:255|61:260|61:260|58:266|58:266|79:332|79:332|38:387,1,360,0|8,0:0|1:1,0:0:0:0:
367,329,147114,6,0,L|511:342,2,135,8|2|2,1:0|1:3|1:3,0:0:0:0:
287,287,148377,2,0,P|242:286|201:316,1,89.9999999999999,10|0,1:0|0:0,0:0:0:0:
121,343,149009,6,2,B|102:269|102:269|79:262|79:262|98:185,1,180,4|8,1:0|1:0,0:1:0:0:
140,105,149956,1,2,0:0:0:0:
228,121,150272,2,0,P|252:162|256:206,1,89.9999999999999,2|2,0:0|1:2,0:0:0:0:
220,286,150904,1,8,1:0:0:0:
391,343,151535,6,0,B|410:269|410:269|433:262|433:262|414:185,1,180,4|8,1:0|1:0,0:0:0:0:
372,105,152482,1,2,0:0:0:0:
284,121,152798,2,0,P|260:162|256:206,1,89.9999999999999,2|2,0:0|0:3,0:0:0:0:
292,286,153430,2,0,B|186:275|238:353|131:342,1,180,10|0,1:0|1:0,0:0:0:0:
0,159,154851,6,0,B|40:163|40:163|101:34|101:34|145:29,1,225,4|0,1:2|1:0,0:0:0:0:
232,23,155956,2,0,B|313:6|336:103|308:209|228:188,1,270,8|0,1:0|0:0,0:0:0:0:
155,136,157219,6,0,L|16:121,2,135,8|2|2,1:0|1:3|1:3,0:0:0:0:
212,66,158483,2,0,P|252:50|300:65,1,89.9999999999999,10|0,1:0|0:0,0:0:0:0:
357,127,159114,6,2,B|363:212|363:212|358:213|358:213|363:212|363:212|370:297,1,180,4|8,1:0|1:0,0:1:0:0:
425,367,160061,1,2,0:0:0:0:
508,334,160377,2,0,P|518:289|502:250,1,89.9999999999999,2|2,0:0|1:2,0:0:0:0:
446,178,161009,1,8,1:0:0:0:
282,252,161640,6,0,P|236:236|213:199,1,89.9999999999999,4|2,1:0|0:3,0:0:0:0:
223,112,162272,2,0,B|159:118|159:118|151:122|151:122|86:128,2,135,8|4|4,1:0|1:0|1:2,0:0:0:0:
256,192,164009,12,2,168667,1:3:0:0:
