osu file format v14

[General]
AudioFilename: Ex Dee.mp3
AudioLeadIn: 0
PreviewTime: 54012
Countdown: 0
SampleSet: None
StackLeniency: 0.7
Mode: 0
LetterboxInBreaks: 0
WidescreenStoryboard: 1

[Editor]
Bookmarks: 16012,16512,17512,18512,19512,20512,21512,22512,23512,24512,25512,26512,27512,28512,29512,30512,31512,32512,33512,34512,35512,36512,37512,46012,52012,54012,54512,55012,55512,56012,56512,57012,57512,58012,58512,59012,59512,60012,60512,61012,61512,62012,62512,63012,63512,64012,64512,65012,65512,66012,66512,67012,67512,68012,68512,69012,69512,70012,70512,71012,71512,72012,72512,73012,73512,74012,74512,75012,75512,76012,76512,77012,77512,78012,78512,79012,79512,80012,80512,81012,81512,82012,82512,83012,83512,84012,84512,85012,85512,86012,96012,97012,98012,99012,100012,101012,102012,103012,104012,105012,106012,107012,108012,109012,110012,111012,112012,113012,114012,118012,119012,120012,122012,123012,124012,125012,126012,126512,127012,127512,128012,128262,128512,128762,129012,130012,130762,146012,162512,163512,164512,164637
DistanceSpacing: 0.8
BeatDivisor: 4
GridSize: 4
TimelineZoom: 4.299998

[Metadata]
Title:Ex Dee (xD)
TitleUnicode:Ex Dee (xD)
Artist:Ampyx
ArtistUnicode:Ampyx
Creator:What
Version::D
Source:
Tags:Haruna Shimakaze 랜타디
BeatmapID:2240070
BeatmapSetID:1070155

[Difficulty]
HPDrainRate:3
CircleSize:3
OverallDifficulty:2
ApproachRate:3
SliderMultiplier:1.4
SliderTickRate:1

[Events]
//Background and Video events
0,0,"BGBG.jpg",0,0
//Break Periods
2,37711,44572
//Storyboard Layer 0 (Background)
//Storyboard Layer 1 (Fail)
//Storyboard Layer 2 (Pass)
//Storyboard Layer 3 (Foreground)
//Storyboard Layer 4 (Overlay)
//Storyboard Sound Samples

[TimingPoints]
6012,500,4,1,1,40,1,0
14012,-100,4,1,1,50,0,0
22012,-100,4,1,1,70,0,0
38012,-100,4,1,1,70,0,0
50012,-100,4,1,1,90,0,0
52012,-400,4,1,1,5,0,0
53762,-100,4,1,1,100,0,0
54012,-100,4,1,1,100,0,1
86012,-100,4,1,1,40,0,0
100012,-100,4,1,1,50,0,0
101012,-100,4,1,1,60,0,0
101512,-100,4,1,1,70,0,0
102012,-100,4,1,1,70,0,0
120012,-100,4,1,1,73,0,0
122012,-100,4,1,1,80,0,0
124012,-100,4,1,1,83,0,0
125012,-100,4,1,1,86,0,0
126012,-100,4,1,1,92,0,0
127012,-100,4,1,1,94,0,0
127512,-100,4,1,1,97,0,0
128012,-100,4,1,1,100,0,0
130012,-100,4,1,1,100,0,1
162012,-100,4,1,1,100,0,0
169012,-100,4,1,1,5,0,0
169137,-100,4,1,1,90,0,0
172012,-100,4,1,1,90,0,0
172262,-100,4,1,1,80,0,0
172512,-100,4,1,1,70,0,0
172762,-100,4,1,1,60,0,0
173262,-100,4,1,1,50,0,0
174012,-100,4,1,1,40,0,0
174512,-100,4,1,1,30,0,0
175262,-100,4,1,1,20,0,0
177262,-100,4,1,1,10,0,0
182012,-100,4,1,1,5,0,0

[Colours]
Combo1 : 255,202,254
Combo2 : 251,187,117
Combo3 : 248,255,98
Combo4 : 138,253,167
Combo5 : 166,255,255

[HitObjects]
112,40,6012,6,0,P|48:160|96:288,1,280,0|8,0:0|0:0,0:0:0:0:
160,196,7512,1,2,0:0:0:0:
220,288,8012,2,0,P|267:160|203:40,1,280,0|8,0:0|0:0,0:0:0:0:
148,136,9512,1,2,0:0:0:0:
44,172,10012,6,0,P|71:235|131:267,2,140,0|2|8,0:0|0:0|0:0,0:0:0:0:
88,68,11512,1,2,0:0:0:0:
156,156,12012,2,0,P|208:108|228:28,2,140,0|2|8,0:0|0:0|0:0,0:0:0:0:
256,204,13512,1,2,0:0:0:0:
316,108,14012,6,0,B|351:107|391:119|423:183|387:239|387:239|343:275|367:323,1,280,0|8,0:0|0:0,0:0:0:0:
256,308,15512,1,2,0:0:0:0:
144,324,16012,2,0,B|168:276|124:240|124:240|88:184|120:120|160:108|200:108,1,280,0|8,0:0|0:0,0:0:0:0:
256,204,17512,1,2,0:0:0:0:
332,288,18012,6,0,B|404:276|436:204|436:204|404:132|332:120,1,280,0|8,0:0|0:0,0:0:0:0:
260,36,19512,1,2,0:0:0:0:
184,120,20012,2,0,B|112:132|80:204|80:204|112:276|184:288,1,280,0|8,0:0|0:0,0:0:0:0:
252,200,21512,1,2,0:0:0:0:
304,100,22012,6,2,P|348:144|360:220,3,140,0|2|8|2,0:0|0:0|0:0|0:0,0:0:0:0:
256,196,24012,2,0,P|220:260|160:284,3,140,0|2|8|2,0:0|0:0|0:0|0:0,0:0:0:0:
152,176,26012,2,0,B|84:160|84:160|52:92,1,140,0|2,0:0|0:0,0:0:0:0:
160,60,27012,2,0,B|228:76|228:76|260:144,1,140,8|2,0:0|0:0,0:0:0:0:
248,252,28012,2,0,P|314:242|360:188,1,140,0|2,0:0|0:0,0:0:0:0:
360,76,29012,2,0,P|424:96|464:156,1,140,8|2,0:0|0:0,0:0:0:0:
384,232,30012,6,0,P|448:268|512:256,3,140,0|2|8|2,0:0|0:0|0:0|0:0,0:0:0:0:
464,156,32012,2,0,P|428:92|368:68,3,140,0|2|8|2,0:0|0:0|0:0|0:0,0:0:0:0:
356,180,34012,2,0,P|292:200|244:264,1,140,0|2,0:0|0:0,0:0:0:0:
152,312,35012,2,0,P|208:352|284:360,1,140,8|2,0:0|0:0,0:0:0:0:
247,255,36012,2,0,B|227:219|227:219|159:207|159:207|135:171,1,140,0|2,0:0|0:0,0:0:0:0:
36,152,37012,2,0,P|72:88|140:72,1,140,8|2,0:0|0:0,0:0:0:0:
336,104,46012,6,0,P|260:96|204:132,3,140,0|2|8|4,0:0|0:0|0:0|0:0,0:0:0:0:
156,212,48012,2,0,P|232:220|288:184,3,140,0|2|8|4,0:0|0:0|0:0|0:0,0:0:0:0:
204,108,50012,1,0,0:0:0:0:
312,84,50512,1,2,0:0:0:0:
404,20,51012,2,0,P|424:88|400:152,1,140,8|4,0:0|0:0,0:0:0:0:
468,240,52012,6,0,L|328:240,1,140
276,140,54512,1,2,0:0:0:0:
252,32,55012,2,0,P|195:72|168:135,1,140,8|2,0:0|0:0,0:0:0:0:
140,244,56012,2,0,P|84:212|56:144,4,140,0|2|8|4|0,0:0|0:0|0:0|0:0|0:0,0:0:0:0:
168,135,58512,1,2,0:0:0:0:
196,28,59012,2,0,P|252:60|280:128,1,140,8|2,0:0|0:0,0:0:0:0:
204,208,60012,2,0,P|272:232|353:210,1,140,8|2,0:0|0:0,0:0:0:0:
448,212,61012,2,0,P|420:136|364:108,2,140,8|2|4,0:0|0:0|0:0,0:0:0:0:
340,216,62512,5,2,0:0:0:0:
400,308,63012,2,0,P|322:312|272:358,1,140,8|2,0:0|0:0,0:0:0:0:
180,292,64012,2,0,P|124:336|56:334,4,140,8|2|8|4|8,0:0|0:0|0:0|0:0|0:0,0:0:0:0:
92,228,66512,1,2,0:0:0:0:
92,228,67012,2,0,P|166:239|217:196,1,140,0|2,0:0|0:0,0:0:0:0:
276,112,68012,2,0,P|216:86|148:120,1,140,0|2,0:0|0:0,0:0:0:0:
220,204,69012,2,0,P|232:272|296:296,1,140,8|4,0:0|0:0,0:0:0:0:
404,288,70012,6,0,P|392:220|328:196,3,140,0|2|8|2,0:0|0:0|0:0|0:0,0:0:0:0:
296,88,72012,2,0,P|234:114|223:180,3,140,0|2|8|4,0:0|0:0|0:0|0:0,0:0:0:0:
324,232,74012,2,0,P|292:292|224:300,1,140,0|2,0:0|0:0,0:0:0:0:
220,188,75012,2,0,P|153:179|121:119,1,140,8|2,0:0|0:0,0:0:0:0:
228,92,76012,2,0,P|260:32|328:24,1,140,0|2,0:0|0:0,0:0:0:0:
324,136,77012,2,0,P|292:196|224:204,1,140,8|4,0:0|0:0,0:0:0:0:
228,92,78012,6,0,B|156:76|156:76|88:92,3,140,0|2|8|2,0:0|0:0|0:0|0:0,0:0:0:0:
164,176,80012,2,0,P|196:240|188:324,3,140,0|2|8|4,0:0|0:0|0:0|0:0,0:0:0:0:
88,264,82012,2,0,P|48:204|52:132,3,140,0|2|8|2,0:0|0:0|0:0|0:0,0:0:0:0:
156,180,84012,2,0,P|220:140|256:84,1,140,0|2,0:0|0:0,0:0:0:0:
364,56,85012,2,0,P|416:96|428:168,1,140,8|4,0:0|0:0,0:0:0:0:
316,152,86012,6,0,P|296:284|172:336,1,280,0|8,0:0|0:0,0:0:0:0:
184,224,87512,1,2,0:0:0:0:
72,244,88012,2,0,P|92:112|220:64,1,280,0|8,0:0|0:0,0:0:0:0:
256,168,89512,1,2,0:0:0:0:
172,240,90012,2,0,B|256:272|256:272|356:240|456:268,1,280,0|8,0:0|0:0,0:0:0:0:
372,176,91512,1,2,0:0:0:0:
304,88,92012,2,0,B|220:56|220:56|120:88|20:60,1,280,0|8,0:0|0:0,0:0:0:0:
72,168,93512,1,2,0:0:0:0:
72,280,94012,6,0,P|128:312|200:296,3,140,0|2|8|2,0:0|0:0|0:0|0:0,0:0:0:0:
144,200,96012,2,0,P|200:168|272:184,3,140,0|2|8|2,0:0|0:0|0:0|0:0,0:0:0:0:
232,288,98012,2,0,P|298:303|358:271,3,140,0|2|8|2,0:0|0:0|0:0|0:0,0:0:0:0:
288,184,100012,2,0,P|352:152|360:84,1,140,0|2,0:0|0:0,0:0:0:0:
248,84,101012,2,0,P|186:112|174:178,1,140,8|2,0:0|0:0,0:0:0:0:
288,184,102012,6,0,P|352:220|416:184,3,140,0|2|8|2,0:0|0:0|0:0|0:0,0:0:0:0:
352,100,104012,2,0,P|288:64|224:100,1,140,0|2,0:0|0:0,0:0:0:0:
136,32,105012,2,0,P|156:164|284:200,1,280,8|4,0:0|0:0,0:0:0:0:
384,152,106512,2,0,P|376:232|352:292,2,140,2|8|2,0:0|0:0|0:0,0:0:0:0:
280,196,108012,2,0,P|208:180|160:136,1,140,0|2,0:0|0:0,0:0:0:0:
244,76,109012,2,0,P|116:52|56:168,1,280,8|4,0:0|0:0,0:0:0:0:
168,152,110512,6,0,P|208:208|276:240,2,140,2|8|2,0:0|0:0|0:0,0:0:0:0:
280,132,112012,2,0,P|332:88|408:72,1,140,0|2,0:0|0:0,0:0:0:0:
380,180,113012,2,0,P|360:312|232:348,1,280,8|4,0:0|0:0,0:0:0:0:
288,252,114512,2,0,P|220:236|152:252,2,140,2|8|2,0:0|0:0|0:0,0:0:0:0:
220,164,116012,2,0,L|220:24,1,140,0|2,0:0|0:0,0:0:0:0:
116,72,117012,2,0,B|28:212|168:336,1,280,8|4,0:0|0:0,0:0:0:0:
228,236,118512,6,0,P|296:236|348:188,2,140,2|8|2,0:0|0:0|0:0,0:0:0:0:
260,128,120012,2,0,P|310:81|379:81,1,140,0|2,0:0|0:0,0:0:0:0:
444,176,121012,2,0,P|444:248|392:304,1,140,8|2,0:0|0:0,0:0:0:0:
336,208,122012,6,0,P|268:208|208:168,1,140,0|2,0:0|0:0,0:0:0:0:
276,80,123012,2,0,P|211:54|143:66,1,140,0|2,0:0|0:0,0:0:0:0:
32,68,124012,6,0,P|55:132|112:172,1,140,0|2,0:0|0:0,0:0:0:0:
140,280,125012,6,0,P|200:236|224:176,1,140,0|2,0:0|0:0,0:0:0:0:
208,64,126012,6,0,P|280:60|312:117,3,140,2|2|2|2,0:0|0:0|0:0|0:0,0:0:0:0:
223,176,128012,6,2,L|251:244,4,70
424,72,130012,6,0,P|384:128|312:148,3,140,4|2|8|2,0:0|0:0|0:0|0:0,0:0:0:0:
312,36,132012,2,0,P|246:56|206:112,3,140,0|2|8|4,0:0|0:0|0:0|0:0,0:0:0:0:
312,152,134012,2,0,P|272:208|200:228,3,140,0|2|8|2,0:0|0:0|0:0|0:0,0:0:0:0:
112,288,136012,2,0,P|172:332|236:332,1,140,0|2,0:0|0:0,0:0:0:0:
348,324,137012,2,0,P|404:280|472:280,1,140,8|4,0:0|0:0,0:0:0:0:
432,172,138012,6,0,P|392:116|320:96,3,140,0|2|8|2,0:0|0:0|0:0|0:0,0:0:0:0:
324,208,140012,2,0,P|268:244|204:216,3,140,0|2|8|4,0:0|0:0|0:0|0:0,0:0:0:0:
196,104,142012,2,0,P|130:124|90:180,3,140,0|2|8|2,0:0|0:0|0:0|0:0,0:0:0:0:
4,252,144012,2,0,P|68:288|136:288,1,140,0|2,0:0|0:0,0:0:0:0:
236,332,145012,2,0,P|300:296|368:296,1,140,8|4,0:0|0:0,0:0:0:0:
396,188,146012,6,0,P|460:164|500:100,3,140,0|2|8|2,0:0|0:0|0:0|0:0,0:0:0:0:
392,76,148012,2,0,P|329:47|256:64,3,140,0|2|8|4,0:3|0:0|0:3|0:0,0:0:0:0:
316,160,150012,2,0,P|260:200|188:184,3,140,0|2|8|2,0:0|0:0|0:0|0:0,0:0:0:0:
128,96,152012,2,0,P|84:152|84:224,3,140,0|2|8|4,0:0|0:0|0:0|0:0,0:0:0:0:
56,328,154012,6,0,B|124:320|124:320|184:264,1,140,0|2,0:0|0:0,0:0:0:0:
173,155,155012,2,0,P|240:172|280:228,1,140,8|2,0:0|0:0,0:0:0:0:
256,340,156012,2,0,B|327:332|327:332|376:284,1,140,0|2,0:0|0:0,0:0:0:0:
488,304,157012,2,0,B|464:192|348:176|348:176|296:120,1,280,8|4,0:0|0:0,0:0:0:0:
220,204,158512,2,0,P|154:218|95:181,2,140,2|8|2,0:0|0:0|0:0,0:0:0:0:
192,92,160012,2,0,P|257:77|316:114,1,140,0|2,0:0|0:0,0:0:0:0:
416,64,161012,2,0,P|400:192|264:216,1,280,8|4,0:0|0:0,0:0:0:0:
224,320,162512,6,0,P|164:280|144:212,2,140,2|8|2,0:0|0:0|0:0,0:0:0:0:
264,216,164012,2,0,P|328:228|400:208,1,140,0|2,0:0|0:0,0:0:0:0:
324,124,165012,2,0,P|261:84|193:78,2,140,8|2|4,0:0|0:0|0:0,0:0:0:0:
232,188,166512,2,0,P|216:260|172:312,1,140,2|8,0:0|0:0,0:0:0:0:
124,212,167512,2,0,P|88:155|80:84,1,140,2|8,0:0|0:0,0:0:0:0:
184,124,168512,2,0,P|316:98|417:188,1,280,2|4,0:0|0:0,0:0:0:0:
508,252,170012,6,0,P|452:296|384:296,1,140,0|2,0:0|0:0,0:0:0:0:
328,200,171012,2,0,P|281:257|276:329,2,140,8|2|0,0:0|0:0|0:0,0:0:0:0:
436,168,172512,2,0,P|392:104|328:84,3,140,2|8|2|4,0:0|0:0|0:0|0:0,0:0:0:0:
252,160,174512,2,0,P|220:100|232:28,1,140,2|8,0:0|0:0,0:0:0:0:
144,104,175512,2,0,P|72:92|4:104,1,140,2|8,0:0|0:0,0:0:0:0:
76,192,176512,2,0,P|84:264|120:328,2,140,2|8|0,0:0|0:0|0:0,0:0:0:0:
256,192,178012,12,0,182762,0:0:0:0:
