osu file format v14

[General]
AudioFilename: audio.mp3
AudioLeadIn: 0
PreviewTime: -1
Countdown: 0
SampleSet: None
StackLeniency: 0.7
Mode: 0
LetterboxInBreaks: 0
WidescreenStoryboard: 1

[Editor]
Bookmarks: 14013,22013,30013,38013,46013,53638,53763,58013,86013,100013
DistanceSpacing: 1.1
BeatDivisor: 4
GridSize: 8
TimelineZoom: 1

[Metadata]
Title:Ex Dee
TitleUnicode:Ex Dee
Artist:Ampyx
ArtistUnicode:Ampyx
Creator:Kay-
Version:XD
Source:ampyx
Tags:RTD
BeatmapID:1860615
BeatmapSetID:890090

[Difficulty]
HPDrainRate:6
CircleSize:4
OverallDifficulty:7
ApproachRate:8.7
SliderMultiplier:2.2
SliderTickRate:1

[Events]
//Background and Video events
0,0,"272514.jpg",0,0
//Break Periods
2,38213,45368
//Storyboard Layer 0 (Background)
//Storyboard Layer 1 (Fail)
//Storyboard Layer 2 (Pass)
//Storyboard Layer 3 (Foreground)
//Storyboard Sound Samples

[TimingPoints]
6013,500,4,1,0,50,1,0
30763,-66.6666666666667,4,1,0,50,0,0
31263,-100,4,1,0,50,0,0
46013,-83.3333333333333,4,1,0,50,0,0
52013,-66.6666666666667,4,1,0,20,0,0
54013,-83.3333333333333,4,1,0,50,0,0

[Colours]
Combo1 : 255,0,0
Combo2 : 0,64,128
Combo3 : 128,255,255

[HitObjects]
161,168,6013,6,0,L|154:246,2,55
225,285,6513,2,0,P|239:232|245:178,1,110
145,325,6888,2,0,P|208:372|299:338,1,165
445,257,7513,1,0,0:0:0:0:
445,257,8013,6,0,P|439:319|448:381,1,110
495,183,8513,2,0,P|501:121|492:59,1,110
417,26,8888,2,0,B|333:-4|346:63|255:15,1,165
258,16,9513,2,0,P|259:60|266:97,1,55
176,178,9763,2,0,P|175:134|168:97,1,55
63,100,10013,6,0,P|64:56|71:19,2,55
40,286,10513,2,0,P|53:344|102:375,1,110
238,345,10888,2,0,B|201:316|193:277|193:277|164:304|106:297,1,165
277,267,11513,1,0,0:0:0:0:
277,267,12013,6,0,P|349:271|394:297,1,110
460,72,12513,2,0,P|438:122|439:176,1,110
463,277,12888,2,0,P|443:342|341:358,1,165
356,364,13513,2,0,P|302:356|274:362,1,55
146,304,13763,2,0,P|200:296|228:302,1,55
362,230,14013,6,0,P|308:222|280:228,2,55
501,202,14513,2,0,P|492:278|505:326,1,110
418,159,14888,2,0,B|402:115|416:78|416:78|432:38|415:-12,1,165
493,115,15513,1,0,0:0:0:0:
493,115,16013,6,0,P|422:112|366:130,1,110
200,187,16513,2,0,P|145:191|91:180,1,110
47,59,16888,2,0,B|52:100|29:135|29:135|5:172|24:219,1,165
23,216,17513,2,0,P|34:261|29:300,1,55
136,366,17763,2,0,P|138:338|147:312,1,55
286,251,18013,6,0,P|297:296|292:335,2,55
195,106,18513,2,0,P|200:38|222:-10,1,110
420,37,18888,2,0,B|395:75|351:77|351:77|308:58|271:70,1,165
33,137,19513,2,0,P|87:144|141:134,1,110
305,143,20013,5,0,0:0:0:0:
129,55,20263,1,0,0:0:0:0:
78,225,20513,2,0,P|79:283|93:353,1,110
219,355,20888,2,0,B|287:359|276:278|372:287,1,165
361,286,21513,2,0,P|357:258|346:233,1,55
469,172,21763,2,0,P|472:144|483:119,1,55
350,17,22013,6,0,P|361:42|364:69,2,55
86,94,22513,2,0,P|162:93|214:102,1,110
266,210,22888,2,0,B|250:181|269:136|269:136|286:96|263:49,1,165
34,33,23513,2,0,P|7:86|37:159,1,110
117,297,24013,5,0,0:0:0:0:
86,94,24263,1,0,0:0:0:0:
75,371,24513,2,0,P|141:372|199:348,1,110
341,362,24888,2,0,P|278:342|179:358,1,165
181,357,25513,2,0,P|172:320|175:282,1,55
290,169,25763,2,0,P|277:193|258:213,1,55
85,254,26013,5,0,0:0:0:0:
85,254,26138,1,0,0:0:0:0:
85,254,26263,2,0,P|18:207|0:180,1,110
102,0,26763,1,0,0:0:0:0:
102,0,26888,2,0,B|93:58|93:58|98:97|98:97|92:163,1,165
169,344,27513,2,0,P|169:289|156:230,1,110
172,50,28013,5,0,0:0:0:0:
72,244,28263,1,0,0:0:0:0:
258,320,28513,2,0,P|324:305|386:320,1,110
403,356,28888,1,0,0:0:0:0:
463,262,29013,2,0,P|469:189|456:142,1,110
388,15,29513,2,0,P|380:47|387:86,1,55
255,186,29763,2,0,P|275:160|285:122,1,55
219,7,30013,5,0,0:0:0:0:
207,4,30138,1,0,0:0:0:0:
190,5,30263,2,0,P|112:29|82:58,1,110
74,248,30763,2,0,L|66:145,1,82.5000031471254
67,165,31263,2,0,L|76:276,1,110
41,365,31763,1,0,0:0:0:0:
214,342,32013,6,0,B|275:326|264:361|322:337,1,110
479,346,32513,2,0,B|418:362|429:327|371:351,1,110
293,264,32888,2,0,P|375:237|460:291,1,165
442,268,33513,2,0,P|479:243|496:212,1,55
370,74,33763,2,0,P|361:117|371:151,1,55
484,235,34013,6,0,P|492:191|482:157,2,55
389,349,34513,2,0,P|360:342|264:351,1,110
181,302,34888,2,0,B|124:287|90:306|90:306|43:304|23:254,1,165
88,107,35513,2,0,P|100:160|96:214,1,110
26,27,36013,6,0,P|95:12|154:25,1,110
307,90,36513,2,0,P|359:104|414:99,1,110
483,52,36888,2,0,B|504:98|486:134|486:134|465:173|489:228,1,165
482,211,37513,2,0,P|497:247|494:281,1,55
357,316,37763,2,0,P|372:293|395:277,1,55
489,373,38013,1,0,0:0:0:0:
116,286,46013,6,0,P|124:236|116:186,1,65.9999979858399
37,85,46263,2,0,P|66:126|107:155,1,65.9999979858399
194,154,46513,1,0,0:0:0:0:
241,164,46638,1,0,0:0:0:0:
289,157,46763,1,0,0:0:0:0:
332,134,46888,1,0,0:0:0:0:
364,97,47013,6,0,P|391:60|401:15,1,65.9999979858399
465,165,47263,2,0,P|477:195|498:221,1,65.9999979858399
436,336,47513,1,0,0:0:0:0:
395,361,47638,1,0,0:0:0:0:
347,370,47763,1,0,0:0:0:0:
299,358,47888,1,0,0:0:0:0:
260,330,48013,6,0,P|216:324|181:335,1,65.9999979858399
92,200,48263,2,0,P|98:244|87:279,1,65.9999979858399
60,81,48513,2,0,P|55:48|61:16,1,65.9999979858399
180,168,48763,2,0,P|206:148|224:120,1,65.9999979858399
325,19,49013,5,0,0:0:0:0:
372,12,49138,1,0,0:0:0:0:
418,28,49263,1,0,0:0:0:0:
452,62,49388,1,0,0:0:0:0:
465,109,49513,2,0,P|477:166|475:219,1,65.9999979858399
345,290,49763,2,0,P|348:257|356:225,1,65.9999979858399
496,338,50013,6,0,P|449:354|404:354,1,65.9999979858399
299,360,50263,2,0,P|275:338|262:309,1,65.9999979858399
398,155,50513,2,0,P|422:177|436:207,1,65.9999979858399
335,96,50763,2,0,P|368:72|420:77,1,65.9999979858399
251,214,51013,6,0,P|218:238|166:233,1,65.9999979858399
70,105,51263,2,0,P|94:138|89:190,1,65.9999979858399
58,281,51513,1,0,0:0:0:0:
73,326,51638,1,0,0:0:0:0:
108,359,51763,1,0,0:0:0:0:
155,372,51888,1,0,0:0:0:0:
202,362,52013,1,0,0:0:0:0:
202,362,53763,2,0,P|252:346|307:359,1,82.5000031471254
337,357,54013,5,0,0:0:0:0:
441,210,54263,2,0,B|435:248|445:274|445:274|455:302|446:340,2,131.99999597168
419,161,54888,1,0,0:0:0:0:
446,118,55013,2,0,P|436:51|384:7,1,131.99999597168
137,74,55513,1,0,0:0:0:0:
359,98,55763,1,0,0:0:0:0:
49,160,56013,5,0,0:0:0:0:
142,325,56263,2,0,L|130:187,2,131.99999597168
187,357,56888,1,0,0:0:0:0:
242,361,57013,2,0,P|310:360|351:312,1,131.99999597168
315,234,57388,2,0,P|288:252|269:279,1,65.9999979858399
451,265,57638,2,0,P|447:224|424:184,1,65.9999979858399
358,127,57888,1,0,0:0:0:0:
358,127,58013,6,0,P|361:45|367:-12,1,131.99999597168
489,115,58513,1,0,0:0:0:0:
342,202,58763,2,0,P|310:185|283:143,1,65.9999979858399
219,112,59013,2,0,P|208:177|161:228,1,131.99999597168
52,260,59513,1,0,0:0:0:0:
249,320,59763,1,0,0:0:0:0:
155,63,60013,5,0,0:0:0:0:
97,244,60263,2,0,P|92:166|74:101,1,131.99999597168
25,0,60763,2,0,P|15:46|14:80,1,65.9999979858399
13,64,61263,6,0,P|15:108|1:154,1,65.9999979858399
145,226,61513,2,0,P|171:245|192:270,1,65.9999979858399
96,168,61763,2,0,P|74:199|72:244,1,65.9999979858399
208,350,62013,6,0,P|255:315|260:227,1,131.99999597168
199,46,62513,1,0,0:0:0:0:
253,160,62763,1,0,0:0:0:0:
253,160,62888,2,0,P|265:52|352:-4,1,197.99999395752
509,64,63513,1,0,0:0:0:0:
339,107,63763,1,0,0:0:0:0:
453,300,64013,6,0,B|442:235|484:237|455:157,2,131.99999597168
324,218,64763,2,0,P|355:205|388:206,1,65.9999979858399
388,206,65263,6,0,P|374:160|382:117,1,65.9999979858399
190,133,65513,2,0,P|232:110|257:74,1,65.9999979858399
455,64,65763,2,0,P|422:67|390:59,1,65.9999979858399
339,46,66013,5,0,0:0:0:0:
171,44,66263,2,0,B|99:17|110:71|36:37,2,131.99999597168
217,74,66888,1,0,0:0:0:0:
217,74,67013,1,0,0:0:0:0:
141,245,67263,2,0,P|134:165|142:88,1,131.99999597168
204,311,67763,1,0,0:0:0:0:
290,145,68013,5,0,0:0:0:0:
93,227,68263,1,0,0:0:0:0:
295,328,68513,1,0,0:0:0:0:
369,162,68763,2,0,P|364:116|345:81,1,65.9999979858399
356,98,69263,6,0,P|348:48|356:14,1,65.9999979858399
446,136,69513,2,0,P|447:168|439:200,1,65.9999979858399
299,293,69763,2,0,P|315:264|340:242,1,65.9999979858399
487,266,70013,1,0,0:0:0:0:
267,203,70263,5,0,0:0:0:0:
428,56,70513,1,0,0:0:0:0:
323,258,70763,2,0,P|282:284|246:277,1,65.9999979858399
148,220,71013,1,0,0:0:0:0:
148,220,71263,2,0,P|152:313|169:357,2,131.99999597168
182,28,72013,5,0,0:0:0:0:
230,209,72263,1,0,0:0:0:0:
227,10,72513,1,0,0:0:0:0:
183,226,72763,2,0,P|183:264|171:313,1,65.9999979858399
178,291,73263,6,0,P|127:289|92:303,1,65.9999979858399
293,224,73513,2,0,P|344:226|379:212,1,65.9999979858399
199,117,73763,2,0,P|166:121|134:115,1,65.9999979858399
315,28,74013,6,0,P|388:22|458:52,1,131.99999597168
421,162,74513,2,0,P|416:248|434:300,1,131.99999597168
468,326,74888,1,0,0:0:0:0:
468,326,75013,2,0,P|388:320|335:332,1,131.99999597168
193,352,75513,1,0,0:0:0:0:
75,266,75763,1,0,0:0:0:0:
154,105,76013,6,0,B|150:136|164:170|164:170|177:203|169:235,2,131.99999597168
275,77,76763,2,0,P|260:106|233:125,1,65.9999979858399
233,124,77263,6,0,P|224:167|228:201,1,65.9999979858399
389,232,77513,2,0,P|364:195|338:174,1,65.9999979858399
160,229,77763,2,0,P|190:255|240:265,1,65.9999979858399
389,232,78013,6,0,P|397:152|383:90,1,131.99999597168
463,4,78513,1,0,0:0:0:0:
300,86,78763,1,0,0:0:0:0:
300,86,78888,1,0,0:0:0:0:
300,86,79013,2,0,P|212:100|154:91,1,131.99999597168
26,33,79513,1,0,0:0:0:0:
151,173,79763,1,0,0:0:0:0:
189,13,80013,5,0,0:0:0:0:
69,173,80263,2,0,L|76:316,1,131.99999597168
215,326,80763,2,0,P|151:340|124:323,1,65.9999979858399
153,340,81263,6,0,P|160:281|181:251,1,65.9999979858399
342,228,81513,2,0,P|319:252|290:267,1,65.9999979858399
182,145,81763,2,0,P|204:168|218:198,1,65.9999979858399
101,133,82013,6,0,P|127:87|213:70,1,131.99999597168
345,67,82513,1,0,0:0:0:0:
461,153,82763,2,0,P|471:200|467:235,1,65.9999979858399
437,282,83013,1,0,0:0:0:0:
437,282,83263,2,0,L|271:303,2,131.99999597168
497,368,84013,5,0,0:0:0:0:
496,174,84263,1,0,0:0:0:0:
372,325,84513,1,0,0:0:0:0:
429,130,84763,2,0,P|467:99|512:96,1,65.9999979858399
482,95,85263,6,0,L|481:23,1,65.9999979858399
320,123,85513,2,0,L|319:189,1,65.9999979858399
169,100,85763,2,0,L|170:27,1,65.9999979858399
173,0,86013,5,0,0:0:0:0:
