osu file format v14

[General]
AudioFilename: audio.mp3
AudioLeadIn: 0
PreviewTime: 60768
Countdown: 0
SampleSet: Normal
StackLeniency: 0.7
Mode: 1
LetterboxInBreaks: 0
WidescreenStoryboard: 0

[Editor]
DistanceSpacing: 2
BeatDivisor: 4
GridSize: 32
TimelineZoom: 2.600005

[Metadata]
Title:Twilight of the Thunder God
TitleUnicode:Twilight of the Thunder God
Artist:Amon Amarth
ArtistUnicode:Amon Amarth
Creator:frukoyurdakul
Version:Kantan
Source:
Tags:death metal stream viking IControl
BeatmapID:1224767
BeatmapSetID:531697

[Difficulty]
HPDrainRate:7
CircleSize:2
OverallDifficulty:2
ApproachRate:10
SliderMultiplier:1.2
SliderTickRate:1

[Events]
//Background and Video events
0,0,"10235f-lightning-photo-high-quality.jpg",0,0
//Break Periods
//Storyboard Layer 0 (Background)
//Storyboard Layer 1 (Fail)
//Storyboard Layer 2 (Pass)
//Storyboard Layer 3 (Foreground)
//Storyboard Sound Samples

[TimingPoints]
674,313.807531380753,4,1,0,80,1,0
15736,-100,4,1,0,90,0,0
60925,-100,4,1,0,90,0,1
81008,-100,4,1,0,90,0,0
106113,-100,4,1,0,90,0,1
126197,-100,4,1,0,90,0,0
131217,314.033195229127,4,1,0,90,1,0
131217,-99.009900990099,4,1,0,90,0,0
131531,-99.009900990099,4,1,0,50,0,0
135612,-99.009900990099,4,1,0,90,0,0
136397,-99.009900990099,4,1,0,50,0,0
156338,313.725490196078,4,1,0,45,1,0
156338,-101.010101010101,4,1,0,60,0,0
166377,-101.010101010101,4,1,0,70,0,0
176416,-101.010101010101,4,1,0,80,0,0
186455,313.807531380753,4,1,0,45,1,0
186455,-100,4,1,0,90,0,0
186611,-100,4,1,0,60,0,0
188494,-100,4,1,0,90,0,0
189122,-100,4,1,0,60,0,0
190690,-100,4,1,0,90,0,0
191632,-100,4,1,0,60,0,0
193514,-100,4,1,0,90,0,0
216580,-100,4,1,0,90,0,1
236664,-100,4,1,0,90,0,0

[HitObjects]
160,288,674,5,4,0:0:0:0:
352,96,3184,1,8,0:0:0:0:
160,96,4439,1,0,0:0:0:0:
352,96,5067,1,8,0:0:0:0:
160,288,5694,1,4,0:0:0:0:
160,96,8205,1,0,0:0:0:0:
160,96,10088,1,0,0:0:0:0:
160,288,10715,1,4,0:0:0:0:
352,96,13226,1,8,0:0:0:0:
160,288,14481,1,4,0:0:0:0:
352,288,15109,1,12,0:0:0:0:
352,96,15736,1,8,0:0:0:0:
352,96,16678,1,8,0:0:0:0:
352,96,17619,1,8,0:0:0:0:
352,96,18247,1,8,0:0:0:0:
352,96,19188,1,8,0:0:0:0:
160,96,20130,1,0,0:0:0:0:
160,288,20757,1,4,0:0:0:0:
160,96,21699,1,0,0:0:0:0:
160,96,22640,1,0,0:0:0:0:
352,96,23268,1,8,0:0:0:0:
160,96,24523,1,0,0:0:0:0:
352,96,25150,1,8,0:0:0:0:
160,96,25778,1,0,0:0:0:0:
160,96,26720,1,0,0:0:0:0:
160,96,27661,1,0,0:0:0:0:
160,96,28289,1,0,0:0:0:0:
352,96,29544,1,8,0:0:0:0:
160,96,30171,1,0,0:0:0:0:
160,288,30799,1,4,0:0:0:0:
160,96,31740,1,0,0:0:0:0:
352,96,32682,1,8,0:0:0:0:
160,96,33309,1,0,0:0:0:0:
160,96,34565,1,0,0:0:0:0:
352,96,35192,1,8,0:0:0:0:
160,288,35820,1,4,0:0:0:0:
160,96,36761,1,0,0:0:0:0:
352,96,37703,1,8,0:0:0:0:
352,96,38330,1,8,0:0:0:0:
352,96,39586,1,8,0:0:0:0:
160,96,40213,1,0,0:0:0:0:
160,288,40841,1,4,0:0:0:0:
352,96,42096,1,8,0:0:0:0:
352,96,43351,1,8,0:0:0:0:
352,96,43979,1,8,0:0:0:0:
160,96,44607,1,0,0:0:0:0:
352,96,45234,1,8,0:0:0:0:
160,288,45862,1,4,0:0:0:0:
352,96,47117,1,8,0:0:0:0:
352,96,48372,1,8,0:0:0:0:
160,96,49000,1,0,0:0:0:0:
160,96,49627,1,0,0:0:0:0:
160,96,50255,1,0,0:0:0:0:
160,288,50883,1,4,0:0:0:0:
352,96,52138,1,8,0:0:0:0:
160,96,52766,1,0,0:0:0:0:
352,96,53393,1,8,0:0:0:0:
160,96,54021,1,0,0:0:0:0:
352,96,54648,1,8,0:0:0:0:
160,288,55904,1,4,0:0:0:0:
352,96,57158,1,8,0:0:0:0:
160,96,57786,1,0,0:0:0:0:
352,96,58414,1,8,0:0:0:0:
160,96,59669,1,0,0:0:0:0:
160,96,60297,1,0,0:0:0:0:
160,288,60925,1,4,0:0:0:0:
352,96,61552,1,8,0:0:0:0:
160,96,62180,1,0,0:0:0:0:
352,96,63121,1,8,0:0:0:0:
352,96,63435,1,8,0:0:0:0:
352,96,63749,1,8,0:0:0:0:
160,96,64690,1,0,0:0:0:0:
352,96,65318,1,8,0:0:0:0:
160,96,65945,1,0,0:0:0:0:
160,96,66573,1,0,0:0:0:0:
352,96,67201,1,8,0:0:0:0:
160,96,67828,1,0,0:0:0:0:
352,96,68456,1,8,0:0:0:0:
352,288,69397,1,12,0:0:0:0:
352,288,69711,1,12,0:0:0:0:
352,288,70339,1,12,0:0:0:0:
160,288,70966,1,4,0:0:0:0:
160,96,72222,1,0,0:0:0:0:
352,96,73163,1,8,0:0:0:0:
352,96,73477,1,8,0:0:0:0:
352,96,73791,1,8,0:0:0:0:
160,96,74732,1,0,0:0:0:0:
352,96,75360,1,8,0:0:0:0:
160,288,75987,1,4,0:0:0:0:
352,96,76615,1,8,0:0:0:0:
352,96,77243,1,8,0:0:0:0:
352,96,77870,1,8,0:0:0:0:
160,288,78498,1,4,0:0:0:0:
352,288,79439,1,12,0:0:0:0:
352,288,80067,1,12,0:0:0:0:
352,288,80694,1,12,0:0:0:0:
160,288,81008,1,4,0:0:0:0:
352,96,81950,1,8,0:0:0:0:
352,96,82891,1,8,0:0:0:0:
352,96,83519,1,8,0:0:0:0:
352,96,84460,1,8,0:0:0:0:
160,96,85402,1,0,0:0:0:0:
160,288,86029,1,4,0:0:0:0:
160,96,86657,1,0,0:0:0:0:
352,96,87284,1,8,0:0:0:0:
352,96,87912,1,8,0:0:0:0:
160,96,88540,1,0,0:0:0:0:
160,96,89795,1,0,0:0:0:0:
352,96,90422,1,8,0:0:0:0:
160,288,91050,1,4,0:0:0:0:
160,96,92305,1,0,0:0:0:0:
160,96,92933,1,0,0:0:0:0:
352,96,93561,1,8,0:0:0:0:
352,96,94816,1,8,0:0:0:0:
160,96,95443,1,0,0:0:0:0:
160,288,96071,1,4,0:0:0:0:
352,96,96699,1,8,0:0:0:0:
352,96,97326,1,8,0:0:0:0:
352,96,97954,1,8,0:0:0:0:
160,96,98581,1,0,0:0:0:0:
352,96,99837,1,8,0:0:0:0:
352,96,100464,1,8,0:0:0:0:
160,288,101092,1,4,0:0:0:0:
352,96,101720,1,8,0:0:0:0:
160,96,102347,1,0,0:0:0:0:
160,96,102975,1,0,0:0:0:0:
352,96,103602,1,8,0:0:0:0:
352,96,104858,1,8,0:0:0:0:
160,96,105485,1,0,0:0:0:0:
160,288,106113,1,4,0:0:0:0:
352,96,106740,1,8,0:0:0:0:
160,96,107368,1,0,0:0:0:0:
352,96,108309,1,8,0:0:0:0:
352,96,108623,1,8,0:0:0:0:
352,96,108937,1,8,0:0:0:0:
352,96,109879,1,8,0:0:0:0:
352,96,110506,1,8,0:0:0:0:
160,96,111134,1,0,0:0:0:0:
160,96,111761,1,0,0:0:0:0:
352,96,112389,1,8,0:0:0:0:
160,96,113330,1,0,0:0:0:0:
160,96,113644,1,0,0:0:0:0:
352,288,114586,1,12,0:0:0:0:
352,288,115213,1,12,0:0:0:0:
352,288,115841,1,12,0:0:0:0:
352,288,116155,1,12,0:0:0:0:
160,96,117410,1,0,0:0:0:0:
352,96,118351,1,8,0:0:0:0:
352,96,118665,1,8,0:0:0:0:
352,96,118979,1,8,0:0:0:0:
352,96,119920,1,8,0:0:0:0:
160,96,120548,1,0,0:0:0:0:
352,288,121176,1,12,0:0:0:0:
160,96,121803,1,0,0:0:0:0:
352,96,122431,1,8,0:0:0:0:
160,288,123686,1,4,0:0:0:0:
352,288,124627,1,12,0:0:0:0:
352,288,125255,1,12,0:0:0:0:
352,288,125883,1,12,0:0:0:0:
160,288,126197,1,4,0:0:0:0:
352,96,127138,1,8,0:0:0:0:
160,96,128079,1,0,0:0:0:0:
352,96,128707,1,8,0:0:0:0:
160,96,129648,1,0,0:0:0:0:
160,96,130590,1,0,0:0:0:0:
160,288,131217,1,4,0:0:0:0:
160,96,132473,1,0,0:0:0:0:
352,96,133101,1,8,0:0:0:0:
160,96,133729,1,0,0:0:0:0:
32,192,134357,2,0,L|288:192,2,237.551987196845
160,96,135613,1,0,0:0:0:0:
160,288,136241,1,4,0:0:0:0:
352,96,137497,1,8,0:0:0:0:
160,96,138753,1,0,0:0:0:0:
160,96,140009,1,0,0:0:0:0:
352,96,140637,1,8,0:0:0:0:
160,288,141266,1,4,0:0:0:0:
352,96,142522,1,8,0:0:0:0:
160,96,143778,1,0,0:0:0:0:
160,96,145034,1,0,0:0:0:0:
352,96,145662,1,8,0:0:0:0:
160,96,146290,1,0,0:0:0:0:
352,288,146918,1,12,0:0:0:0:
352,288,148174,1,12,0:0:0:0:
352,288,149430,1,12,0:0:0:0:
160,96,150058,1,0,0:0:0:0:
352,96,150687,1,8,0:0:0:0:
160,288,151315,1,4,0:0:0:0:
352,288,151943,1,12,0:0:0:0:
352,288,153199,1,12,0:0:0:0:
352,288,154455,1,12,0:0:0:0:
160,96,155083,1,0,0:0:0:0:
352,288,155711,1,12,0:0:0:0:
160,288,156339,1,4,0:0:0:0:
352,96,157592,1,8,0:0:0:0:
160,96,158847,1,0,0:0:0:0:
352,96,160102,1,8,0:0:0:0:
160,96,160730,1,0,0:0:0:0:
352,96,161357,1,8,0:0:0:0:
160,96,162612,1,0,0:0:0:0:
160,96,163867,1,0,0:0:0:0:
160,96,165122,1,0,0:0:0:0:
352,96,165749,1,8,0:0:0:0:
160,288,166377,1,4,0:0:0:0:
352,288,167632,1,12,0:0:0:0:
160,288,168887,1,4,0:0:0:0:
352,96,170141,1,8,0:0:0:0:
160,96,170769,1,0,0:0:0:0:
160,288,171396,1,4,0:0:0:0:
352,288,172024,1,12,0:0:0:0:
352,288,173279,1,12,0:0:0:0:
352,288,174534,1,12,0:0:0:0:
160,96,175161,1,0,0:0:0:0:
352,96,175788,1,8,0:0:0:0:
160,288,176416,1,4,0:0:0:0:
352,96,177043,1,8,0:0:0:0:
352,96,177671,1,8,0:0:0:0:
352,96,178298,1,8,0:0:0:0:
160,96,178926,1,0,0:0:0:0:
352,96,179553,1,8,0:0:0:0:
352,96,180181,1,8,0:0:0:0:
160,96,180494,1,0,0:0:0:0:
352,96,180808,1,8,0:0:0:0:
160,96,181122,1,0,0:0:0:0:
352,288,181436,1,12,0:0:0:0:
352,96,182690,1,8,0:0:0:0:
352,96,183318,1,8,0:0:0:0:
160,288,183945,1,4,0:0:0:0:
160,288,184573,1,4,0:0:0:0:
352,96,185200,1,8,0:0:0:0:
352,96,185514,1,8,0:0:0:0:
352,96,185828,1,8,0:0:0:0:
352,96,186141,1,8,0:0:0:0:
160,288,186455,1,4,0:0:0:0:
160,288,188651,1,4,0:0:0:0:
160,288,188965,1,4,0:0:0:0:
352,96,190848,1,8,0:0:0:0:
352,96,191162,1,8,0:0:0:0:
160,288,191475,1,4,0:0:0:0:
160,288,193672,1,4,0:0:0:0:
160,288,193986,1,4,0:0:0:0:
352,96,195241,1,8,0:0:0:0:
352,96,195869,1,8,0:0:0:0:
160,288,196496,1,4,0:0:0:0:
352,96,197124,1,8,0:0:0:0:
160,96,197752,1,0,0:0:0:0:
352,96,198379,1,8,0:0:0:0:
160,96,199007,1,0,0:0:0:0:
352,96,200262,1,8,0:0:0:0:
352,96,200890,1,8,0:0:0:0:
352,96,201203,1,8,0:0:0:0:
352,96,201517,1,8,0:0:0:0:
352,96,202772,1,8,0:0:0:0:
352,96,203400,1,8,0:0:0:0:
160,96,204028,1,0,0:0:0:0:
352,96,204969,1,8,0:0:0:0:
352,96,205283,1,8,0:0:0:0:
352,96,205911,1,8,0:0:0:0:
352,96,206538,1,8,0:0:0:0:
160,96,207166,1,0,0:0:0:0:
352,96,207793,1,8,0:0:0:0:
160,96,208421,1,0,0:0:0:0:
160,96,209049,1,0,0:0:0:0:
160,96,209676,1,0,0:0:0:0:
352,96,210304,1,8,0:0:0:0:
160,96,210618,1,0,0:0:0:0:
352,96,210931,1,8,0:0:0:0:
160,288,211559,1,4,0:0:0:0:
160,96,212814,1,0,0:0:0:0:
352,96,213128,1,8,0:0:0:0:
160,96,213442,1,0,0:0:0:0:
352,96,213756,1,8,0:0:0:0:
352,96,214070,1,8,0:0:0:0:
352,96,214697,1,8,0:0:0:0:
352,96,215011,1,8,0:0:0:0:
160,96,215325,12,0,215952,0:0:0:0:
160,288,216580,5,4,0:0:0:0:
352,96,217208,1,8,0:0:0:0:
160,96,217835,1,0,0:0:0:0:
352,96,218777,1,8,0:0:0:0:
352,96,219090,1,8,0:0:0:0:
352,96,219404,1,8,0:0:0:0:
160,96,220346,1,0,0:0:0:0:
352,96,220973,1,8,0:0:0:0:
160,288,221601,1,4,0:0:0:0:
160,96,222542,1,0,0:0:0:0:
352,96,222856,1,8,0:0:0:0:
352,96,223484,1,8,0:0:0:0:
160,288,224111,1,4,0:0:0:0:
352,288,225053,1,12,0:0:0:0:
352,288,225680,1,12,0:0:0:0:
352,288,226308,1,12,0:0:0:0:
352,288,226622,1,12,0:0:0:0:
352,96,227877,1,8,0:0:0:0:
352,96,228819,1,8,0:0:0:0:
352,96,229132,1,8,0:0:0:0:
352,96,229446,1,8,0:0:0:0:
160,96,230074,1,0,0:0:0:0:
352,96,230388,1,8,0:0:0:0:
352,96,231015,1,8,0:0:0:0:
160,288,231643,1,4,0:0:0:0:
160,96,232584,1,0,0:0:0:0:
352,96,232898,1,8,0:0:0:0:
352,96,233839,1,8,0:0:0:0:
160,288,234153,1,4,0:0:0:0:
352,288,235095,1,12,0:0:0:0:
352,288,235722,1,12,0:0:0:0:
352,288,236350,1,12,0:0:0:0:
160,288,236664,1,4,0:0:0:0:
352,96,237605,1,8,0:0:0:0:
160,96,238547,1,0,0:0:0:0:
352,96,239174,1,8,0:0:0:0:
352,96,239802,1,8,0:0:0:0:
352,96,240429,1,8,0:0:0:0:
160,96,241057,1,0,0:0:0:0:
160,96,241371,1,0,0:0:0:0:
160,288,241685,1,4,0:0:0:0:
