osu file format v14

[General]
AudioFilename: audio.mp3
AudioLeadIn: 0
PreviewTime: 60768
Countdown: 0
SampleSet: Normal
StackLeniency: 0.7
Mode: 1
LetterboxInBreaks: 0
WidescreenStoryboard: 0

[Editor]
DistanceSpacing: 2
BeatDivisor: 4
GridSize: 32
TimelineZoom: 2.000005

[Metadata]
Title:Twilight of the Thunder God
TitleUnicode:Twilight of the Thunder God
Artist:Amon Amarth
ArtistUnicode:Amon Amarth
Creator:frukoyurdakul
Version:Futsuu
Source:
Tags:death metal stream viking IControl
BeatmapID:1224766
BeatmapSetID:531697

[Difficulty]
HPDrainRate:6
CircleSize:2
OverallDifficulty:3
ApproachRate:10
SliderMultiplier:1.2
SliderTickRate:1

[Events]
//Background and Video events
0,0,"10235f-lightning-photo-high-quality.jpg",0,0
//Break Periods
//Storyboard Layer 0 (Background)
//Storyboard Layer 1 (Fail)
//Storyboard Layer 2 (Pass)
//Storyboard Layer 3 (Foreground)
//Storyboard Sound Samples

[TimingPoints]
674,313.807531380753,4,1,0,80,1,0
60925,-100,4,1,0,90,0,1
81008,-100,4,1,0,90,0,0
106113,-100,4,1,0,90,0,1
126197,-100,4,1,0,90,0,0
131217,314.033195229127,4,1,0,90,1,0
131217,-99.009900990099,4,1,0,90,0,0
131531,-99.009900990099,4,1,0,50,0,0
135612,-99.009900990099,4,1,0,90,0,0
136397,-99.009900990099,4,1,0,50,0,0
156338,313.725490196078,4,1,0,45,1,0
156338,-101.010101010101,4,1,0,60,0,0
166377,-101.010101010101,4,1,0,70,0,0
176416,-101.010101010101,4,1,0,80,0,0
186455,313.807531380753,4,1,0,45,1,0
186455,-100,4,1,0,90,0,0
186611,-100,4,1,0,60,0,0
188494,-100,4,1,0,90,0,0
189122,-100,4,1,0,60,0,0
190690,-100,4,1,0,90,0,0
191632,-100,4,1,0,60,0,0
193514,-100,4,1,0,90,0,0
216580,-100,4,1,0,90,0,1
236664,-100,4,1,0,90,0,0

[HitObjects]
160,288,674,5,4,0:0:0:0:
352,96,1144,1,8,0:0:0:0:
160,96,1615,1,0,0:0:0:0:
352,96,2086,1,8,0:0:0:0:
160,96,2556,1,0,0:0:0:0:
160,288,3184,1,4,0:0:0:0:
352,96,3655,1,8,0:0:0:0:
160,96,4125,1,0,0:0:0:0:
160,288,4439,1,4,0:0:0:0:
352,288,5067,1,12,0:0:0:0:
160,288,5694,1,4,0:0:0:0:
352,96,6165,1,8,0:0:0:0:
160,96,6636,1,0,0:0:0:0:
160,96,7107,1,0,0:0:0:0:
352,96,7577,1,8,0:0:0:0:
352,96,8205,1,8,0:0:0:0:
160,96,8676,1,0,0:0:0:0:
160,96,9146,1,0,0:0:0:0:
352,96,9617,1,8,0:0:0:0:
160,96,10088,1,0,0:0:0:0:
160,96,10245,1,0,0:0:0:0:
160,96,10402,1,0,0:0:0:0:
160,288,10715,1,4,0:0:0:0:
352,96,11186,1,8,0:0:0:0:
160,96,11657,1,0,0:0:0:0:
352,96,12127,1,8,0:0:0:0:
160,96,12598,1,0,0:0:0:0:
160,96,12912,1,0,0:0:0:0:
352,96,13226,1,8,0:0:0:0:
352,96,13697,1,8,0:0:0:0:
160,96,14167,1,0,0:0:0:0:
352,96,14638,1,8,0:0:0:0:
352,96,15109,1,8,0:0:0:0:
160,96,15422,1,0,0:0:0:0:
352,96,15736,1,8,0:0:0:0:
352,96,16207,1,8,0:0:0:0:
352,96,16678,1,8,0:0:0:0:
352,96,17148,1,8,0:0:0:0:
352,96,17619,1,8,0:0:0:0:
352,96,17933,1,8,0:0:0:0:
352,96,18247,1,8,0:0:0:0:
352,96,18717,1,8,0:0:0:0:
352,96,19188,1,8,0:0:0:0:
352,96,19659,1,8,0:0:0:0:
160,96,20130,1,0,0:0:0:0:
160,96,20443,1,0,0:0:0:0:
160,288,20757,1,4,0:0:0:0:
352,96,21071,1,8,0:0:0:0:
352,96,21385,1,8,0:0:0:0:
160,96,22012,1,0,0:0:0:0:
160,96,22326,1,0,0:0:0:0:
352,96,22640,1,8,0:0:0:0:
160,96,22954,1,0,0:0:0:0:
160,96,23111,1,0,0:0:0:0:
352,96,23268,1,8,0:0:0:0:
352,96,23581,1,8,0:0:0:0:
352,96,23895,1,8,0:0:0:0:
160,288,24523,1,4,0:0:0:0:
352,288,25150,1,12,0:0:0:0:
160,288,25778,1,4,0:0:0:0:
352,96,26092,1,8,0:0:0:0:
352,96,26406,1,8,0:0:0:0:
160,96,27033,1,0,0:0:0:0:
160,96,27347,1,0,0:0:0:0:
352,96,27661,1,8,0:0:0:0:
160,96,28289,1,0,0:0:0:0:
352,96,28602,1,8,0:0:0:0:
352,96,28916,1,8,0:0:0:0:
352,96,29230,1,8,0:0:0:0:
160,96,29544,1,0,0:0:0:0:
160,96,30171,1,0,0:0:0:0:
160,96,30328,1,0,0:0:0:0:
160,96,30485,1,0,0:0:0:0:
160,288,30799,1,4,0:0:0:0:
352,96,31113,1,8,0:0:0:0:
352,96,31427,1,8,0:0:0:0:
160,96,32054,1,0,0:0:0:0:
352,96,32368,1,8,0:0:0:0:
160,96,32682,1,0,0:0:0:0:
160,96,32996,1,0,0:0:0:0:
352,96,33309,1,8,0:0:0:0:
352,96,33623,1,8,0:0:0:0:
352,96,33937,1,8,0:0:0:0:
160,288,34565,1,4,0:0:0:0:
352,288,35192,1,12,0:0:0:0:
160,288,35820,1,4,0:0:0:0:
160,96,36134,1,0,0:0:0:0:
352,96,36448,1,8,0:0:0:0:
160,96,37075,1,0,0:0:0:0:
352,96,37389,1,8,0:0:0:0:
352,96,37703,1,8,0:0:0:0:
160,96,38017,1,0,0:0:0:0:
352,96,38330,1,8,0:0:0:0:
352,96,38644,1,8,0:0:0:0:
352,96,38958,1,8,0:0:0:0:
352,96,39586,1,8,0:0:0:0:
160,96,39899,1,0,0:0:0:0:
160,96,40056,1,0,0:0:0:0:
160,96,40213,1,0,0:0:0:0:
160,96,40527,1,0,0:0:0:0:
160,288,40841,1,4,0:0:0:0:
352,96,41312,1,8,0:0:0:0:
160,96,41625,1,0,0:0:0:0:
352,96,41939,1,8,0:0:0:0:
160,96,42410,1,0,0:0:0:0:
352,96,42724,1,8,0:0:0:0:
352,96,43038,1,8,0:0:0:0:
160,96,43351,1,0,0:0:0:0:
160,96,43665,1,0,0:0:0:0:
352,96,43822,1,8,0:0:0:0:
352,96,44136,1,8,0:0:0:0:
352,96,44450,1,8,0:0:0:0:
352,96,44920,1,8,0:0:0:0:
160,96,45234,1,0,0:0:0:0:
352,96,45548,1,8,0:0:0:0:
160,288,45862,1,4,0:0:0:0:
160,96,46176,1,0,0:0:0:0:
352,96,46489,1,8,0:0:0:0:
160,96,47117,1,0,0:0:0:0:
160,96,47431,1,0,0:0:0:0:
160,96,47745,1,0,0:0:0:0:
352,96,48058,1,8,0:0:0:0:
352,96,48215,1,8,0:0:0:0:
352,96,48686,1,8,0:0:0:0:
160,96,49000,1,0,0:0:0:0:
352,96,49314,1,8,0:0:0:0:
160,96,49941,1,0,0:0:0:0:
160,96,50255,1,0,0:0:0:0:
160,96,50412,1,0,0:0:0:0:
160,96,50569,1,0,0:0:0:0:
160,288,50883,1,4,0:0:0:0:
352,96,51353,1,8,0:0:0:0:
352,96,51667,1,8,0:0:0:0:
352,96,51981,1,8,0:0:0:0:
160,96,52452,1,0,0:0:0:0:
352,96,52766,1,8,0:0:0:0:
160,96,53079,1,0,0:0:0:0:
352,96,53393,1,8,0:0:0:0:
160,96,53707,1,0,0:0:0:0:
352,96,53864,1,8,0:0:0:0:
352,96,54178,1,8,0:0:0:0:
352,96,54491,1,8,0:0:0:0:
160,96,54962,1,0,0:0:0:0:
352,96,55276,1,8,0:0:0:0:
352,96,55590,1,8,0:0:0:0:
160,96,55904,1,0,0:0:0:0:
160,96,56531,1,0,0:0:0:0:
352,96,56845,1,8,0:0:0:0:
352,96,57159,1,8,0:0:0:0:
160,96,57473,1,0,0:0:0:0:
160,96,57786,1,0,0:0:0:0:
160,96,58100,1,0,0:0:0:0:
352,96,58257,1,8,0:0:0:0:
160,96,58728,1,0,0:0:0:0:
160,96,59042,1,0,0:0:0:0:
352,96,59356,1,8,0:0:0:0:
352,96,59669,1,8,0:0:0:0:
160,96,59983,1,0,0:0:0:0:
160,96,60297,1,0,0:0:0:0:
160,96,60611,1,0,0:0:0:0:
160,288,60925,1,4,0:0:0:0:
352,96,61552,1,8,0:0:0:0:
160,96,61866,1,0,0:0:0:0:
352,96,62180,1,8,0:0:0:0:
352,96,62337,1,8,0:0:0:0:
352,96,62650,1,8,0:0:0:0:
352,288,63121,1,12,0:0:0:0:
352,288,63435,1,12,0:0:0:0:
352,288,63749,1,12,0:0:0:0:
160,96,64376,1,0,0:0:0:0:
352,96,64690,1,8,0:0:0:0:
160,96,65004,1,0,0:0:0:0:
352,96,65161,1,8,0:0:0:0:
160,96,65632,1,0,0:0:0:0:
160,288,65945,1,4,0:0:0:0:
352,96,66259,1,8,0:0:0:0:
352,96,66416,1,8,0:0:0:0:
160,96,66887,1,0,0:0:0:0:
352,96,67201,1,8,0:0:0:0:
160,96,67515,1,0,0:0:0:0:
160,96,67828,1,0,0:0:0:0:
352,96,68142,1,8,0:0:0:0:
160,96,68456,1,0,0:0:0:0:
352,96,68770,1,8,0:0:0:0:
352,96,68927,1,8,0:0:0:0:
352,288,69397,1,12,0:0:0:0:
352,288,69711,1,12,0:0:0:0:
352,288,70025,1,12,0:0:0:0:
352,288,70496,1,12,0:0:0:0:
352,288,70966,1,12,0:0:0:0:
160,96,71594,1,0,0:0:0:0:
160,96,71908,1,0,0:0:0:0:
352,96,72222,1,8,0:0:0:0:
352,96,72379,1,8,0:0:0:0:
352,96,72692,1,8,0:0:0:0:
352,288,73163,1,12,0:0:0:0:
352,288,73477,1,12,0:0:0:0:
352,288,73791,1,12,0:0:0:0:
160,96,74418,1,0,0:0:0:0:
352,96,74732,1,8,0:0:0:0:
352,96,75046,1,8,0:0:0:0:
352,96,75203,1,8,0:0:0:0:
160,96,75673,1,0,0:0:0:0:
160,288,75987,1,4,0:0:0:0:
352,96,76301,1,8,0:0:0:0:
352,96,76458,1,8,0:0:0:0:
160,96,76929,1,0,0:0:0:0:
352,96,77243,1,8,0:0:0:0:
160,96,77556,1,0,0:0:0:0:
160,96,77870,1,0,0:0:0:0:
160,96,78184,1,0,0:0:0:0:
352,96,78498,1,8,0:0:0:0:
160,96,78812,1,0,0:0:0:0:
352,96,78968,1,8,0:0:0:0:
352,288,79439,1,12,0:0:0:0:
352,288,79753,1,12,0:0:0:0:
352,288,80067,1,12,0:0:0:0:
352,288,80538,1,12,0:0:0:0:
352,288,81008,1,12,0:0:0:0:
160,96,81479,1,0,0:0:0:0:
352,96,81950,1,8,0:0:0:0:
352,96,82420,1,8,0:0:0:0:
160,96,82891,1,0,0:0:0:0:
160,96,83205,1,0,0:0:0:0:
352,96,83519,1,8,0:0:0:0:
352,96,83989,1,8,0:0:0:0:
352,96,84460,1,8,0:0:0:0:
160,96,84931,1,0,0:0:0:0:
160,96,85402,1,0,0:0:0:0:
160,96,85715,1,0,0:0:0:0:
160,288,86029,1,4,0:0:0:0:
352,96,86500,1,8,0:0:0:0:
352,96,86814,1,8,0:0:0:0:
352,96,87127,1,8,0:0:0:0:
160,96,87598,1,0,0:0:0:0:
352,96,87912,1,8,0:0:0:0:
160,96,88226,1,0,0:0:0:0:
352,96,88540,1,8,0:0:0:0:
160,96,88853,1,0,0:0:0:0:
160,96,89010,1,0,0:0:0:0:
352,96,89324,1,8,0:0:0:0:
352,96,89481,1,8,0:0:0:0:
160,96,89795,1,0,0:0:0:0:
352,96,89952,1,8,0:0:0:0:
352,96,90422,1,8,0:0:0:0:
160,96,90736,1,0,0:0:0:0:
160,288,91050,1,4,0:0:0:0:
352,96,91678,1,8,0:0:0:0:
160,96,91991,1,0,0:0:0:0:
160,96,92305,1,0,0:0:0:0:
352,96,92933,1,8,0:0:0:0:
160,96,93247,1,0,0:0:0:0:
352,96,93404,12,8,94816,0:0:0:0:
160,96,95443,5,0,0:0:0:0:
160,96,95757,1,0,0:0:0:0:
160,96,95914,1,0,0:0:0:0:
352,96,96071,1,8,0:0:0:0:
160,96,96385,1,0,0:0:0:0:
352,96,96542,1,8,0:0:0:0:
352,96,96856,1,8,0:0:0:0:
352,96,97012,1,8,0:0:0:0:
160,96,97640,1,0,0:0:0:0:
160,96,97954,1,0,0:0:0:0:
352,96,98268,1,8,0:0:0:0:
160,96,98581,1,0,0:0:0:0:
160,96,98895,1,0,0:0:0:0:
352,96,99052,1,8,0:0:0:0:
352,96,99366,1,8,0:0:0:0:
352,96,99680,1,8,0:0:0:0:
160,96,99837,1,0,0:0:0:0:
352,96,100464,1,8,0:0:0:0:
160,96,100778,1,0,0:0:0:0:
160,288,101092,1,4,0:0:0:0:
352,96,101720,1,8,0:0:0:0:
160,96,102347,1,0,0:0:0:0:
160,96,102661,1,0,0:0:0:0:
160,96,102975,1,0,0:0:0:0:
352,96,103289,1,8,0:0:0:0:
352,96,103445,1,8,0:0:0:0:
352,96,104073,1,8,0:0:0:0:
160,96,104544,1,0,0:0:0:0:
352,96,104858,1,8,0:0:0:0:
352,96,105171,1,8,0:0:0:0:
160,96,105485,1,0,0:0:0:0:
160,96,105642,1,0,0:0:0:0:
160,96,105799,1,0,0:0:0:0:
160,288,106113,1,4,0:0:0:0:
352,96,106740,1,8,0:0:0:0:
160,96,107054,1,0,0:0:0:0:
352,96,107368,1,8,0:0:0:0:
352,96,107525,1,8,0:0:0:0:
352,96,107839,1,8,0:0:0:0:
352,288,108309,1,12,0:0:0:0:
352,288,108623,1,12,0:0:0:0:
352,288,108937,1,12,0:0:0:0:
160,96,109565,1,0,0:0:0:0:
352,96,109879,1,8,0:0:0:0:
160,96,110192,1,0,0:0:0:0:
352,96,110349,1,8,0:0:0:0:
160,96,110820,1,0,0:0:0:0:
160,288,111134,1,4,0:0:0:0:
352,96,111448,1,8,0:0:0:0:
352,96,111604,1,8,0:0:0:0:
160,96,112075,1,0,0:0:0:0:
352,96,112389,1,8,0:0:0:0:
160,96,112703,1,0,0:0:0:0:
352,96,113330,1,8,0:0:0:0:
160,96,113644,1,0,0:0:0:0:
352,96,113958,1,8,0:0:0:0:
352,96,114115,1,8,0:0:0:0:
352,288,114586,1,12,0:0:0:0:
352,288,114899,1,12,0:0:0:0:
352,288,115213,1,12,0:0:0:0:
352,288,115684,1,12,0:0:0:0:
352,288,116155,1,12,0:0:0:0:
160,96,116782,1,0,0:0:0:0:
160,96,117096,1,0,0:0:0:0:
352,96,117410,1,8,0:0:0:0:
352,96,117567,1,8,0:0:0:0:
352,96,117881,1,8,0:0:0:0:
352,288,118351,1,12,0:0:0:0:
352,288,118665,1,12,0:0:0:0:
352,288,118979,1,12,0:0:0:0:
160,96,119607,1,0,0:0:0:0:
352,96,119920,1,8,0:0:0:0:
352,96,120234,1,8,0:0:0:0:
352,96,120391,1,8,0:0:0:0:
160,96,120862,1,0,0:0:0:0:
160,288,121176,1,4,0:0:0:0:
352,96,121489,1,8,0:0:0:0:
352,96,121646,1,8,0:0:0:0:
160,96,122117,1,0,0:0:0:0:
352,96,122431,1,8,0:0:0:0:
352,96,122745,1,8,0:0:0:0:
160,96,123058,1,0,0:0:0:0:
160,96,123372,1,0,0:0:0:0:
352,96,123686,1,8,0:0:0:0:
160,96,124000,1,0,0:0:0:0:
352,96,124157,1,8,0:0:0:0:
352,288,124627,1,12,0:0:0:0:
352,288,124941,1,12,0:0:0:0:
352,288,125255,1,12,0:0:0:0:
352,288,125726,1,12,0:0:0:0:
160,288,126197,1,4,0:0:0:0:
160,96,126667,1,0,0:0:0:0:
352,96,127138,1,8,0:0:0:0:
352,96,127609,1,8,0:0:0:0:
352,96,128079,1,8,0:0:0:0:
160,96,128393,1,0,0:0:0:0:
352,96,128707,1,8,0:0:0:0:
160,96,129178,1,0,0:0:0:0:
160,96,129648,1,0,0:0:0:0:
160,96,130119,1,0,0:0:0:0:
352,96,130590,1,8,0:0:0:0:
160,96,130904,1,0,0:0:0:0:
160,288,131217,1,4,0:0:0:0:
352,96,131845,1,8,0:0:0:0:
160,96,132473,1,0,0:0:0:0:
352,96,133101,1,8,0:0:0:0:
160,96,133415,1,0,0:0:0:0:
160,96,133729,1,0,0:0:0:0:
352,96,134357,1,8,0:0:0:0:
160,96,134985,1,0,0:0:0:0:
352,96,135613,1,8,0:0:0:0:
352,96,135770,1,8,0:0:0:0:
352,96,136084,1,8,0:0:0:0:
160,288,136241,1,4,0:0:0:0:
352,96,136869,1,8,0:0:0:0:
160,96,137497,1,0,0:0:0:0:
352,96,138125,1,8,0:0:0:0:
160,96,138753,1,0,0:0:0:0:
352,96,139381,1,8,0:0:0:0:
160,96,140009,1,0,0:0:0:0:
160,96,140166,1,0,0:0:0:0:
352,96,140637,1,8,0:0:0:0:
160,96,140795,1,0,0:0:0:0:
160,288,141266,1,4,0:0:0:0:
352,96,141894,1,8,0:0:0:0:
160,96,142522,1,0,0:0:0:0:
352,96,143150,1,8,0:0:0:0:
160,96,143778,1,0,0:0:0:0:
352,96,144406,1,8,0:0:0:0:
352,96,145034,1,8,0:0:0:0:
160,96,145191,1,0,0:0:0:0:
352,96,145662,1,8,0:0:0:0:
160,96,145819,1,0,0:0:0:0:
160,96,146290,1,0,0:0:0:0:
160,96,146604,1,0,0:0:0:0:
352,288,146918,1,12,0:0:0:0:
160,96,147546,1,0,0:0:0:0:
160,96,147860,1,0,0:0:0:0:
352,288,148174,1,12,0:0:0:0:
160,96,148802,1,0,0:0:0:0:
160,96,149116,1,0,0:0:0:0:
352,288,149430,1,12,0:0:0:0:
352,96,150058,1,8,0:0:0:0:
160,96,150216,1,0,0:0:0:0:
160,96,150687,1,0,0:0:0:0:
352,96,150844,1,8,0:0:0:0:
160,288,151315,1,4,0:0:0:0:
160,96,151629,1,0,0:0:0:0:
352,288,151943,1,12,0:0:0:0:
160,96,152571,1,0,0:0:0:0:
160,96,152885,1,0,0:0:0:0:
160,96,153042,1,0,0:0:0:0:
352,288,153199,1,12,0:0:0:0:
160,96,153827,1,0,0:0:0:0:
160,96,154141,1,0,0:0:0:0:
352,288,154455,1,12,0:0:0:0:
160,96,155083,1,0,0:0:0:0:
160,96,155240,1,0,0:0:0:0:
352,96,155711,1,8,0:0:0:0:
160,96,155868,1,0,0:0:0:0:
160,96,156339,1,0,0:0:0:0:
160,96,156651,1,0,0:0:0:0:
352,96,156965,1,8,0:0:0:0:
160,96,157279,1,0,0:0:0:0:
352,96,157436,1,8,0:0:0:0:
160,96,157749,1,0,0:0:0:0:
352,96,158063,1,8,0:0:0:0:
160,96,158534,1,0,0:0:0:0:
160,96,158847,1,0,0:0:0:0:
352,96,159161,1,8,0:0:0:0:
160,96,159475,1,0,0:0:0:0:
352,96,159788,1,8,0:0:0:0:
160,96,159945,1,0,0:0:0:0:
160,96,160416,1,0,0:0:0:0:
352,96,160730,1,8,0:0:0:0:
160,96,161043,1,0,0:0:0:0:
352,96,161357,1,8,0:0:0:0:
352,96,161671,1,8,0:0:0:0:
160,96,161985,1,0,0:0:0:0:
160,96,162298,1,0,0:0:0:0:
352,96,162455,1,8,0:0:0:0:
352,96,162769,1,8,0:0:0:0:
352,96,163083,1,8,0:0:0:0:
160,96,163867,1,0,0:0:0:0:
160,96,164181,1,0,0:0:0:0:
160,96,164494,1,0,0:0:0:0:
352,96,164808,1,8,0:0:0:0:
352,96,164965,1,8,0:0:0:0:
160,96,165436,1,0,0:0:0:0:
352,96,165749,1,8,0:0:0:0:
160,96,166063,1,0,0:0:0:0:
160,288,166377,1,4,0:0:0:0:
352,288,167004,1,12,0:0:0:0:
160,288,167632,1,4,0:0:0:0:
352,288,168259,1,12,0:0:0:0:
160,288,168887,1,4,0:0:0:0:
352,288,169514,1,12,0:0:0:0:
352,288,170141,1,12,0:0:0:0:
160,288,170769,1,4,0:0:0:0:
352,288,171396,1,12,0:0:0:0:
160,288,172024,1,4,0:0:0:0:
352,288,172651,1,12,0:0:0:0:
160,288,173279,1,4,0:0:0:0:
352,288,173906,1,12,0:0:0:0:
160,288,174534,1,4,0:0:0:0:
352,288,175161,1,12,0:0:0:0:
160,288,175788,1,4,0:0:0:0:
352,288,176416,1,12,0:0:0:0:
160,96,176730,1,0,0:0:0:0:
160,96,176887,1,0,0:0:0:0:
352,96,177043,1,8,0:0:0:0:
160,96,177357,1,0,0:0:0:0:
352,96,177671,1,8,0:0:0:0:
352,96,177828,1,8,0:0:0:0:
160,96,178141,1,0,0:0:0:0:
160,96,178298,1,0,0:0:0:0:
160,96,178612,1,0,0:0:0:0:
352,96,178926,1,8,0:0:0:0:
160,96,179239,1,0,0:0:0:0:
352,96,179396,1,8,0:0:0:0:
160,96,179867,1,0,0:0:0:0:
352,288,180181,1,12,0:0:0:0:
160,288,180494,1,4,0:0:0:0:
352,288,180808,1,12,0:0:0:0:
352,288,181122,1,12,0:0:0:0:
160,288,181436,1,4,0:0:0:0:
352,96,182063,1,8,0:0:0:0:
160,96,182377,1,0,0:0:0:0:
160,96,182534,1,0,0:0:0:0:
352,96,182690,1,8,0:0:0:0:
160,96,183004,1,0,0:0:0:0:
352,96,183318,1,8,0:0:0:0:
352,96,183475,1,8,0:0:0:0:
160,96,183632,1,0,0:0:0:0:
160,96,183945,1,0,0:0:0:0:
160,96,184259,1,0,0:0:0:0:
160,96,184416,1,0,0:0:0:0:
352,96,184573,1,8,0:0:0:0:
160,96,184887,1,0,0:0:0:0:
352,96,185200,1,8,0:0:0:0:
352,96,185514,1,8,0:0:0:0:
160,96,185828,1,0,0:0:0:0:
160,96,186141,1,0,0:0:0:0:
352,288,186455,1,12,0:0:0:0:
352,96,186925,1,8,0:0:0:0:
160,96,187396,1,0,0:0:0:0:
352,96,187867,1,8,0:0:0:0:
160,96,188337,1,0,0:0:0:0:
160,288,188651,1,4,0:0:0:0:
160,288,188965,1,4,0:0:0:0:
352,96,189436,1,8,0:0:0:0:
160,96,189906,1,0,0:0:0:0:
352,96,190377,1,8,0:0:0:0:
160,288,190848,1,4,0:0:0:0:
160,288,191162,1,4,0:0:0:0:
160,288,191475,1,4,0:0:0:0:
352,96,191946,1,8,0:0:0:0:
160,96,192417,1,0,0:0:0:0:
352,96,192888,1,8,0:0:0:0:
352,96,193358,1,8,0:0:0:0:
160,288,193672,1,4,0:0:0:0:
160,288,193986,1,4,0:0:0:0:
160,96,194143,12,0,194927,0:0:0:0:
352,96,195241,5,8,0:0:0:0:
160,96,195450,1,0,0:0:0:0:
160,96,195660,1,0,0:0:0:0:
352,96,195869,1,8,0:0:0:0:
160,288,196496,1,4,0:0:0:0:
160,96,196810,1,0,0:0:0:0:
352,96,197124,1,8,0:0:0:0:
160,96,197438,1,0,0:0:0:0:
352,96,197752,1,8,0:0:0:0:
352,96,198065,1,8,0:0:0:0:
160,96,198379,1,0,0:0:0:0:
352,96,198693,1,8,0:0:0:0:
160,96,199007,1,0,0:0:0:0:
160,96,199321,1,0,0:0:0:0:
352,96,199634,1,8,0:0:0:0:
160,96,199948,1,0,0:0:0:0:
352,96,200262,1,8,0:0:0:0:
352,96,200576,1,8,0:0:0:0:
160,96,200890,1,0,0:0:0:0:
352,96,201203,1,8,0:0:0:0:
160,96,201517,12,0,202145,0:0:0:0:
352,96,202772,5,8,0:0:0:0:
352,96,203086,1,8,0:0:0:0:
160,96,203400,1,0,0:0:0:0:
160,96,203714,1,0,0:0:0:0:
352,96,204028,1,8,0:0:0:0:
160,96,204969,1,0,0:0:0:0:
352,96,205283,1,8,0:0:0:0:
352,96,205440,1,8,0:0:0:0:
352,96,205754,1,8,0:0:0:0:
160,96,206067,1,0,0:0:0:0:
160,96,206224,1,0,0:0:0:0:
352,96,206538,1,8,0:0:0:0:
160,96,206852,1,0,0:0:0:0:
160,96,207166,1,0,0:0:0:0:
160,96,207480,1,0,0:0:0:0:
352,96,207793,1,8,0:0:0:0:
352,96,208107,1,8,0:0:0:0:
160,96,208421,1,0,0:0:0:0:
160,96,208735,1,0,0:0:0:0:
160,96,209049,1,0,0:0:0:0:
352,96,209362,1,8,0:0:0:0:
160,96,209676,1,0,0:0:0:0:
352,96,209990,1,8,0:0:0:0:
160,96,210304,1,0,0:0:0:0:
160,96,210618,1,0,0:0:0:0:
352,288,210931,1,12,0:0:0:0:
352,96,211559,1,8,0:0:0:0:
160,96,211873,1,0,0:0:0:0:
352,96,212187,1,8,0:0:0:0:
160,96,212501,1,0,0:0:0:0:
352,96,212814,1,8,0:0:0:0:
352,96,213128,1,8,0:0:0:0:
352,96,213442,1,8,0:0:0:0:
352,96,213756,1,8,0:0:0:0:
352,96,214070,1,8,0:0:0:0:
160,96,214540,1,0,0:0:0:0:
352,96,214697,1,8,0:0:0:0:
352,96,215011,1,8,0:0:0:0:
160,96,215168,1,0,0:0:0:0:
160,96,215325,12,0,216266,0:0:0:0:
160,288,216580,5,4,0:0:0:0:
160,96,216894,1,0,0:0:0:0:
352,96,217208,1,8,0:0:0:0:
160,96,217521,1,0,0:0:0:0:
352,96,217835,1,8,0:0:0:0:
160,96,217992,1,0,0:0:0:0:
352,96,218306,1,8,0:0:0:0:
352,288,218777,1,12,0:0:0:0:
352,288,219090,1,12,0:0:0:0:
352,288,219404,1,12,0:0:0:0:
160,96,220032,1,0,0:0:0:0:
352,96,220346,1,8,0:0:0:0:
160,96,220660,1,0,0:0:0:0:
352,96,220816,1,8,0:0:0:0:
160,96,221287,1,0,0:0:0:0:
160,288,221601,1,4,0:0:0:0:
352,96,221915,1,8,0:0:0:0:
352,96,222072,1,8,0:0:0:0:
160,96,222542,1,0,0:0:0:0:
352,96,222856,1,8,0:0:0:0:
160,96,223170,1,0,0:0:0:0:
160,96,223327,1,0,0:0:0:0:
160,96,223798,1,0,0:0:0:0:
352,96,224111,1,8,0:0:0:0:
352,96,224425,1,8,0:0:0:0:
352,96,224582,1,8,0:0:0:0:
352,288,225053,1,12,0:0:0:0:
352,288,225367,1,12,0:0:0:0:
352,288,225680,1,12,0:0:0:0:
352,288,226151,1,12,0:0:0:0:
352,288,226622,1,12,0:0:0:0:
160,96,226936,1,0,0:0:0:0:
352,96,227249,1,8,0:0:0:0:
160,96,227563,1,0,0:0:0:0:
352,96,227877,1,8,0:0:0:0:
352,96,228034,1,8,0:0:0:0:
352,96,228348,1,8,0:0:0:0:
352,288,228819,1,12,0:0:0:0:
352,288,229132,1,12,0:0:0:0:
352,288,229446,1,12,0:0:0:0:
160,96,230074,1,0,0:0:0:0:
352,96,230388,1,8,0:0:0:0:
160,96,230701,1,0,0:0:0:0:
352,96,230858,1,8,0:0:0:0:
160,96,231329,1,0,0:0:0:0:
160,288,231643,1,4,0:0:0:0:
352,96,231957,1,8,0:0:0:0:
352,96,232113,1,8,0:0:0:0:
160,96,232584,1,0,0:0:0:0:
352,96,232898,1,8,0:0:0:0:
352,96,233212,1,8,0:0:0:0:
160,96,233526,1,0,0:0:0:0:
352,96,233839,1,8,0:0:0:0:
352,96,234153,1,8,0:0:0:0:
352,96,234467,1,8,0:0:0:0:
352,96,234624,1,8,0:0:0:0:
352,288,235095,1,12,0:0:0:0:
352,288,235408,1,12,0:0:0:0:
352,288,235722,1,12,0:0:0:0:
352,288,236193,1,12,0:0:0:0:
352,288,236350,1,12,0:0:0:0:
160,288,236664,1,4,0:0:0:0:
160,96,237134,1,0,0:0:0:0:
352,96,237605,1,8,0:0:0:0:
352,96,238076,1,8,0:0:0:0:
352,96,238547,1,8,0:0:0:0:
160,96,238860,1,0,0:0:0:0:
352,96,239174,1,8,0:0:0:0:
352,96,239331,1,8,0:0:0:0:
352,96,239645,1,8,0:0:0:0:
352,96,239802,1,8,0:0:0:0:
352,96,240116,1,8,0:0:0:0:
352,96,240272,1,8,0:0:0:0:
352,96,240586,1,8,0:0:0:0:
352,96,240743,1,8,0:0:0:0:
160,96,241057,1,0,0:0:0:0:
160,96,241371,1,0,0:0:0:0:
160,288,241685,1,4,0:0:0:0:
