osu file format v14

[General]
AudioFilename: audio.mp3
AudioLeadIn: 0
PreviewTime: 74014
Countdown: 0
SampleSet: Normal
StackLeniency: 0.7
Mode: 1
LetterboxInBreaks: 0
WidescreenStoryboard: 0

[Editor]
Bookmarks: 293,15054,29823,44593,59361,74129,88899,101822,118437,133206,147975,162744,177513,192282,205205
DistanceSpacing: 1.4
BeatDivisor: 4
GridSize: 32
TimelineZoom: 3.399999

[Metadata]
Title:Shield Wall
TitleUnicode:Shield Wall
Artist:Amon Amarth
ArtistUnicode:Amon Amarth
Creator:frukoyurdakul
Version:Futsuu
Source:
Tags:death metal english viking pagan beard the berserker raise the
BeatmapID:2751015
BeatmapSetID:1327059

[Difficulty]
HPDrainRate:6
CircleSize:2
OverallDifficulty:4
ApproachRate:10
SliderMultiplier:1.4
SliderTickRate:3

[Events]
//Background and Video events
0,0,"viking.jpg",0,120
//Break Periods
2,104791,108283
2,112175,115668
2,119560,123052
2,126945,130437
//Storyboard Layer 0 (Background)
//Storyboard Layer 1 (Fail)
//Storyboard Layer 2 (Pass)
//Storyboard Layer 3 (Foreground)
//Storyboard Layer 4 (Overlay)
//Storyboard Sound Samples

[TimingPoints]
293,461.538461538462,4,1,0,70,1,0
293,-100,4,1,0,70,0,0
6927,-100,4,1,0,80,0,0
7100,-100,4,1,0,70,0,0
7389,-100,4,1,0,80,0,0
7793,-100,4,1,0,70,0,0
9062,400,4,1,0,70,1,8
9062,-115.384615384615,4,1,0,70,0,0
9262,521.739130434783,4,1,0,70,1,8
9262,-88.4615384615384,4,1,0,70,0,0
9523,461.538461538462,4,1,0,70,1,0
9523,-100,4,1,0,70,0,0
11369,459.770114942529,4,1,0,70,1,0
11369,-100.384615384615,4,1,0,70,0,0
13208,461.538461538462,4,1,0,70,1,0
13208,-100,4,1,0,70,0,0
14304,-100,4,1,0,80,0,0
15054,461.538461538462,4,1,0,80,1,0
30977,447.761194029851,4,1,0,80,1,8
30977,-103.076923076923,4,1,0,80,0,0
31200,470.588235294118,4,1,0,80,1,8
31200,-98.0769230769231,4,1,0,80,0,0
31670,461.538461538462,4,1,0,80,1,0
31670,-100,4,1,0,80,0,0
37208,461.538461538462,4,1,0,80,1,0
57977,451.127819548872,4,1,0,80,1,8
57977,-102.307692307692,4,1,0,80,0,0
58428,472.44094488189,4,1,0,80,1,8
58428,-97.6923076923077,4,1,0,80,0,0
58900,461.538461538462,4,1,0,80,1,8
58900,-100,4,1,0,80,0,0
59361,461.538461538462,4,1,0,80,1,0
59361,-100,4,1,0,80,0,0
64437,333.333333333333,4,1,0,80,1,8
64437,-138.461538461539,4,1,0,80,0,0
64603,296.296296296296,4,1,0,80,1,8
64603,-155.769230769231,4,1,0,80,0,0
64899,461.538461538462,4,1,0,80,1,0
64899,-100,4,1,0,80,0,0
66745,461.538461538462,4,1,0,80,1,0
72280,-100,4,1,0,80,0,0
74129,-100,4,1,0,80,0,1
101821,-100,4,1,0,80,0,0
161360,431.654676258993,4,1,0,80,1,8
161360,-106.923076923077,4,1,0,80,0,0
161791,522.193211488251,4,1,0,80,1,8
161791,-88.3846153846154,4,1,0,80,0,0
162052,461.538461538462,4,1,0,80,1,8
162052,-100,4,1,0,80,0,0
162744,461.538461538462,4,1,0,80,1,0
162744,-100,4,1,0,80,0,0
177513,-100,4,1,0,80,0,1
205205,-100,4,1,0,80,0,0

[HitObjects]
160,96,293,5,0,0:0:0:0:
160,96,754,1,0,0:0:0:0:
352,96,1216,1,8,0:0:0:0:
160,96,1677,1,0,0:0:0:0:
352,96,1908,1,8,0:0:0:0:
160,96,2139,1,0,0:0:0:0:
352,96,3062,1,8,0:0:0:0:
352,96,3293,1,8,0:0:0:0:
160,96,3523,1,0,0:0:0:0:
352,96,3754,1,8,0:0:0:0:
352,96,3985,1,8,0:0:0:0:
352,96,4908,1,8,0:0:0:0:
352,96,5139,1,8,0:0:0:0:
160,96,5369,1,0,0:0:0:0:
352,96,5600,1,8,0:0:0:0:
160,96,5831,1,0,0:0:0:0:
160,96,6293,1,0,0:0:0:0:
352,288,6985,1,12,0:0:0:0:
352,288,7446,1,12,0:0:0:0:
160,288,7677,1,4,0:0:0:0:
352,96,8139,1,8,0:0:0:0:
352,96,9062,1,8,0:0:0:0:
160,96,9294,1,0,0:0:0:0:
160,96,9523,1,0,0:0:0:0:
352,96,9984,1,8,0:0:0:0:
352,96,10907,1,8,0:0:0:0:
352,96,11138,1,8,0:0:0:0:
160,96,11369,1,0,0:0:0:0:
352,96,11828,1,8,0:0:0:0:
352,96,12748,1,8,0:0:0:0:
352,96,12978,1,8,0:0:0:0:
352,96,13208,1,8,0:0:0:0:
352,96,13669,1,8,0:0:0:0:
352,288,14361,1,12,0:0:0:0:
352,96,14592,1,8,0:0:0:0:
160,288,15054,1,4,0:0:0:0:
352,96,15977,1,8,0:0:0:0:
352,96,16438,1,8,0:0:0:0:
352,96,16669,1,8,0:0:0:0:
160,96,16900,1,0,0:0:0:0:
352,96,17823,1,8,0:0:0:0:
352,96,18284,1,8,0:0:0:0:
160,96,18515,1,0,0:0:0:0:
352,96,18746,1,8,0:0:0:0:
352,96,19669,1,8,0:0:0:0:
352,96,20130,1,8,0:0:0:0:
160,96,20361,1,0,0:0:0:0:
160,96,20592,1,0,0:0:0:0:
352,96,21054,1,8,0:0:0:0:
352,288,21746,1,12,0:0:0:0:
352,96,21977,1,8,0:0:0:0:
160,288,22438,1,4,0:0:0:0:
352,96,23361,1,8,0:0:0:0:
352,96,23592,1,8,0:0:0:0:
352,96,23823,1,8,0:0:0:0:
160,96,24284,1,0,0:0:0:0:
352,96,25207,1,8,0:0:0:0:
160,96,25438,1,0,0:0:0:0:
352,96,25669,1,8,0:0:0:0:
352,96,26130,1,8,0:0:0:0:
160,96,27054,1,0,0:0:0:0:
352,96,27284,1,8,0:0:0:0:
352,96,27515,1,8,0:0:0:0:
160,96,27977,1,0,0:0:0:0:
352,288,28438,1,12,0:0:0:0:
160,96,28669,1,0,0:0:0:0:
352,288,29130,1,12,0:0:0:0:
160,288,29823,1,4,0:0:0:0:
352,96,30284,1,8,0:0:0:0:
352,96,30746,1,8,0:0:0:0:
160,96,30977,1,0,0:0:0:0:
352,96,31200,1,8,0:0:0:0:
352,96,31435,1,8,0:0:0:0:
352,96,31670,1,8,0:0:0:0:
352,96,32131,1,8,0:0:0:0:
352,96,32593,1,8,0:0:0:0:
352,96,32823,1,8,0:0:0:0:
352,96,33054,1,8,0:0:0:0:
160,96,33285,1,0,0:0:0:0:
352,96,33516,1,8,0:0:0:0:
352,96,33977,1,8,0:0:0:0:
352,96,34439,1,8,0:0:0:0:
160,96,34670,1,0,0:0:0:0:
352,96,34900,1,8,0:0:0:0:
352,96,35131,1,8,0:0:0:0:
352,96,35362,1,8,0:0:0:0:
352,96,35823,1,8,0:0:0:0:
352,96,36285,1,8,0:0:0:0:
160,96,36516,1,0,0:0:0:0:
352,96,36746,1,8,0:0:0:0:
160,96,36977,1,0,0:0:0:0:
352,288,37208,1,12,0:0:0:0:
352,96,38131,1,8,0:0:0:0:
160,96,38362,1,0,0:0:0:0:
352,96,38593,1,8,0:0:0:0:
352,96,38823,1,8,0:0:0:0:
352,96,39054,1,8,0:0:0:0:
352,96,39516,1,8,0:0:0:0:
352,96,39977,1,8,0:0:0:0:
352,96,40208,1,8,0:0:0:0:
352,96,40439,1,8,0:0:0:0:
160,96,40670,1,0,0:0:0:0:
352,96,40900,1,8,0:0:0:0:
352,96,41362,1,8,0:0:0:0:
352,96,41823,1,8,0:0:0:0:
160,96,42054,1,0,0:0:0:0:
352,96,42285,1,8,0:0:0:0:
160,96,42516,1,0,0:0:0:0:
352,96,42746,1,8,0:0:0:0:
352,96,43208,1,8,0:0:0:0:
352,96,43670,1,8,0:0:0:0:
352,96,43900,1,8,0:0:0:0:
160,96,44131,1,0,0:0:0:0:
160,96,44362,1,0,0:0:0:0:
352,288,44593,1,12,0:0:0:0:
352,96,45285,1,8,0:0:0:0:
160,96,45746,1,0,0:0:0:0:
352,96,45977,1,8,0:0:0:0:
160,96,46208,1,0,0:0:0:0:
352,96,46670,1,8,0:0:0:0:
352,96,46900,1,8,0:0:0:0:
352,96,47131,1,8,0:0:0:0:
352,96,47823,1,8,0:0:0:0:
160,96,48054,1,0,0:0:0:0:
352,96,48285,1,8,0:0:0:0:
160,96,48977,1,0,0:0:0:0:
352,96,49208,1,8,0:0:0:0:
352,96,49439,1,8,0:0:0:0:
352,96,49900,1,8,0:0:0:0:
160,96,50131,1,0,0:0:0:0:
352,96,50593,1,8,0:0:0:0:
160,96,51054,1,0,0:0:0:0:
352,288,51285,1,12,0:0:0:0:
160,288,51977,1,4,0:0:0:0:
352,96,52439,1,8,0:0:0:0:
160,96,52670,1,0,0:0:0:0:
160,96,53131,1,0,0:0:0:0:
352,96,53362,1,8,0:0:0:0:
160,96,53593,1,0,0:0:0:0:
352,96,54054,1,8,0:0:0:0:
352,96,54285,1,8,0:0:0:0:
160,96,54516,1,0,0:0:0:0:
352,96,55208,1,8,0:0:0:0:
160,96,55439,1,0,0:0:0:0:
352,96,55670,1,8,0:0:0:0:
352,96,55900,1,8,0:0:0:0:
352,96,56362,1,8,0:0:0:0:
160,96,56823,1,0,0:0:0:0:
352,96,57054,1,8,0:0:0:0:
160,96,57285,1,0,0:0:0:0:
160,96,57516,1,0,0:0:0:0:
352,288,57977,1,12,0:0:0:0:
160,96,58202,1,0,0:0:0:0:
352,288,58664,1,12,0:0:0:0:
160,288,59361,1,4,0:0:0:0:
352,96,60284,1,8,0:0:0:0:
352,96,60514,1,8,0:0:0:0:
352,96,60745,1,8,0:0:0:0:
352,96,60976,1,8,0:0:0:0:
352,96,61207,1,8,0:0:0:0:
352,96,61668,1,8,0:0:0:0:
352,96,62130,1,8,0:0:0:0:
160,96,62361,1,0,0:0:0:0:
352,96,62591,1,8,0:0:0:0:
352,96,62822,1,8,0:0:0:0:
352,96,63053,1,8,0:0:0:0:
352,96,63514,1,8,0:0:0:0:
352,96,63976,1,8,0:0:0:0:
352,96,64207,1,8,0:0:0:0:
352,96,64437,1,8,0:0:0:0:
160,96,64677,1,0,0:0:0:0:
352,96,64899,1,8,0:0:0:0:
352,96,65360,1,8,0:0:0:0:
160,96,65591,1,0,0:0:0:0:
352,96,65822,1,8,0:0:0:0:
160,96,66052,1,0,0:0:0:0:
352,96,66283,1,8,0:0:0:0:
352,288,66745,1,12,0:0:0:0:
352,96,67668,1,8,0:0:0:0:
160,96,67899,1,0,0:0:0:0:
352,96,68129,1,8,0:0:0:0:
352,96,68360,1,8,0:0:0:0:
352,96,68591,1,8,0:0:0:0:
352,96,69052,1,8,0:0:0:0:
352,96,69514,1,8,0:0:0:0:
352,96,69745,1,8,0:0:0:0:
352,96,69975,1,8,0:0:0:0:
352,96,70206,1,8,0:0:0:0:
352,96,70437,1,8,0:0:0:0:
352,96,70899,1,8,0:0:0:0:
352,96,71360,1,8,0:0:0:0:
160,96,71591,1,0,0:0:0:0:
352,96,71822,1,8,0:0:0:0:
352,288,72283,1,12,0:0:0:0:
160,96,72514,1,0,0:0:0:0:
352,96,72745,1,8,0:0:0:0:
352,96,73206,1,8,0:0:0:0:
160,96,73668,1,0,0:0:0:0:
160,288,74129,1,4,0:0:0:0:
160,288,74591,1,4,0:0:0:0:
352,288,75283,1,12,0:0:0:0:
352,288,75745,1,12,0:0:0:0:
160,288,75975,1,4,0:0:0:0:
160,288,76437,1,4,0:0:0:0:
160,288,77129,1,4,0:0:0:0:
352,288,77591,1,12,0:0:0:0:
160,288,77822,1,4,0:0:0:0:
160,288,78283,1,4,0:0:0:0:
352,288,78975,1,12,0:0:0:0:
160,288,79437,1,4,0:0:0:0:
352,288,79668,1,12,0:0:0:0:
352,96,80129,1,8,0:0:0:0:
160,96,80360,1,0,0:0:0:0:
160,96,80591,1,0,0:0:0:0:
352,96,81052,1,8,0:0:0:0:
160,288,81514,1,4,0:0:0:0:
160,288,81975,1,4,0:0:0:0:
352,288,82668,1,12,0:0:0:0:
352,288,83129,1,12,0:0:0:0:
160,288,83360,1,4,0:0:0:0:
160,288,83822,1,4,0:0:0:0:
160,288,84514,1,4,0:0:0:0:
352,288,84975,1,12,0:0:0:0:
160,288,85206,1,4,0:0:0:0:
352,288,85668,1,12,0:0:0:0:
352,288,86360,1,12,0:0:0:0:
160,288,86822,1,4,0:0:0:0:
352,288,87052,1,12,0:0:0:0:
352,96,87514,1,8,0:0:0:0:
160,96,87745,1,0,0:0:0:0:
160,96,87975,1,0,0:0:0:0:
160,288,88899,1,4,0:0:0:0:
352,288,89360,1,12,0:0:0:0:
352,96,89822,1,8,0:0:0:0:
160,288,90052,1,4,0:0:0:0:
352,288,90514,1,12,0:0:0:0:
160,96,90745,1,0,0:0:0:0:
352,288,91206,1,12,0:0:0:0:
352,96,91668,1,8,0:0:0:0:
160,288,91899,1,4,0:0:0:0:
160,288,92360,1,4,0:0:0:0:
160,96,92591,1,0,0:0:0:0:
352,288,93052,1,12,0:0:0:0:
352,96,93514,1,8,0:0:0:0:
160,288,93745,1,4,0:0:0:0:
160,288,94206,1,4,0:0:0:0:
352,288,94437,1,12,0:0:0:0:
352,96,94899,1,8,0:0:0:0:
352,96,95822,1,8,0:0:0:0:
160,288,96283,1,4,0:0:0:0:
352,288,96745,1,12,0:0:0:0:
352,96,97206,1,8,0:0:0:0:
160,288,97437,1,4,0:0:0:0:
160,288,97899,1,4,0:0:0:0:
352,96,98129,1,8,0:0:0:0:
352,288,98591,1,12,0:0:0:0:
352,96,99052,1,8,0:0:0:0:
160,288,99283,1,4,0:0:0:0:
352,288,99745,1,12,0:0:0:0:
160,96,99975,2,0,L|224:192,12,23.3333333333333,8|8|0|0|0|0|8|8|0|0|0|0|8,0:0|0:0|0:0|0:0|0:0|0:0|0:0|0:0|0:0|0:0|0:0|0:0|0:0,0:0:0:0:
352,288,101129,1,12,0:0:0:0:
160,288,101591,1,4,0:0:0:0:
352,288,101822,1,12,0:0:0:0:
160,288,104591,1,4,0:0:0:0:
160,96,111052,5,0,0:0:0:0:
160,288,111975,1,4,0:0:0:0:
160,96,118437,5,0,0:0:0:0:
160,288,119360,1,4,0:0:0:0:
160,96,125822,5,0,0:0:0:0:
160,288,126745,1,4,0:0:0:0:
160,288,133206,5,4,0:0:0:0:
160,288,133668,1,4,0:0:0:0:
352,288,134129,1,12,0:0:0:0:
160,288,135052,1,4,0:0:0:0:
160,288,135514,1,4,0:0:0:0:
352,288,135975,1,12,0:0:0:0:
160,288,136899,1,4,0:0:0:0:
160,288,137360,1,4,0:0:0:0:
352,288,137822,1,12,0:0:0:0:
352,96,138745,1,8,0:0:0:0:
352,96,138975,1,8,0:0:0:0:
160,96,139206,1,0,0:0:0:0:
160,96,139437,1,0,0:0:0:0:
352,96,139668,1,8,0:0:0:0:
352,96,139899,1,8,0:0:0:0:
160,96,140129,1,0,0:0:0:0:
160,288,140591,1,4,0:0:0:0:
160,288,141052,1,4,0:0:0:0:
352,288,141514,1,12,0:0:0:0:
160,288,142437,1,4,0:0:0:0:
160,288,142899,1,4,0:0:0:0:
352,288,143360,1,12,0:0:0:0:
160,288,144283,1,4,0:0:0:0:
160,288,144745,1,4,0:0:0:0:
352,288,145206,1,12,0:0:0:0:
352,96,146129,1,8,0:0:0:0:
352,96,146360,1,8,0:0:0:0:
352,96,146591,1,8,0:0:0:0:
160,96,146822,1,0,0:0:0:0:
352,96,147052,1,8,0:0:0:0:
160,96,147283,1,0,0:0:0:0:
160,96,147514,1,0,0:0:0:0:
160,288,147975,1,4,0:0:0:0:
160,96,148206,1,0,0:0:0:0:
352,96,148668,1,8,0:0:0:0:
352,96,149591,1,8,0:0:0:0:
352,96,149822,1,8,0:0:0:0:
352,96,150052,1,8,0:0:0:0:
352,96,150514,1,8,0:0:0:0:
160,96,150745,1,0,0:0:0:0:
352,96,151206,1,8,0:0:0:0:
160,96,151437,1,0,0:0:0:0:
352,96,151668,1,8,0:0:0:0:
352,96,152129,1,8,0:0:0:0:
352,96,152591,1,8,0:0:0:0:
352,96,152822,1,8,0:0:0:0:
352,96,153283,1,8,0:0:0:0:
160,96,153514,1,0,0:0:0:0:
352,96,153975,1,8,0:0:0:0:
160,96,154206,1,0,0:0:0:0:
352,288,154668,1,12,0:0:0:0:
352,96,154899,1,8,0:0:0:0:
160,288,155360,1,4,0:0:0:0:
160,96,155591,1,0,0:0:0:0:
352,96,156052,1,8,0:0:0:0:
352,96,156975,1,8,0:0:0:0:
160,96,157206,1,0,0:0:0:0:
352,96,157437,1,8,0:0:0:0:
352,96,157899,1,8,0:0:0:0:
160,96,158129,1,0,0:0:0:0:
352,96,158591,1,8,0:0:0:0:
352,96,158822,1,8,0:0:0:0:
352,96,159052,1,8,0:0:0:0:
352,96,159514,1,8,0:0:0:0:
160,96,159745,1,0,0:0:0:0:
352,96,159975,1,8,0:0:0:0:
352,96,160206,1,8,0:0:0:0:
352,96,160668,1,8,0:0:0:0:
160,96,160899,1,0,0:0:0:0:
352,288,161360,1,12,0:0:0:0:
160,96,161575,1,0,0:0:0:0:
352,288,162052,1,12,0:0:0:0:
352,96,162282,1,8,0:0:0:0:
160,288,162744,1,4,0:0:0:0:
352,96,163667,1,8,0:0:0:0:
352,96,163897,1,8,0:0:0:0:
352,96,164128,1,8,0:0:0:0:
352,96,164359,1,8,0:0:0:0:
352,96,164590,1,8,0:0:0:0:
352,96,165051,1,8,0:0:0:0:
352,96,165513,1,8,0:0:0:0:
352,96,165744,1,8,0:0:0:0:
352,96,165974,1,8,0:0:0:0:
160,96,166205,1,0,0:0:0:0:
352,96,166436,1,8,0:0:0:0:
352,96,166897,1,8,0:0:0:0:
352,96,167359,1,8,0:0:0:0:
352,96,167590,1,8,0:0:0:0:
352,96,167820,1,8,0:0:0:0:
352,96,168282,1,8,0:0:0:0:
352,96,168628,1,8,0:0:0:0:
352,96,168974,1,8,0:0:0:0:
352,96,169320,1,8,0:0:0:0:
352,288,169667,1,12,0:0:0:0:
160,288,170128,1,4,0:0:0:0:
352,96,171051,1,8,0:0:0:0:
352,96,171282,1,8,0:0:0:0:
352,96,171513,1,8,0:0:0:0:
160,96,171744,1,0,0:0:0:0:
352,96,171974,1,8,0:0:0:0:
352,96,172436,1,8,0:0:0:0:
352,96,172897,1,8,0:0:0:0:
352,96,173128,1,8,0:0:0:0:
352,96,173359,1,8,0:0:0:0:
352,96,173590,1,8,0:0:0:0:
352,96,173820,1,8,0:0:0:0:
352,96,174282,1,8,0:0:0:0:
352,96,174744,1,8,0:0:0:0:
352,96,174974,1,8,0:0:0:0:
352,96,175205,1,8,0:0:0:0:
352,288,175667,1,12,0:0:0:0:
160,96,175897,1,0,0:0:0:0:
352,96,176128,1,8,0:0:0:0:
352,96,176590,1,8,0:0:0:0:
160,96,177051,1,0,0:0:0:0:
160,288,177513,1,4,0:0:0:0:
160,288,177974,1,4,0:0:0:0:
352,288,178667,1,12,0:0:0:0:
352,288,179128,1,12,0:0:0:0:
160,288,179359,1,4,0:0:0:0:
160,288,179820,1,4,0:0:0:0:
160,288,180513,1,4,0:0:0:0:
352,288,180974,1,12,0:0:0:0:
160,288,181205,1,4,0:0:0:0:
160,288,181667,1,4,0:0:0:0:
352,288,182359,1,12,0:0:0:0:
160,288,182820,1,4,0:0:0:0:
352,288,183051,1,12,0:0:0:0:
352,96,183513,1,8,0:0:0:0:
160,96,183744,1,0,0:0:0:0:
160,96,183974,1,0,0:0:0:0:
352,96,184436,1,8,0:0:0:0:
160,288,184897,1,4,0:0:0:0:
160,288,185359,1,4,0:0:0:0:
352,288,186051,1,12,0:0:0:0:
352,288,186513,1,12,0:0:0:0:
160,288,186744,1,4,0:0:0:0:
160,288,187205,1,4,0:0:0:0:
160,288,187897,1,4,0:0:0:0:
352,288,188359,1,12,0:0:0:0:
160,288,188590,1,4,0:0:0:0:
352,288,189051,1,12,0:0:0:0:
352,288,189744,1,12,0:0:0:0:
160,288,190205,1,4,0:0:0:0:
352,288,190436,1,12,0:0:0:0:
352,96,190897,1,8,0:0:0:0:
160,96,191128,1,0,0:0:0:0:
160,96,191359,1,0,0:0:0:0:
160,288,192282,1,4,0:0:0:0:
352,288,192744,1,12,0:0:0:0:
352,96,193205,1,8,0:0:0:0:
160,288,193436,1,4,0:0:0:0:
352,288,193897,1,12,0:0:0:0:
160,96,194128,1,0,0:0:0:0:
352,288,194590,1,12,0:0:0:0:
352,96,195051,1,8,0:0:0:0:
160,288,195282,1,4,0:0:0:0:
160,288,195744,1,4,0:0:0:0:
160,96,195974,1,0,0:0:0:0:
352,288,196436,1,12,0:0:0:0:
352,96,196897,1,8,0:0:0:0:
160,288,197128,1,4,0:0:0:0:
160,288,197590,1,4,0:0:0:0:
352,288,197820,1,12,0:0:0:0:
352,96,198282,1,8,0:0:0:0:
352,96,199205,1,8,0:0:0:0:
160,288,199667,1,4,0:0:0:0:
352,288,200128,1,12,0:0:0:0:
352,96,200590,1,8,0:0:0:0:
160,288,200820,1,4,0:0:0:0:
160,288,201282,1,4,0:0:0:0:
352,96,201513,1,8,0:0:0:0:
352,288,201974,1,12,0:0:0:0:
352,96,202436,1,8,0:0:0:0:
160,288,202667,1,4,0:0:0:0:
352,288,203128,1,12,0:0:0:0:
160,96,203359,2,0,L|224:192,12,23.3333333333333,8|8|0|0|0|0|8|8|0|0|0|0|8,0:0|0:0|0:0|0:0|0:0|0:0|0:0|0:0|0:0|0:0|0:0|0:0|0:0,0:0:0:0:
352,288,204513,1,12,0:0:0:0:
160,288,204974,1,4,0:0:0:0:
352,288,205205,1,12,0:0:0:0:
