osu file format v14

[General]
AudioFilename: audio.mp3
AudioLeadIn: 0
PreviewTime: 91724
Countdown: 0
SampleSet: None
StackLeniency: 0.7
Mode: 3
LetterboxInBreaks: 0
SpecialStyle: 0
WidescreenStoryboard: 0

[Editor]
Bookmarks: 69026,155375
DistanceSpacing: 1
BeatDivisor: 8
GridSize: 8
TimelineZoom: 1

[Metadata]
Title:First Kill
TitleUnicode:First Kill
Artist:Amon Amarth
ArtistUnicode:Amon Amarth
Creator:Cokiiplay
Version:Outlaw
Source:
Tags:Jomsviking viking melodic death metal
BeatmapID:1877298
BeatmapSetID:898667

[Difficulty]
HPDrainRate:8
CircleSize:4
OverallDifficulty:8
ApproachRate:5
SliderMultiplier:1.4
SliderTickRate:1

[Events]
//Background and Video events
0,0,"fot_072_A45.jpg",0,0
//Break Periods
//Storyboard Layer 0 (Background)
//Storyboard Layer 1 (Fail)
//Storyboard Layer 2 (Pass)
//Storyboard Layer 3 (Foreground)
//Storyboard Sound Samples

[TimingPoints]
296,634.920634920635,4,1,0,20,1,0

[HitObjects]
64,192,296,5,0,0:0:0:0:
448,192,296,1,0,0:0:0:0:
320,192,401,1,0,0:0:0:0:
192,192,507,1,0,0:0:0:0:
320,192,613,1,0,0:0:0:0:
192,192,719,1,0,0:0:0:0:
320,192,825,1,0,0:0:0:0:
192,192,930,1,0,0:0:0:0:
448,192,930,1,0,0:0:0:0:
64,192,930,128,0,1883:0:0:0:0:
448,192,1883,1,0,0:0:0:0:
192,192,1989,1,0,0:0:0:0:
320,192,2094,1,0,0:0:0:0:
448,192,2200,128,0,2518:0:0:0:0:
192,192,2518,128,0,2835:0:0:0:0:
320,192,2835,1,0,0:0:0:0:
448,192,2835,1,0,0:0:0:0:
64,192,2941,1,0,0:0:0:0:
448,192,3047,1,0,0:0:0:0:
64,192,3153,1,0,0:0:0:0:
448,192,3258,1,0,0:0:0:0:
64,192,3364,1,0,0:0:0:0:
192,192,3470,1,0,0:0:0:0:
448,192,3470,1,0,0:0:0:0:
320,192,3470,128,0,4422:0:0:0:0:
64,192,4422,1,0,0:0:0:0:
448,192,4528,1,0,0:0:0:0:
320,192,4634,1,0,0:0:0:0:
192,192,4740,128,0,5057:0:0:0:0:
448,192,5057,128,0,5375:0:0:0:0:
192,192,5375,1,0,0:0:0:0:
64,192,5375,1,0,0:0:0:0:
320,192,5481,1,0,0:0:0:0:
192,192,5587,1,0,0:0:0:0:
320,192,5692,1,0,0:0:0:0:
192,192,5798,1,0,0:0:0:0:
320,192,5904,1,0,0:0:0:0:
192,192,6010,1,0,0:0:0:0:
448,192,6010,1,0,0:0:0:0:
64,192,6010,128,0,6962:0:0:0:0:
320,192,6962,1,0,0:0:0:0:
448,192,7068,1,0,0:0:0:0:
64,192,7174,1,0,0:0:0:0:
192,192,7280,128,0,7597:0:0:0:0:
448,192,7598,128,0,7913:0:0:0:0:
192,192,7915,1,0,0:0:0:0:
64,192,7915,1,0,0:0:0:0:
320,192,8073,1,0,0:0:0:0:
192,192,8153,1,0,0:0:0:0:
64,192,8232,1,0,0:0:0:0:
448,192,8338,1,0,0:0:0:0:
320,192,8444,1,0,0:0:0:0:
192,192,8549,1,0,0:0:0:0:
320,192,8655,1,0,0:0:0:0:
192,192,8761,1,0,0:0:0:0:
64,192,8867,1,0,0:0:0:0:
192,192,8973,1,0,0:0:0:0:
64,192,9079,1,0,0:0:0:0:
320,192,9184,1,0,0:0:0:0:
448,192,9184,1,0,0:0:0:0:
192,192,9184,1,0,0:0:0:0:
64,192,9343,1,0,0:0:0:0:
448,192,9343,1,0,0:0:0:0:
192,192,9502,1,0,0:0:0:0:
320,192,9502,1,0,0:0:0:0:
448,192,9608,1,0,0:0:0:0:
64,192,9608,1,0,0:0:0:0:
320,192,9713,1,0,0:0:0:0:
192,192,9713,1,0,0:0:0:0:
64,192,9819,1,0,0:0:0:0:
448,192,9925,1,0,0:0:0:0:
64,192,10031,1,0,0:0:0:0:
192,192,10137,1,0,0:0:0:0:
64,192,10243,1,0,0:0:0:0:
320,192,10348,1,0,0:0:0:0:
448,192,10454,1,0,0:0:0:0:
192,192,10560,1,0,0:0:0:0:
448,192,10666,1,0,0:0:0:0:
192,192,10772,1,0,0:0:0:0:
448,192,10878,1,0,0:0:0:0:
192,192,10983,1,0,0:0:0:0:
64,192,11089,1,0,0:0:0:0:
448,192,11089,1,0,0:0:0:0:
320,192,11089,128,0,12042:0:0:0:0:
64,192,12042,1,0,0:0:0:0:
192,192,12147,1,0,0:0:0:0:
320,192,12253,1,0,0:0:0:0:
448,192,12359,128,0,12676:0:0:0:0:
192,192,12676,128,0,12994:0:0:0:0:
448,192,12994,1,0,0:0:0:0:
64,192,12994,1,0,0:0:0:0:
320,192,13100,1,0,0:0:0:0:
64,192,13206,1,0,0:0:0:0:
320,192,13311,1,0,0:0:0:0:
64,192,13417,1,0,0:0:0:0:
320,192,13523,1,0,0:0:0:0:
64,192,13629,1,0,0:0:0:0:
448,192,13629,1,0,0:0:0:0:
192,192,13629,128,0,14581:0:0:0:0:
448,192,14581,1,0,0:0:0:0:
320,192,14687,1,0,0:0:0:0:
64,192,14793,1,0,0:0:0:0:
192,192,14899,128,0,15216:0:0:0:0:
448,192,15216,128,0,15534:0:0:0:0:
320,192,15534,1,0,0:0:0:0:
192,192,15534,1,0,0:0:0:0:
64,192,15639,1,0,0:0:0:0:
320,192,15745,1,0,0:0:0:0:
64,192,15851,1,0,0:0:0:0:
320,192,15957,1,0,0:0:0:0:
64,192,16063,1,0,0:0:0:0:
320,192,16169,1,0,0:0:0:0:
192,192,16169,1,0,0:0:0:0:
448,192,16169,128,0,17121:0:0:0:0:
64,192,17121,1,0,0:0:0:0:
320,192,17227,1,0,0:0:0:0:
192,192,17333,1,0,0:0:0:0:
64,192,17438,128,0,17756:0:0:0:0:
320,192,17756,128,0,18073:0:0:0:0:
192,192,18073,1,0,0:0:0:0:
64,192,18073,1,0,0:0:0:0:
448,192,18073,1,0,0:0:0:0:
64,192,18232,1,0,0:0:0:0:
192,192,18232,1,0,0:0:0:0:
320,192,18391,1,0,0:0:0:0:
448,192,18391,1,0,0:0:0:0:
192,192,18497,1,0,0:0:0:0:
64,192,18497,1,0,0:0:0:0:
320,192,18602,1,0,0:0:0:0:
448,192,18602,1,0,0:0:0:0:
192,192,18708,1,0,0:0:0:0:
320,192,18814,1,0,0:0:0:0:
192,192,18920,1,0,0:0:0:0:
64,192,19026,1,0,0:0:0:0:
192,192,19131,1,0,0:0:0:0:
320,192,19237,1,0,0:0:0:0:
448,192,19343,1,0,0:0:0:0:
64,192,19343,1,0,0:0:0:0:
192,192,19449,1,0,0:0:0:0:
320,192,19449,1,0,0:0:0:0:
448,192,19555,1,0,0:0:0:0:
64,192,19555,1,0,0:0:0:0:
192,192,19661,1,0,0:0:0:0:
320,192,19661,1,0,0:0:0:0:
64,192,19766,1,0,0:0:0:0:
448,192,19872,1,0,0:0:0:0:
320,192,19978,1,0,0:0:0:0:
64,192,19978,1,0,0:0:0:0:
192,192,19978,128,0,20296:0:0:0:0:
64,192,20296,1,0,0:0:0:0:
320,192,20296,1,0,0:0:0:0:
448,192,20296,128,0,20613:0:0:0:0:
320,192,20613,1,0,0:0:0:0:
64,192,20613,128,0,24422:0:0:0:0:
192,192,20772,1,0,0:0:0:0:
192,192,20930,1,0,0:0:0:0:
448,192,21089,1,0,0:0:0:0:
320,192,21248,1,0,0:0:0:0:
320,192,21407,1,0,0:0:0:0:
448,192,21565,1,0,0:0:0:0:
192,192,21724,1,0,0:0:0:0:
192,192,21883,1,0,0:0:0:0:
448,192,22042,1,0,0:0:0:0:
192,192,22200,1,0,0:0:0:0:
192,192,22359,1,0,0:0:0:0:
320,192,22518,1,0,0:0:0:0:
192,192,22676,1,0,0:0:0:0:
320,192,22835,1,0,0:0:0:0:
192,192,22994,1,0,0:0:0:0:
448,192,23153,1,0,0:0:0:0:
320,192,23311,1,0,0:0:0:0:
320,192,23470,1,0,0:0:0:0:
448,192,23629,1,0,0:0:0:0:
192,192,23788,1,0,0:0:0:0:
192,192,23946,1,0,0:0:0:0:
448,192,24105,1,0,0:0:0:0:
320,192,24264,1,0,0:0:0:0:
320,192,24422,1,0,0:0:0:0:
448,192,24581,1,0,0:0:0:0:
64,192,24740,1,0,0:0:0:0:
64,192,24899,1,0,0:0:0:0:
448,192,25057,1,0,0:0:0:0:
192,192,25216,1,0,0:0:0:0:
448,192,25375,1,0,0:0:0:0:
192,192,25534,1,0,0:0:0:0:
448,192,25692,128,0,29502:0:0:0:0:
320,192,25692,1,0,0:0:0:0:
64,192,25851,1,0,0:0:0:0:
64,192,26010,1,0,0:0:0:0:
320,192,26169,1,0,0:0:0:0:
192,192,26327,1,0,0:0:0:0:
192,192,26486,1,0,0:0:0:0:
320,192,26645,1,0,0:0:0:0:
64,192,26803,1,0,0:0:0:0:
64,192,26962,1,0,0:0:0:0:
320,192,27121,1,0,0:0:0:0:
64,192,27280,1,0,0:0:0:0:
64,192,27438,1,0,0:0:0:0:
320,192,27597,1,0,0:0:0:0:
192,192,27756,1,0,0:0:0:0:
320,192,27915,1,0,0:0:0:0:
192,192,28073,1,0,0:0:0:0:
64,192,28232,1,0,0:0:0:0:
320,192,28391,1,0,0:0:0:0:
320,192,28549,1,0,0:0:0:0:
64,192,28708,1,0,0:0:0:0:
192,192,28867,1,0,0:0:0:0:
192,192,29026,1,0,0:0:0:0:
320,192,29184,1,0,0:0:0:0:
64,192,29343,1,0,0:0:0:0:
192,192,29502,128,0,30137:0:0:0:0:
64,192,29502,1,0,0:0:0:0:
320,192,29661,1,0,0:0:0:0:
448,192,29819,1,0,0:0:0:0:
448,192,29978,1,0,0:0:0:0:
320,192,30137,128,0,30772:0:0:0:0:
64,192,30137,1,0,0:0:0:0:
448,192,30296,1,0,0:0:0:0:
64,192,30454,1,0,0:0:0:0:
448,192,30613,1,0,0:0:0:0:
192,192,30772,128,0,34581:0:0:0:0:
64,192,30772,1,0,0:0:0:0:
448,192,30930,1,0,0:0:0:0:
448,192,31089,1,0,0:0:0:0:
64,192,31248,1,0,0:0:0:0:
320,192,31407,1,0,0:0:0:0:
320,192,31565,1,0,0:0:0:0:
64,192,31724,1,0,0:0:0:0:
320,192,31883,1,0,0:0:0:0:
320,192,32042,1,0,0:0:0:0:
64,192,32200,1,0,0:0:0:0:
448,192,32359,1,0,0:0:0:0:
448,192,32518,1,0,0:0:0:0:
64,192,32676,1,0,0:0:0:0:
320,192,32835,1,0,0:0:0:0:
64,192,32994,1,0,0:0:0:0:
320,192,33153,1,0,0:0:0:0:
448,192,33311,1,0,0:0:0:0:
64,192,33470,1,0,0:0:0:0:
64,192,33629,1,0,0:0:0:0:
448,192,33788,1,0,0:0:0:0:
320,192,33946,1,0,0:0:0:0:
320,192,34105,1,0,0:0:0:0:
448,192,34264,1,0,0:0:0:0:
64,192,34422,1,0,0:0:0:0:
320,192,34581,128,0,35216:0:0:0:0:
64,192,34581,1,0,0:0:0:0:
448,192,34740,1,0,0:0:0:0:
192,192,34899,1,0,0:0:0:0:
192,192,35057,1,0,0:0:0:0:
64,192,35216,128,0,35851:0:0:0:0:
448,192,35216,1,0,0:0:0:0:
192,192,35375,1,0,0:0:0:0:
192,192,35534,1,0,0:0:0:0:
448,192,35692,1,0,0:0:0:0:
320,192,35851,1,0,0:0:0:0:
192,192,35851,1,0,0:0:0:0:
448,192,35930,1,0,0:0:0:0:
64,192,36010,1,0,0:0:0:0:
320,192,36169,1,0,0:0:0:0:
192,192,36248,1,0,0:0:0:0:
320,192,36327,1,0,0:0:0:0:
448,192,36327,1,0,0:0:0:0:
64,192,36407,1,0,0:0:0:0:
192,192,36486,1,0,0:0:0:0:
448,192,36565,1,0,0:0:0:0:
320,192,36645,1,0,0:0:0:0:
192,192,36724,1,0,0:0:0:0:
448,192,36803,1,0,0:0:0:0:
320,192,36803,1,0,0:0:0:0:
192,192,36883,1,0,0:0:0:0:
64,192,36883,1,0,0:0:0:0:
320,192,36962,1,0,0:0:0:0:
448,192,36962,1,0,0:0:0:0:
192,192,37042,1,0,0:0:0:0:
64,192,37042,1,0,0:0:0:0:
448,192,37121,1,0,0:0:0:0:
320,192,37200,1,0,0:0:0:0:
192,192,37280,1,0,0:0:0:0:
448,192,37359,1,0,0:0:0:0:
192,192,37438,1,0,0:0:0:0:
448,192,37518,1,0,0:0:0:0:
64,192,37597,1,0,0:0:0:0:
320,192,37676,1,0,0:0:0:0:
192,192,37756,1,0,0:0:0:0:
448,192,37835,1,0,0:0:0:0:
192,192,37915,1,0,0:0:0:0:
64,192,37915,1,0,0:0:0:0:
448,192,37994,1,0,0:0:0:0:
320,192,38073,1,0,0:0:0:0:
64,192,38153,1,0,0:0:0:0:
192,192,38232,1,0,0:0:0:0:
448,192,38311,1,0,0:0:0:0:
320,192,38391,1,0,0:0:0:0:
64,192,38391,1,0,0:0:0:0:
192,192,38391,1,0,0:0:0:0:
448,192,38470,1,0,0:0:0:0:
64,192,38549,1,0,0:0:0:0:
320,192,38629,1,0,0:0:0:0:
192,192,38708,1,0,0:0:0:0:
448,192,38708,1,0,0:0:0:0:
64,192,38788,1,0,0:0:0:0:
320,192,38867,1,0,0:0:0:0:
448,192,38867,1,0,0:0:0:0:
192,192,38867,1,0,0:0:0:0:
64,192,38946,1,0,0:0:0:0:
320,192,39026,1,0,0:0:0:0:
64,192,39105,1,0,0:0:0:0:
192,192,39184,1,0,0:0:0:0:
448,192,39184,1,0,0:0:0:0:
320,192,39264,1,0,0:0:0:0:
192,192,39343,1,0,0:0:0:0:
64,192,39343,1,0,0:0:0:0:
448,192,39343,1,0,0:0:0:0:
320,192,39422,1,0,0:0:0:0:
64,192,39502,1,0,0:0:0:0:
192,192,39581,1,0,0:0:0:0:
320,192,39661,1,0,0:0:0:0:
448,192,39661,1,0,0:0:0:0:
192,192,39740,1,0,0:0:0:0:
64,192,39819,1,0,0:0:0:0:
448,192,39819,1,0,0:0:0:0:
320,192,39899,1,0,0:0:0:0:
192,192,39899,1,0,0:0:0:0:
64,192,39978,1,0,0:0:0:0:
448,192,39978,1,0,0:0:0:0:
320,192,40057,1,0,0:0:0:0:
192,192,40137,1,0,0:0:0:0:
448,192,40216,1,0,0:0:0:0:
320,192,40296,1,0,0:0:0:0:
64,192,40296,1,0,0:0:0:0:
192,192,40375,1,0,0:0:0:0:
448,192,40375,1,0,0:0:0:0:
320,192,40454,1,0,0:0:0:0:
64,192,40534,1,0,0:0:0:0:
320,192,40613,1,0,0:0:0:0:
192,192,40613,1,0,0:0:0:0:
448,192,40613,1,0,0:0:0:0:
64,192,40692,1,0,0:0:0:0:
448,192,40772,1,0,0:0:0:0:
320,192,40851,1,0,0:0:0:0:
192,192,40930,1,0,0:0:0:0:
64,192,40930,1,0,0:0:0:0:
192,192,41169,1,0,0:0:0:0:
64,192,41169,1,0,0:0:0:0:
320,192,41248,1,0,0:0:0:0:
448,192,41248,1,0,0:0:0:0:
192,192,41407,1,0,0:0:0:0:
448,192,41407,1,0,0:0:0:0:
192,192,41645,1,0,0:0:0:0:
64,192,41645,1,0,0:0:0:0:
320,192,41724,1,0,0:0:0:0:
448,192,41724,1,0,0:0:0:0:
64,192,41883,1,0,0:0:0:0:
448,192,41883,1,0,0:0:0:0:
320,192,41962,1,0,0:0:0:0:
192,192,42042,1,0,0:0:0:0:
64,192,42042,1,0,0:0:0:0:
320,192,42121,1,0,0:0:0:0:
448,192,42121,1,0,0:0:0:0:
192,192,42200,1,0,0:0:0:0:
64,192,42200,1,0,0:0:0:0:
448,192,42359,1,0,0:0:0:0:
320,192,42359,1,0,0:0:0:0:
64,192,42359,1,0,0:0:0:0:
192,192,42518,1,0,0:0:0:0:
448,192,42518,1,0,0:0:0:0:
320,192,42676,1,0,0:0:0:0:
64,192,42756,1,0,0:0:0:0:
192,192,42835,1,0,0:0:0:0:
448,192,42915,1,0,0:0:0:0:
320,192,42994,1,0,0:0:0:0:
64,192,43073,1,0,0:0:0:0:
192,192,43153,1,0,0:0:0:0:
448,192,43153,1,0,0:0:0:0:
320,192,43232,1,0,0:0:0:0:
192,192,43311,1,0,0:0:0:0:
64,192,43311,1,0,0:0:0:0:
448,192,43470,1,0,0:0:0:0:
64,192,43549,1,0,0:0:0:0:
320,192,43629,1,0,0:0:0:0:
192,192,43708,1,0,0:0:0:0:
320,192,43788,1,0,0:0:0:0:
192,192,43867,1,0,0:0:0:0:
64,192,43946,1,0,0:0:0:0:
320,192,44026,1,0,0:0:0:0:
448,192,44026,1,0,0:0:0:0:
192,192,44105,1,0,0:0:0:0:
64,192,44105,1,0,0:0:0:0:
448,192,44184,1,0,0:0:0:0:
320,192,44264,1,0,0:0:0:0:
64,192,44264,1,0,0:0:0:0:
192,192,44343,1,0,0:0:0:0:
320,192,44422,1,0,0:0:0:0:
448,192,44422,1,0,0:0:0:0:
192,192,44502,1,0,0:0:0:0:
64,192,44502,1,0,0:0:0:0:
448,192,44581,1,0,0:0:0:0:
320,192,44581,1,0,0:0:0:0:
64,192,44661,1,0,0:0:0:0:
192,192,44740,1,0,0:0:0:0:
448,192,44740,1,0,0:0:0:0:
320,192,44819,1,0,0:0:0:0:
64,192,44819,1,0,0:0:0:0:
192,192,44899,1,0,0:0:0:0:
448,192,44978,1,0,0:0:0:0:
192,192,45057,1,0,0:0:0:0:
64,192,45057,1,0,0:0:0:0:
320,192,45137,1,0,0:0:0:0:
448,192,45137,1,0,0:0:0:0:
192,192,45216,1,0,0:0:0:0:
64,192,45216,1,0,0:0:0:0:
320,192,45296,1,0,0:0:0:0:
448,192,45296,1,0,0:0:0:0:
64,192,45375,1,0,0:0:0:0:
192,192,45454,1,0,0:0:0:0:
448,192,45534,1,0,0:0:0:0:
64,192,45613,1,0,0:0:0:0:
320,192,45692,1,0,0:0:0:0:
192,192,45772,1,0,0:0:0:0:
320,192,45851,1,0,0:0:0:0:
64,192,45930,1,0,0:0:0:0:
192,192,46010,1,0,0:0:0:0:
320,192,46010,1,0,0:0:0:0:
448,192,46010,1,0,0:0:0:0:
64,192,46089,1,0,0:0:0:0:
448,192,46169,1,0,0:0:0:0:
320,192,46248,1,0,0:0:0:0:
192,192,46327,1,0,0:0:0:0:
64,192,46327,1,0,0:0:0:0:
448,192,46327,1,0,0:0:0:0:
320,192,46407,1,0,0:0:0:0:
64,192,46486,1,0,0:0:0:0:
448,192,46565,1,0,0:0:0:0:
320,192,46645,1,0,0:0:0:0:
192,192,46645,1,0,0:0:0:0:
64,192,46645,1,0,0:0:0:0:
448,192,46724,1,0,0:0:0:0:
192,192,46803,1,0,0:0:0:0:
320,192,46883,1,0,0:0:0:0:
192,192,46962,1,0,0:0:0:0:
64,192,46962,1,0,0:0:0:0:
448,192,46962,1,0,0:0:0:0:
320,192,47042,1,0,0:0:0:0:
64,192,47121,1,0,0:0:0:0:
448,192,47200,1,0,0:0:0:0:
320,192,47280,1,0,0:0:0:0:
192,192,47280,1,0,0:0:0:0:
64,192,47280,1,0,0:0:0:0:
448,192,47359,1,0,0:0:0:0:
192,192,47438,1,0,0:0:0:0:
320,192,47518,1,0,0:0:0:0:
192,192,47597,1,0,0:0:0:0:
64,192,47597,1,0,0:0:0:0:
448,192,47597,1,0,0:0:0:0:
320,192,47676,1,0,0:0:0:0:
64,192,47756,1,0,0:0:0:0:
448,192,47835,1,0,0:0:0:0:
320,192,47915,1,0,0:0:0:0:
192,192,47915,1,0,0:0:0:0:
64,192,47915,1,0,0:0:0:0:
448,192,47994,1,0,0:0:0:0:
320,192,48073,1,0,0:0:0:0:
192,192,48153,1,0,0:0:0:0:
64,192,48232,1,0,0:0:0:0:
320,192,48232,1,0,0:0:0:0:
448,192,48232,1,0,0:0:0:0:
192,192,48311,1,0,0:0:0:0:
448,192,48391,1,0,0:0:0:0:
64,192,48470,1,0,0:0:0:0:
192,192,48549,1,0,0:0:0:0:
320,192,48549,1,0,0:0:0:0:
448,192,48549,1,0,0:0:0:0:
64,192,48629,1,0,0:0:0:0:
192,192,48708,1,0,0:0:0:0:
448,192,48788,1,0,0:0:0:0:
64,192,48867,1,0,0:0:0:0:
320,192,48867,1,0,0:0:0:0:
192,192,48867,1,0,0:0:0:0:
448,192,48946,1,0,0:0:0:0:
320,192,49026,1,0,0:0:0:0:
64,192,49105,1,0,0:0:0:0:
192,192,49184,1,0,0:0:0:0:
320,192,49184,1,0,0:0:0:0:
448,192,49184,1,0,0:0:0:0:
64,192,49264,1,0,0:0:0:0:
448,192,49343,1,0,0:0:0:0:
192,192,49422,1,0,0:0:0:0:
64,192,49502,1,0,0:0:0:0:
320,192,49502,1,0,0:0:0:0:
448,192,49502,1,0,0:0:0:0:
192,192,49581,1,0,0:0:0:0:
64,192,49661,1,0,0:0:0:0:
448,192,49740,1,0,0:0:0:0:
192,192,49819,1,0,0:0:0:0:
64,192,49819,1,0,0:0:0:0:
320,192,49819,1,0,0:0:0:0:
448,192,49899,1,0,0:0:0:0:
320,192,49978,1,0,0:0:0:0:
64,192,50057,1,0,0:0:0:0:
320,192,50137,1,0,0:0:0:0:
448,192,50137,1,0,0:0:0:0:
192,192,50137,1,0,0:0:0:0:
64,192,50216,1,0,0:0:0:0:
448,192,50296,1,0,0:0:0:0:
320,192,50375,1,0,0:0:0:0:
64,192,50454,1,0,0:0:0:0:
192,192,50454,1,0,0:0:0:0:
448,192,50534,1,0,0:0:0:0:
320,192,50613,1,0,0:0:0:0:
64,192,50692,1,0,0:0:0:0:
192,192,50772,1,0,0:0:0:0:
320,192,50772,1,0,0:0:0:0:
448,192,50772,1,0,0:0:0:0:
64,192,50851,1,0,0:0:0:0:
448,192,50930,1,0,0:0:0:0:
192,192,51010,1,0,0:0:0:0:
64,192,51089,1,0,0:0:0:0:
320,192,51089,1,0,0:0:0:0:
448,192,51169,1,0,0:0:0:0:
192,192,51248,1,0,0:0:0:0:
320,192,51327,1,0,0:0:0:0:
192,192,51407,1,0,0:0:0:0:
64,192,51407,1,0,0:0:0:0:
448,192,51407,1,0,0:0:0:0:
320,192,51486,1,0,0:0:0:0:
64,192,51565,1,0,0:0:0:0:
448,192,51645,1,0,0:0:0:0:
320,192,51724,1,0,0:0:0:0:
192,192,51724,1,0,0:0:0:0:
64,192,51724,1,0,0:0:0:0:
448,192,51803,1,0,0:0:0:0:
192,192,51883,1,0,0:0:0:0:
320,192,51962,1,0,0:0:0:0:
448,192,52042,1,0,0:0:0:0:
64,192,52042,1,0,0:0:0:0:
192,192,52042,1,0,0:0:0:0:
320,192,52121,1,0,0:0:0:0:
448,192,52200,1,0,0:0:0:0:
64,192,52280,1,0,0:0:0:0:
192,192,52359,1,0,0:0:0:0:
320,192,52359,1,0,0:0:0:0:
448,192,52359,1,0,0:0:0:0:
64,192,52438,1,0,0:0:0:0:
192,192,52518,1,0,0:0:0:0:
448,192,52597,1,0,0:0:0:0:
320,192,52676,1,0,0:0:0:0:
192,192,52676,1,0,0:0:0:0:
64,192,52676,1,0,0:0:0:0:
448,192,52756,1,0,0:0:0:0:
64,192,52835,1,0,0:0:0:0:
192,192,52915,1,0,0:0:0:0:
64,192,52994,1,0,0:0:0:0:
448,192,52994,1,0,0:0:0:0:
320,192,52994,1,0,0:0:0:0:
192,192,53073,1,0,0:0:0:0:
320,192,53153,1,0,0:0:0:0:
448,192,53232,1,0,0:0:0:0:
320,192,53311,1,0,0:0:0:0:
192,192,53311,1,0,0:0:0:0:
64,192,53311,1,0,0:0:0:0:
448,192,53391,1,0,0:0:0:0:
192,192,53470,1,0,0:0:0:0:
320,192,53549,1,0,0:0:0:0:
192,192,53629,1,0,0:0:0:0:
64,192,53629,1,0,0:0:0:0:
448,192,53629,1,0,0:0:0:0:
320,192,53708,1,0,0:0:0:0:
64,192,53788,1,0,0:0:0:0:
448,192,53867,1,0,0:0:0:0:
320,192,53946,1,0,0:0:0:0:
192,192,53946,1,0,0:0:0:0:
64,192,53946,1,0,0:0:0:0:
448,192,54026,1,0,0:0:0:0:
320,192,54105,1,0,0:0:0:0:
192,192,54184,1,0,0:0:0:0:
64,192,54264,1,0,0:0:0:0:
320,192,54264,1,0,0:0:0:0:
448,192,54264,1,0,0:0:0:0:
192,192,54343,1,0,0:0:0:0:
448,192,54422,1,0,0:0:0:0:
64,192,54502,1,0,0:0:0:0:
192,192,54581,1,0,0:0:0:0:
320,192,54581,1,0,0:0:0:0:
448,192,54581,1,0,0:0:0:0:
64,192,54661,1,0,0:0:0:0:
320,192,54740,1,0,0:0:0:0:
192,192,54819,1,0,0:0:0:0:
64,192,54899,1,0,0:0:0:0:
320,192,54899,1,0,0:0:0:0:
448,192,54899,1,0,0:0:0:0:
192,192,54978,1,0,0:0:0:0:
448,192,55057,1,0,0:0:0:0:
64,192,55137,1,0,0:0:0:0:
192,192,55216,1,0,0:0:0:0:
320,192,55216,1,0,0:0:0:0:
448,192,55216,1,0,0:0:0:0:
192,192,55375,1,0,0:0:0:0:
64,192,55375,1,0,0:0:0:0:
320,192,55454,1,0,0:0:0:0:
448,192,55454,1,0,0:0:0:0:
192,192,55534,1,0,0:0:0:0:
64,192,55534,1,0,0:0:0:0:
320,192,55613,1,0,0:0:0:0:
448,192,55613,1,0,0:0:0:0:
64,192,55692,1,0,0:0:0:0:
320,192,55772,1,0,0:0:0:0:
192,192,55851,1,0,0:0:0:0:
448,192,55930,1,0,0:0:0:0:
64,192,56010,1,0,0:0:0:0:
192,192,56089,1,0,0:0:0:0:
320,192,56169,1,0,0:0:0:0:
448,192,56169,1,0,0:0:0:0:
192,192,56327,1,0,0:0:0:0:
320,192,56407,1,0,0:0:0:0:
64,192,56486,1,0,0:0:0:0:
448,192,56486,1,0,0:0:0:0:
192,192,56486,1,0,0:0:0:0:
320,192,56565,1,0,0:0:0:0:
64,192,56645,1,0,0:0:0:0:
192,192,56724,1,0,0:0:0:0:
448,192,56803,1,0,0:0:0:0:
64,192,56803,1,0,0:0:0:0:
320,192,56803,1,0,0:0:0:0:
192,192,56883,1,0,0:0:0:0:
448,192,56962,1,0,0:0:0:0:
320,192,57042,1,0,0:0:0:0:
192,192,57121,1,0,0:0:0:0:
64,192,57121,1,0,0:0:0:0:
448,192,57121,1,0,0:0:0:0:
320,192,57200,1,0,0:0:0:0:
192,192,57280,1,0,0:0:0:0:
64,192,57359,1,0,0:0:0:0:
192,192,57438,1,0,0:0:0:0:
320,192,57438,1,0,0:0:0:0:
448,192,57438,1,0,0:0:0:0:
64,192,57518,1,0,0:0:0:0:
448,192,57597,1,0,0:0:0:0:
192,192,57676,1,0,0:0:0:0:
320,192,57756,1,0,0:0:0:0:
448,192,57756,1,0,0:0:0:0:
64,192,57756,1,0,0:0:0:0:
192,192,57835,1,0,0:0:0:0:
320,192,57915,1,0,0:0:0:0:
64,192,57994,1,0,0:0:0:0:
192,192,58073,1,0,0:0:0:0:
320,192,58073,1,0,0:0:0:0:
448,192,58073,1,0,0:0:0:0:
64,192,58153,1,0,0:0:0:0:
448,192,58232,1,0,0:0:0:0:
320,192,58311,1,0,0:0:0:0:
192,192,58391,1,0,0:0:0:0:
64,192,58391,1,0,0:0:0:0:
448,192,58391,1,0,0:0:0:0:
320,192,58470,1,0,0:0:0:0:
192,192,58549,1,0,0:0:0:0:
448,192,58629,1,0,0:0:0:0:
320,192,58708,1,0,0:0:0:0:
64,192,58708,1,0,0:0:0:0:
192,192,58708,1,0,0:0:0:0:
448,192,58788,1,0,0:0:0:0:
64,192,58867,1,0,0:0:0:0:
192,192,58946,1,0,0:0:0:0:
320,192,59026,1,0,0:0:0:0:
448,192,59026,1,0,0:0:0:0:
64,192,59026,1,0,0:0:0:0:
192,192,59105,1,0,0:0:0:0:
320,192,59184,1,0,0:0:0:0:
64,192,59264,1,0,0:0:0:0:
192,192,59343,1,0,0:0:0:0:
320,192,59343,1,0,0:0:0:0:
448,192,59343,1,0,0:0:0:0:
64,192,59422,1,0,0:0:0:0:
448,192,59502,1,0,0:0:0:0:
320,192,59581,1,0,0:0:0:0:
192,192,59661,1,0,0:0:0:0:
64,192,59661,1,0,0:0:0:0:
448,192,59661,1,0,0:0:0:0:
320,192,59740,1,0,0:0:0:0:
192,192,59819,1,0,0:0:0:0:
448,192,59899,1,0,0:0:0:0:
320,192,59978,1,0,0:0:0:0:
192,192,59978,1,0,0:0:0:0:
64,192,59978,1,0,0:0:0:0:
448,192,60057,1,0,0:0:0:0:
64,192,60137,1,0,0:0:0:0:
320,192,60216,1,0,0:0:0:0:
192,192,60296,1,0,0:0:0:0:
64,192,60296,1,0,0:0:0:0:
448,192,60296,1,0,0:0:0:0:
320,192,60375,1,0,0:0:0:0:
192,192,60454,1,0,0:0:0:0:
448,192,60534,1,0,0:0:0:0:
320,192,60613,1,0,0:0:0:0:
192,192,60613,1,0,0:0:0:0:
64,192,60613,1,0,0:0:0:0:
448,192,60692,1,0,0:0:0:0:
320,192,60772,1,0,0:0:0:0:
64,192,60851,1,0,0:0:0:0:
192,192,60930,1,0,0:0:0:0:
320,192,60930,1,0,0:0:0:0:
448,192,60930,1,0,0:0:0:0:
64,192,61010,1,0,0:0:0:0:
192,192,61089,1,0,0:0:0:0:
448,192,61169,1,0,0:0:0:0:
320,192,61248,1,0,0:0:0:0:
192,192,61248,1,0,0:0:0:0:
64,192,61248,1,0,0:0:0:0:
448,192,61327,1,0,0:0:0:0:
64,192,61407,1,0,0:0:0:0:
192,192,61486,1,0,0:0:0:0:
64,192,61565,1,0,0:0:0:0:
448,192,61565,1,0,0:0:0:0:
320,192,61565,1,0,0:0:0:0:
192,192,61645,1,0,0:0:0:0:
320,192,61724,1,0,0:0:0:0:
448,192,61803,1,0,0:0:0:0:
320,192,61883,1,0,0:0:0:0:
192,192,61883,1,0,0:0:0:0:
64,192,61883,1,0,0:0:0:0:
448,192,61962,1,0,0:0:0:0:
64,192,62042,1,0,0:0:0:0:
320,192,62121,1,0,0:0:0:0:
192,192,62200,1,0,0:0:0:0:
64,192,62200,1,0,0:0:0:0:
448,192,62200,1,0,0:0:0:0:
320,192,62280,1,0,0:0:0:0:
192,192,62359,1,0,0:0:0:0:
448,192,62438,1,0,0:0:0:0:
320,192,62518,1,0,0:0:0:0:
64,192,62518,1,0,0:0:0:0:
192,192,62518,1,0,0:0:0:0:
448,192,62597,1,0,0:0:0:0:
64,192,62676,1,0,0:0:0:0:
320,192,62756,1,0,0:0:0:0:
192,192,62835,1,0,0:0:0:0:
64,192,62835,1,0,0:0:0:0:
448,192,62835,1,0,0:0:0:0:
320,192,62915,1,0,0:0:0:0:
448,192,62994,1,0,0:0:0:0:
192,192,63073,1,0,0:0:0:0:
64,192,63153,1,0,0:0:0:0:
320,192,63153,1,0,0:0:0:0:
448,192,63153,1,0,0:0:0:0:
192,192,63232,1,0,0:0:0:0:
320,192,63311,1,0,0:0:0:0:
64,192,63391,1,0,0:0:0:0:
192,192,63470,1,0,0:0:0:0:
320,192,63470,1,0,0:0:0:0:
448,192,63470,1,0,0:0:0:0:
64,192,63549,1,0,0:0:0:0:
448,192,63629,1,0,0:0:0:0:
192,192,63708,1,0,0:0:0:0:
64,192,63788,1,0,0:0:0:0:
320,192,63788,1,0,0:0:0:0:
448,192,63788,1,0,0:0:0:0:
192,192,63867,1,0,0:0:0:0:
320,192,63946,1,0,0:0:0:0:
448,192,64026,1,0,0:0:0:0:
192,192,64105,1,0,0:0:0:0:
64,192,64105,1,0,0:0:0:0:
320,192,64184,1,0,0:0:0:0:
448,192,64184,1,0,0:0:0:0:
192,192,64264,1,0,0:0:0:0:
64,192,64264,1,0,0:0:0:0:
320,192,64343,1,0,0:0:0:0:
448,192,64343,1,0,0:0:0:0:
64,192,64422,1,0,0:0:0:0:
192,192,64502,1,0,0:0:0:0:
320,192,64581,1,0,0:0:0:0:
192,192,64661,1,0,0:0:0:0:
448,192,64740,1,0,0:0:0:0:
320,192,64819,1,0,0:0:0:0:
64,192,64899,1,0,0:0:0:0:
192,192,64978,1,0,0:0:0:0:
320,192,65057,1,0,0:0:0:0:
448,192,65057,1,0,0:0:0:0:
64,192,65057,1,0,0:0:0:0:
192,192,65137,1,0,0:0:0:0:
448,192,65216,1,0,0:0:0:0:
320,192,65296,1,0,0:0:0:0:
64,192,65375,1,0,0:0:0:0:
192,192,65375,1,0,0:0:0:0:
448,192,65454,1,0,0:0:0:0:
64,192,65534,1,0,0:0:0:0:
320,192,65613,1,0,0:0:0:0:
192,192,65692,1,0,0:0:0:0:
448,192,65772,1,0,0:0:0:0:
64,192,65851,1,0,0:0:0:0:
192,192,65930,1,0,0:0:0:0:
320,192,66010,1,0,0:0:0:0:
192,192,66089,1,0,0:0:0:0:
448,192,66169,1,0,0:0:0:0:
64,192,66248,1,0,0:0:0:0:
192,192,66327,1,0,0:0:0:0:
448,192,66327,1,0,0:0:0:0:
320,192,66327,128,0,66486:0:0:0:0:
64,192,66486,1,0,0:0:0:0:
192,192,66645,128,0,66803:0:0:0:0:
64,192,66803,1,0,0:0:0:0:
320,192,66803,1,0,0:0:0:0:
448,192,66803,128,0,66962:0:0:0:0:
192,192,66962,1,0,0:0:0:0:
64,192,67121,128,0,67280:0:0:0:0:
192,192,67280,1,0,0:0:0:0:
320,192,67280,1,0,0:0:0:0:
448,192,67280,128,0,67438:0:0:0:0:
64,192,67438,1,0,0:0:0:0:
320,192,67597,128,0,67756:0:0:0:0:
448,192,67756,1,0,0:0:0:0:
64,192,67756,1,0,0:0:0:0:
192,192,67756,128,0,67915:0:0:0:0:
320,192,67915,1,0,0:0:0:0:
64,192,68073,128,0,68232:0:0:0:0:
192,192,68232,1,0,0:0:0:0:
448,192,68232,1,0,0:0:0:0:
320,192,68232,128,0,68391:0:0:0:0:
64,192,68391,1,0,0:0:0:0:
192,192,68549,128,0,68708:0:0:0:0:
448,192,68549,1,0,0:0:0:0:
320,192,68549,1,0,0:0:0:0:
64,192,68708,1,0,0:0:0:0:
320,192,68867,1,0,0:0:0:0:
448,192,68867,1,0,0:0:0:0:
192,192,68867,1,0,0:0:0:0:
64,192,68946,1,0,0:0:0:0:
448,192,69026,1,0,0:0:0:0:
192,192,69105,1,0,0:0:0:0:
320,192,69184,1,0,0:0:0:0:
64,192,69264,1,0,0:0:0:0:
192,192,69343,1,0,0:0:0:0:
448,192,69343,1,0,0:0:0:0:
320,192,69343,1,0,0:0:0:0:
64,192,69422,1,0,0:0:0:0:
448,192,69502,1,0,0:0:0:0:
192,192,69581,1,0,0:0:0:0:
320,192,69661,1,0,0:0:0:0:
64,192,69740,1,0,0:0:0:0:
320,192,69819,1,0,0:0:0:0:
448,192,69819,1,0,0:0:0:0:
64,192,69899,1,0,0:0:0:0:
192,192,69899,1,0,0:0:0:0:
448,192,69978,1,0,0:0:0:0:
320,192,69978,1,0,0:0:0:0:
192,192,70057,1,0,0:0:0:0:
320,192,70137,1,0,0:0:0:0:
64,192,70216,1,0,0:0:0:0:
448,192,70296,1,0,0:0:0:0:
320,192,70375,1,0,0:0:0:0:
192,192,70454,1,0,0:0:0:0:
448,192,70534,1,0,0:0:0:0:
64,192,70613,1,0,0:0:0:0:
192,192,70692,1,0,0:0:0:0:
448,192,70772,1,0,0:0:0:0:
320,192,70851,1,0,0:0:0:0:
64,192,70930,1,0,0:0:0:0:
192,192,71010,1,0,0:0:0:0:
320,192,71089,1,0,0:0:0:0:
192,192,71169,1,0,0:0:0:0:
64,192,71248,1,0,0:0:0:0:
448,192,71327,1,0,0:0:0:0:
320,192,71407,1,0,0:0:0:0:
192,192,71407,1,0,0:0:0:0:
64,192,71407,1,0,0:0:0:0:
448,192,71486,1,0,0:0:0:0:
192,192,71565,1,0,0:0:0:0:
320,192,71645,1,0,0:0:0:0:
192,192,71724,1,0,0:0:0:0:
64,192,71724,1,0,0:0:0:0:
448,192,71724,1,0,0:0:0:0:
320,192,71803,1,0,0:0:0:0:
64,192,71883,1,0,0:0:0:0:
448,192,71962,1,0,0:0:0:0:
320,192,72042,1,0,0:0:0:0:
192,192,72042,1,0,0:0:0:0:
64,192,72042,1,0,0:0:0:0:
448,192,72121,1,0,0:0:0:0:
192,192,72200,1,0,0:0:0:0:
320,192,72280,1,0,0:0:0:0:
448,192,72359,1,0,0:0:0:0:
192,192,72359,1,0,0:0:0:0:
64,192,72359,1,0,0:0:0:0:
320,192,72438,1,0,0:0:0:0:
448,192,72518,1,0,0:0:0:0:
64,192,72597,1,0,0:0:0:0:
192,192,72676,1,0,0:0:0:0:
320,192,72676,1,0,0:0:0:0:
448,192,72676,1,0,0:0:0:0:
64,192,72756,1,0,0:0:0:0:
192,192,72835,1,0,0:0:0:0:
448,192,72915,1,0,0:0:0:0:
320,192,72994,1,0,0:0:0:0:
64,192,72994,1,0,0:0:0:0:
192,192,72994,1,0,0:0:0:0:
448,192,73073,1,0,0:0:0:0:
320,192,73153,1,0,0:0:0:0:
64,192,73232,1,0,0:0:0:0:
192,192,73311,1,0,0:0:0:0:
320,192,73311,1,0,0:0:0:0:
448,192,73311,1,0,0:0:0:0:
64,192,73391,1,0,0:0:0:0:
448,192,73470,1,0,0:0:0:0:
192,192,73549,1,0,0:0:0:0:
320,192,73629,1,0,0:0:0:0:
64,192,73629,1,0,0:0:0:0:
448,192,73629,1,0,0:0:0:0:
192,192,73708,1,0,0:0:0:0:
320,192,73788,1,0,0:0:0:0:
64,192,73867,1,0,0:0:0:0:
448,192,73946,1,0,0:0:0:0:
320,192,73946,1,0,0:0:0:0:
192,192,73946,1,0,0:0:0:0:
64,192,74026,1,0,0:0:0:0:
448,192,74105,1,0,0:0:0:0:
320,192,74184,1,0,0:0:0:0:
448,192,74264,1,0,0:0:0:0:
64,192,74264,1,0,0:0:0:0:
192,192,74264,1,0,0:0:0:0:
320,192,74343,1,0,0:0:0:0:
192,192,74422,1,0,0:0:0:0:
64,192,74502,1,0,0:0:0:0:
192,192,74581,1,0,0:0:0:0:
320,192,74581,1,0,0:0:0:0:
448,192,74581,1,0,0:0:0:0:
64,192,74661,1,0,0:0:0:0:
448,192,74740,1,0,0:0:0:0:
320,192,74819,1,0,0:0:0:0:
192,192,74899,1,0,0:0:0:0:
64,192,74899,1,0,0:0:0:0:
448,192,74899,1,0,0:0:0:0:
320,192,74978,1,0,0:0:0:0:
64,192,75057,1,0,0:0:0:0:
192,192,75137,1,0,0:0:0:0:
320,192,75216,1,0,0:0:0:0:
448,192,75216,1,0,0:0:0:0:
64,192,75216,1,0,0:0:0:0:
192,192,75296,1,0,0:0:0:0:
448,192,75375,1,0,0:0:0:0:
64,192,75454,1,0,0:0:0:0:
192,192,75534,1,0,0:0:0:0:
320,192,75534,1,0,0:0:0:0:
448,192,75534,1,0,0:0:0:0:
64,192,75613,1,0,0:0:0:0:
320,192,75692,1,0,0:0:0:0:
192,192,75772,1,0,0:0:0:0:
64,192,75851,1,0,0:0:0:0:
320,192,75851,1,0,0:0:0:0:
448,192,75851,1,0,0:0:0:0:
192,192,75930,1,0,0:0:0:0:
448,192,76010,1,0,0:0:0:0:
64,192,76089,1,0,0:0:0:0:
192,192,76169,1,0,0:0:0:0:
320,192,76169,1,0,0:0:0:0:
448,192,76169,1,0,0:0:0:0:
64,192,76248,1,0,0:0:0:0:
320,192,76327,1,0,0:0:0:0:
192,192,76407,1,0,0:0:0:0:
64,192,76486,1,0,0:0:0:0:
320,192,76486,1,0,0:0:0:0:
448,192,76486,1,0,0:0:0:0:
192,192,76565,1,0,0:0:0:0:
448,192,76645,1,0,0:0:0:0:
64,192,76724,1,0,0:0:0:0:
192,192,76803,1,0,0:0:0:0:
320,192,76803,1,0,0:0:0:0:
448,192,76803,1,0,0:0:0:0:
64,192,76883,1,0,0:0:0:0:
192,192,76962,1,0,0:0:0:0:
320,192,77042,1,0,0:0:0:0:
192,192,77121,1,0,0:0:0:0:
64,192,77121,1,0,0:0:0:0:
448,192,77121,1,0,0:0:0:0:
320,192,77200,1,0,0:0:0:0:
64,192,77280,1,0,0:0:0:0:
448,192,77359,1,0,0:0:0:0:
320,192,77438,1,0,0:0:0:0:
192,192,77438,1,0,0:0:0:0:
64,192,77438,1,0,0:0:0:0:
448,192,77518,1,0,0:0:0:0:
320,192,77597,1,0,0:0:0:0:
192,192,77676,1,0,0:0:0:0:
64,192,77756,1,0,0:0:0:0:
320,192,77756,1,0,0:0:0:0:
448,192,77756,1,0,0:0:0:0:
192,192,77835,1,0,0:0:0:0:
448,192,77915,1,0,0:0:0:0:
64,192,77994,1,0,0:0:0:0:
192,192,78073,1,0,0:0:0:0:
320,192,78073,1,0,0:0:0:0:
448,192,78073,1,0,0:0:0:0:
64,192,78153,1,0,0:0:0:0:
192,192,78232,1,0,0:0:0:0:
320,192,78311,1,0,0:0:0:0:
192,192,78391,1,0,0:0:0:0:
64,192,78391,1,0,0:0:0:0:
448,192,78391,1,0,0:0:0:0:
320,192,78470,1,0,0:0:0:0:
64,192,78549,1,0,0:0:0:0:
448,192,78629,1,0,0:0:0:0:
320,192,78708,1,0,0:0:0:0:
192,192,78708,1,0,0:0:0:0:
64,192,78708,1,0,0:0:0:0:
448,192,78788,1,0,0:0:0:0:
320,192,78867,1,0,0:0:0:0:
64,192,78946,1,0,0:0:0:0:
192,192,79026,1,0,0:0:0:0:
320,192,79026,1,0,0:0:0:0:
448,192,79026,1,0,0:0:0:0:
64,192,79105,1,0,0:0:0:0:
192,192,79184,1,0,0:0:0:0:
448,192,79264,1,0,0:0:0:0:
320,192,79343,1,0,0:0:0:0:
64,192,79343,1,0,0:0:0:0:
192,192,79343,1,0,0:0:0:0:
448,192,79422,1,0,0:0:0:0:
320,192,79502,1,0,0:0:0:0:
192,192,79581,1,0,0:0:0:0:
320,192,79661,1,0,0:0:0:0:
448,192,79661,1,0,0:0:0:0:
64,192,79661,1,0,0:0:0:0:
192,192,79740,1,0,0:0:0:0:
448,192,79819,1,0,0:0:0:0:
64,192,79899,1,0,0:0:0:0:
192,192,79978,1,0,0:0:0:0:
320,192,79978,1,0,0:0:0:0:
448,192,79978,1,0,0:0:0:0:
64,192,80057,1,0,0:0:0:0:
192,192,80137,1,0,0:0:0:0:
320,192,80216,1,0,0:0:0:0:
192,192,80296,1,0,0:0:0:0:
64,192,80296,1,0,0:0:0:0:
448,192,80296,1,0,0:0:0:0:
320,192,80375,1,0,0:0:0:0:
64,192,80454,1,0,0:0:0:0:
448,192,80534,1,0,0:0:0:0:
320,192,80613,1,0,0:0:0:0:
192,192,80692,1,0,0:0:0:0:
320,192,80772,1,0,0:0:0:0:
192,192,80851,1,0,0:0:0:0:
64,192,80930,1,0,0:0:0:0:
448,192,81010,1,0,0:0:0:0:
64,192,81089,1,0,0:0:0:0:
448,192,81169,1,0,0:0:0:0:
320,192,81248,1,0,0:0:0:0:
64,192,81327,1,0,0:0:0:0:
320,192,81407,1,0,0:0:0:0:
64,192,81486,1,0,0:0:0:0:
192,192,81565,1,0,0:0:0:0:
320,192,81565,1,0,0:0:0:0:
448,192,81565,1,0,0:0:0:0:
64,192,81645,1,0,0:0:0:0:
448,192,81724,1,0,0:0:0:0:
192,192,81803,1,0,0:0:0:0:
320,192,81883,1,0,0:0:0:0:
448,192,81883,1,0,0:0:0:0:
64,192,81883,1,0,0:0:0:0:
192,192,81962,1,0,0:0:0:0:
320,192,82042,1,0,0:0:0:0:
64,192,82121,1,0,0:0:0:0:
192,192,82200,1,0,0:0:0:0:
320,192,82200,1,0,0:0:0:0:
448,192,82200,1,0,0:0:0:0:
64,192,82280,1,0,0:0:0:0:
192,192,82359,1,0,0:0:0:0:
448,192,82438,1,0,0:0:0:0:
320,192,82518,1,0,0:0:0:0:
192,192,82518,1,0,0:0:0:0:
64,192,82518,1,0,0:0:0:0:
448,192,82597,1,0,0:0:0:0:
320,192,82676,1,0,0:0:0:0:
64,192,82756,1,0,0:0:0:0:
192,192,82835,1,0,0:0:0:0:
320,192,82835,1,0,0:0:0:0:
448,192,82835,1,0,0:0:0:0:
64,192,82915,1,0,0:0:0:0:
448,192,82994,1,0,0:0:0:0:
192,192,83073,1,0,0:0:0:0:
320,192,83153,1,0,0:0:0:0:
448,192,83153,1,0,0:0:0:0:
64,192,83153,1,0,0:0:0:0:
192,192,83232,1,0,0:0:0:0:
320,192,83311,1,0,0:0:0:0:
64,192,83391,1,0,0:0:0:0:
192,192,83470,1,0,0:0:0:0:
320,192,83470,1,0,0:0:0:0:
448,192,83470,1,0,0:0:0:0:
64,192,83549,1,0,0:0:0:0:
192,192,83629,1,0,0:0:0:0:
320,192,83708,1,0,0:0:0:0:
192,192,83788,1,0,0:0:0:0:
64,192,83788,1,0,0:0:0:0:
448,192,83788,1,0,0:0:0:0:
320,192,83867,1,0,0:0:0:0:
64,192,83946,1,0,0:0:0:0:
448,192,84026,1,0,0:0:0:0:
64,192,84105,1,0,0:0:0:0:
320,192,84105,1,0,0:0:0:0:
192,192,84105,1,0,0:0:0:0:
448,192,84184,1,0,0:0:0:0:
192,192,84264,1,0,0:0:0:0:
64,192,84343,1,0,0:0:0:0:
192,192,84422,1,0,0:0:0:0:
448,192,84422,1,0,0:0:0:0:
320,192,84422,1,0,0:0:0:0:
64,192,84502,1,0,0:0:0:0:
448,192,84581,1,0,0:0:0:0:
320,192,84661,1,0,0:0:0:0:
192,192,84740,1,0,0:0:0:0:
64,192,84740,1,0,0:0:0:0:
448,192,84740,1,0,0:0:0:0:
320,192,84819,1,0,0:0:0:0:
192,192,84899,1,0,0:0:0:0:
448,192,84978,1,0,0:0:0:0:
64,192,85057,1,0,0:0:0:0:
192,192,85057,1,0,0:0:0:0:
320,192,85057,1,0,0:0:0:0:
448,192,85137,1,0,0:0:0:0:
64,192,85216,1,0,0:0:0:0:
192,192,85296,1,0,0:0:0:0:
320,192,85375,1,0,0:0:0:0:
448,192,85375,1,0,0:0:0:0:
64,192,85375,1,0,0:0:0:0:
192,192,85454,1,0,0:0:0:0:
448,192,85534,1,0,0:0:0:0:
320,192,85613,1,0,0:0:0:0:
192,192,85692,1,0,0:0:0:0:
64,192,85692,1,0,0:0:0:0:
448,192,85692,1,0,0:0:0:0:
320,192,85772,1,0,0:0:0:0:
192,192,85851,1,0,0:0:0:0:
64,192,85930,1,0,0:0:0:0:
192,192,86010,1,0,0:0:0:0:
320,192,86010,1,0,0:0:0:0:
448,192,86010,1,0,0:0:0:0:
64,192,86089,1,0,0:0:0:0:
448,192,86169,1,0,0:0:0:0:
192,192,86248,1,0,0:0:0:0:
320,192,86327,1,0,0:0:0:0:
448,192,86327,1,0,0:0:0:0:
64,192,86327,1,0,0:0:0:0:
192,192,86407,1,0,0:0:0:0:
320,192,86486,1,0,0:0:0:0:
64,192,86565,1,0,0:0:0:0:
192,192,86645,1,0,0:0:0:0:
320,192,86645,1,0,0:0:0:0:
448,192,86645,1,0,0:0:0:0:
64,192,86724,1,0,0:0:0:0:
192,192,86803,1,0,0:0:0:0:
448,192,86883,1,0,0:0:0:0:
320,192,86962,1,0,0:0:0:0:
192,192,86962,1,0,0:0:0:0:
64,192,86962,1,0,0:0:0:0:
448,192,87042,1,0,0:0:0:0:
320,192,87121,1,0,0:0:0:0:
64,192,87200,1,0,0:0:0:0:
192,192,87280,1,0,0:0:0:0:
320,192,87280,1,0,0:0:0:0:
448,192,87280,1,0,0:0:0:0:
64,192,87359,1,0,0:0:0:0:
192,192,87438,1,0,0:0:0:0:
448,192,87518,1,0,0:0:0:0:
320,192,87597,1,0,0:0:0:0:
192,192,87597,1,0,0:0:0:0:
64,192,87597,1,0,0:0:0:0:
448,192,87676,1,0,0:0:0:0:
320,192,87756,1,0,0:0:0:0:
192,192,87835,1,0,0:0:0:0:
64,192,87915,1,0,0:0:0:0:
320,192,87915,1,0,0:0:0:0:
448,192,87915,1,0,0:0:0:0:
192,192,87994,1,0,0:0:0:0:
448,192,88073,1,0,0:0:0:0:
64,192,88153,1,0,0:0:0:0:
192,192,88232,1,0,0:0:0:0:
320,192,88232,1,0,0:0:0:0:
448,192,88232,1,0,0:0:0:0:
64,192,88311,1,0,0:0:0:0:
192,192,88391,1,0,0:0:0:0:
448,192,88470,1,0,0:0:0:0:
320,192,88549,1,0,0:0:0:0:
192,192,88549,1,0,0:0:0:0:
64,192,88549,1,0,0:0:0:0:
448,192,88629,1,0,0:0:0:0:
320,192,88708,1,0,0:0:0:0:
192,192,88788,1,0,0:0:0:0:
320,192,88867,1,0,0:0:0:0:
448,192,88867,1,0,0:0:0:0:
64,192,88867,1,0,0:0:0:0:
192,192,88946,1,0,0:0:0:0:
64,192,89026,1,0,0:0:0:0:
448,192,89105,1,0,0:0:0:0:
320,192,89184,1,0,0:0:0:0:
192,192,89184,1,0,0:0:0:0:
64,192,89184,1,0,0:0:0:0:
448,192,89264,1,0,0:0:0:0:
320,192,89343,1,0,0:0:0:0:
192,192,89343,1,0,0:0:0:0:
320,192,89502,1,0,0:0:0:0:
192,192,89502,1,0,0:0:0:0:
64,192,89661,1,0,0:0:0:0:
192,192,89661,1,0,0:0:0:0:
448,192,89661,1,0,0:0:0:0:
192,192,89819,1,0,0:0:0:0:
64,192,89819,1,0,0:0:0:0:
448,192,89819,1,0,0:0:0:0:
448,192,89978,1,0,0:0:0:0:
192,192,89978,1,0,0:0:0:0:
64,192,89978,1,0,0:0:0:0:
192,192,90137,1,0,0:0:0:0:
64,192,90137,1,0,0:0:0:0:
448,192,90137,1,0,0:0:0:0:
192,192,90296,1,0,0:0:0:0:
64,192,90296,1,0,0:0:0:0:
448,192,90296,1,0,0:0:0:0:
320,192,90454,1,0,0:0:0:0:
448,192,90454,1,0,0:0:0:0:
192,192,90454,1,0,0:0:0:0:
64,192,90454,1,0,0:0:0:0:
320,192,90613,1,0,0:0:0:0:
192,192,90692,1,0,0:0:0:0:
448,192,90772,1,0,0:0:0:0:
320,192,90851,1,0,0:0:0:0:
192,192,90930,1,0,0:0:0:0:
64,192,91010,1,0,0:0:0:0:
320,192,91089,1,0,0:0:0:0:
448,192,91089,1,0,0:0:0:0:
192,192,91089,1,0,0:0:0:0:
320,192,91248,1,0,0:0:0:0:
448,192,91248,1,0,0:0:0:0:
320,192,91407,1,0,0:0:0:0:
448,192,91407,1,0,0:0:0:0:
320,192,91565,1,0,0:0:0:0:
448,192,91565,1,0,0:0:0:0:
192,192,91724,1,0,0:0:0:0:
64,192,91724,1,0,0:0:0:0:
64,192,91883,1,0,0:0:0:0:
448,192,91883,1,0,0:0:0:0:
64,192,92042,1,0,0:0:0:0:
320,192,92042,1,0,0:0:0:0:
448,192,92042,1,0,0:0:0:0:
192,192,92200,1,0,0:0:0:0:
320,192,92200,1,0,0:0:0:0:
64,192,92359,128,0,92676:0:0:0:0:
448,192,92359,1,0,0:0:0:0:
320,192,92518,1,0,0:0:0:0:
192,192,92676,1,0,0:0:0:0:
320,192,92676,1,0,0:0:0:0:
448,192,92676,1,0,0:0:0:0:
192,192,92835,1,0,0:0:0:0:
64,192,92835,1,0,0:0:0:0:
64,192,92994,1,0,0:0:0:0:
448,192,92994,1,0,0:0:0:0:
192,192,93153,1,0,0:0:0:0:
320,192,93153,1,0,0:0:0:0:
320,192,93311,1,0,0:0:0:0:
448,192,93311,1,0,0:0:0:0:
64,192,93311,128,0,93470:0:0:0:0:
192,192,93470,128,0,93629:0:0:0:0:
448,192,93629,128,0,93946:0:0:0:0:
320,192,93788,1,0,0:0:0:0:
320,192,93946,1,0,0:0:0:0:
192,192,93946,1,0,0:0:0:0:
64,192,93946,128,0,94264:0:0:0:0:
448,192,94105,1,0,0:0:0:0:
320,192,94264,1,0,0:0:0:0:
192,192,94264,1,0,0:0:0:0:
192,192,94422,1,0,0:0:0:0:
448,192,94422,1,0,0:0:0:0:
320,192,94581,1,0,0:0:0:0:
448,192,94581,1,0,0:0:0:0:
64,192,94581,1,0,0:0:0:0:
192,192,94740,1,0,0:0:0:0:
320,192,94740,1,0,0:0:0:0:
192,192,94899,1,0,0:0:0:0:
448,192,94899,128,0,95216:0:0:0:0:
64,192,95057,1,0,0:0:0:0:
64,192,95216,1,0,0:0:0:0:
192,192,95216,1,0,0:0:0:0:
320,192,95216,1,0,0:0:0:0:
192,192,95375,1,0,0:0:0:0:
448,192,95375,1,0,0:0:0:0:
320,192,95534,1,0,0:0:0:0:
64,192,95534,1,0,0:0:0:0:
320,192,95692,1,0,0:0:0:0:
448,192,95692,1,0,0:0:0:0:
64,192,95851,1,0,0:0:0:0:
448,192,95851,1,0,0:0:0:0:
192,192,95851,128,0,96010:0:0:0:0:
320,192,96010,128,0,96169:0:0:0:0:
64,192,96169,128,0,96486:0:0:0:0:
448,192,96327,1,0,0:0:0:0:
448,192,96486,1,0,0:0:0:0:
192,192,96486,1,0,0:0:0:0:
320,192,96486,128,0,96803:0:0:0:0:
64,192,96645,1,0,0:0:0:0:
192,192,96803,1,0,0:0:0:0:
448,192,96803,1,0,0:0:0:0:
64,192,96962,1,0,0:0:0:0:
448,192,96962,1,0,0:0:0:0:
320,192,97121,1,0,0:0:0:0:
192,192,97121,1,0,0:0:0:0:
64,192,97121,1,0,0:0:0:0:
192,192,97280,1,0,0:0:0:0:
448,192,97280,1,0,0:0:0:0:
448,192,97438,1,0,0:0:0:0:
320,192,97438,128,0,97756:0:0:0:0:
192,192,97597,1,0,0:0:0:0:
192,192,97756,1,0,0:0:0:0:
64,192,97756,1,0,0:0:0:0:
448,192,97756,1,0,0:0:0:0:
64,192,97915,1,0,0:0:0:0:
448,192,97915,1,0,0:0:0:0:
320,192,98073,1,0,0:0:0:0:
192,192,98073,1,0,0:0:0:0:
64,192,98232,1,0,0:0:0:0:
320,192,98232,1,0,0:0:0:0:
64,192,98391,1,0,0:0:0:0:
448,192,98391,1,0,0:0:0:0:
192,192,98391,128,0,98549:0:0:0:0:
320,192,98549,128,0,98708:0:0:0:0:
64,192,98708,128,0,99026:0:0:0:0:
448,192,98867,1,0,0:0:0:0:
448,192,99026,1,0,0:0:0:0:
192,192,99026,1,0,0:0:0:0:
320,192,99026,128,0,99343:0:0:0:0:
64,192,99184,1,0,0:0:0:0:
448,192,99343,1,0,0:0:0:0:
64,192,99422,1,0,0:0:0:0:
192,192,99502,1,0,0:0:0:0:
448,192,99581,1,0,0:0:0:0:
320,192,99661,1,0,0:0:0:0:
192,192,99661,1,0,0:0:0:0:
64,192,99661,1,0,0:0:0:0:
448,192,99740,1,0,0:0:0:0:
64,192,99819,1,0,0:0:0:0:
320,192,99899,1,0,0:0:0:0:
192,192,99978,1,0,0:0:0:0:
448,192,100057,1,0,0:0:0:0:
64,192,100137,1,0,0:0:0:0:
192,192,100216,1,0,0:0:0:0:
448,192,100296,1,0,0:0:0:0:
320,192,100296,1,0,0:0:0:0:
64,192,100296,1,0,0:0:0:0:
192,192,100375,1,0,0:0:0:0:
320,192,100454,1,0,0:0:0:0:
64,192,100534,1,0,0:0:0:0:
448,192,100613,1,0,0:0:0:0:
192,192,100692,1,0,0:0:0:0:
320,192,100772,1,0,0:0:0:0:
64,192,100851,1,0,0:0:0:0:
192,192,100930,1,0,0:0:0:0:
320,192,100930,1,0,0:0:0:0:
448,192,100930,1,0,0:0:0:0:
64,192,101010,1,0,0:0:0:0:
448,192,101089,1,0,0:0:0:0:
320,192,101169,1,0,0:0:0:0:
192,192,101248,1,0,0:0:0:0:
448,192,101327,1,0,0:0:0:0:
192,192,101407,1,0,0:0:0:0:
448,192,101486,1,0,0:0:0:0:
320,192,101565,1,0,0:0:0:0:
192,192,101645,1,0,0:0:0:0:
320,192,101724,1,0,0:0:0:0:
192,192,101803,1,0,0:0:0:0:
64,192,101883,1,0,0:0:0:0:
448,192,101883,1,0,0:0:0:0:
192,192,102042,1,0,0:0:0:0:
448,192,102042,1,0,0:0:0:0:
320,192,102200,1,0,0:0:0:0:
192,192,102200,1,0,0:0:0:0:
64,192,102200,1,0,0:0:0:0:
64,192,102359,1,0,0:0:0:0:
448,192,102359,1,0,0:0:0:0:
320,192,102518,1,0,0:0:0:0:
192,192,102518,128,0,102835:0:0:0:0:
448,192,102676,1,0,0:0:0:0:
448,192,102835,1,0,0:0:0:0:
320,192,102835,1,0,0:0:0:0:
64,192,102835,1,0,0:0:0:0:
192,192,102994,1,0,0:0:0:0:
320,192,102994,1,0,0:0:0:0:
64,192,103153,1,0,0:0:0:0:
448,192,103153,1,0,0:0:0:0:
320,192,103311,1,0,0:0:0:0:
448,192,103311,1,0,0:0:0:0:
320,192,103470,1,0,0:0:0:0:
192,192,103470,1,0,0:0:0:0:
64,192,103470,128,0,103629:0:0:0:0:
448,192,103629,128,0,103788:0:0:0:0:
192,192,103788,128,0,104105:0:0:0:0:
320,192,103946,1,0,0:0:0:0:
320,192,104105,1,0,0:0:0:0:
64,192,104105,1,0,0:0:0:0:
448,192,104105,128,0,104422:0:0:0:0:
192,192,104264,1,0,0:0:0:0:
64,192,104422,1,0,0:0:0:0:
320,192,104422,1,0,0:0:0:0:
320,192,104581,1,0,0:0:0:0:
192,192,104581,1,0,0:0:0:0:
64,192,104740,1,0,0:0:0:0:
448,192,104740,1,0,0:0:0:0:
192,192,104740,1,0,0:0:0:0:
320,192,104899,1,0,0:0:0:0:
64,192,104899,1,0,0:0:0:0:
320,192,105057,1,0,0:0:0:0:
192,192,105057,128,0,105375:0:0:0:0:
448,192,105216,1,0,0:0:0:0:
448,192,105375,1,0,0:0:0:0:
320,192,105375,1,0,0:0:0:0:
64,192,105375,1,0,0:0:0:0:
64,192,105534,1,0,0:0:0:0:
320,192,105534,1,0,0:0:0:0:
448,192,105692,1,0,0:0:0:0:
192,192,105692,1,0,0:0:0:0:
192,192,105851,1,0,0:0:0:0:
64,192,105851,1,0,0:0:0:0:
64,192,106010,1,0,0:0:0:0:
448,192,106010,128,0,106169:0:0:0:0:
320,192,106010,1,0,0:0:0:0:
192,192,106169,128,0,106327:0:0:0:0:
320,192,106327,128,0,106645:0:0:0:0:
64,192,106486,1,0,0:0:0:0:
64,192,106645,1,0,0:0:0:0:
448,192,106645,1,0,0:0:0:0:
192,192,106645,128,0,106962:0:0:0:0:
448,192,106803,1,0,0:0:0:0:
320,192,106962,1,0,0:0:0:0:
64,192,106962,1,0,0:0:0:0:
192,192,107121,1,0,0:0:0:0:
320,192,107121,1,0,0:0:0:0:
64,192,107280,1,0,0:0:0:0:
192,192,107280,1,0,0:0:0:0:
448,192,107280,1,0,0:0:0:0:
320,192,107438,1,0,0:0:0:0:
64,192,107438,1,0,0:0:0:0:
320,192,107597,1,0,0:0:0:0:
448,192,107597,128,0,107915:0:0:0:0:
192,192,107756,1,0,0:0:0:0:
320,192,107915,1,0,0:0:0:0:
192,192,107915,1,0,0:0:0:0:
64,192,107915,1,0,0:0:0:0:
64,192,108073,1,0,0:0:0:0:
320,192,108073,1,0,0:0:0:0:
192,192,108232,1,0,0:0:0:0:
448,192,108232,1,0,0:0:0:0:
320,192,108391,1,0,0:0:0:0:
192,192,108391,1,0,0:0:0:0:
448,192,108549,1,0,0:0:0:0:
192,192,108549,1,0,0:0:0:0:
64,192,108549,128,0,108708:0:0:0:0:
320,192,108708,128,0,108867:0:0:0:0:
448,192,108867,128,0,109184:0:0:0:0:
64,192,109026,1,0,0:0:0:0:
192,192,109184,1,0,0:0:0:0:
64,192,109184,1,0,0:0:0:0:
320,192,109184,128,0,109502:0:0:0:0:
192,192,109343,1,0,0:0:0:0:
448,192,109502,1,0,0:0:0:0:
64,192,109502,1,0,0:0:0:0:
192,192,109502,1,0,0:0:0:0:
320,192,109581,1,0,0:0:0:0:
64,192,109661,1,0,0:0:0:0:
192,192,109740,1,0,0:0:0:0:
320,192,109819,1,0,0:0:0:0:
448,192,109899,1,0,0:0:0:0:
64,192,109978,1,0,0:0:0:0:
192,192,110057,1,0,0:0:0:0:
64,192,110137,1,0,0:0:0:0:
448,192,110137,1,0,0:0:0:0:
320,192,110137,1,0,0:0:0:0:
192,192,110216,1,0,0:0:0:0:
448,192,110296,1,0,0:0:0:0:
64,192,110375,1,0,0:0:0:0:
192,192,110454,1,0,0:0:0:0:
320,192,110454,1,0,0:0:0:0:
448,192,110454,1,0,0:0:0:0:
64,192,110534,1,0,0:0:0:0:
192,192,110613,1,0,0:0:0:0:
320,192,110692,1,0,0:0:0:0:
64,192,110772,1,0,0:0:0:0:
192,192,110772,1,0,0:0:0:0:
448,192,110772,1,0,0:0:0:0:
320,192,110851,1,0,0:0:0:0:
64,192,110930,1,0,0:0:0:0:
192,192,111010,1,0,0:0:0:0:
448,192,111089,1,0,0:0:0:0:
320,192,111169,1,0,0:0:0:0:
448,192,111248,1,0,0:0:0:0:
320,192,111327,1,0,0:0:0:0:
192,192,111407,1,0,0:0:0:0:
320,192,111486,1,0,0:0:0:0:
192,192,111565,1,0,0:0:0:0:
320,192,111645,1,0,0:0:0:0:
192,192,111724,1,0,0:0:0:0:
64,192,111803,1,0,0:0:0:0:
192,192,111883,1,0,0:0:0:0:
64,192,111962,1,0,0:0:0:0:
320,192,112042,1,0,0:0:0:0:
448,192,112042,1,0,0:0:0:0:
192,192,112121,1,0,0:0:0:0:
448,192,112200,1,0,0:0:0:0:
64,192,112280,1,0,0:0:0:0:
192,192,112359,1,0,0:0:0:0:
320,192,112359,1,0,0:0:0:0:
448,192,112359,1,0,0:0:0:0:
64,192,112438,1,0,0:0:0:0:
320,192,112518,1,0,0:0:0:0:
192,192,112597,1,0,0:0:0:0:
64,192,112676,1,0,0:0:0:0:
448,192,112676,1,0,0:0:0:0:
192,192,112756,1,0,0:0:0:0:
320,192,112835,1,0,0:0:0:0:
64,192,112915,1,0,0:0:0:0:
192,192,112994,1,0,0:0:0:0:
320,192,112994,1,0,0:0:0:0:
448,192,112994,1,0,0:0:0:0:
64,192,113073,1,0,0:0:0:0:
448,192,113153,1,0,0:0:0:0:
320,192,113232,1,0,0:0:0:0:
192,192,113311,1,0,0:0:0:0:
64,192,113311,1,0,0:0:0:0:
320,192,113391,1,0,0:0:0:0:
192,192,113470,1,0,0:0:0:0:
448,192,113549,1,0,0:0:0:0:
320,192,113629,1,0,0:0:0:0:
192,192,113629,1,0,0:0:0:0:
64,192,113629,1,0,0:0:0:0:
448,192,113708,1,0,0:0:0:0:
64,192,113788,1,0,0:0:0:0:
192,192,113867,1,0,0:0:0:0:
320,192,113946,1,0,0:0:0:0:
448,192,113946,1,0,0:0:0:0:
192,192,114026,1,0,0:0:0:0:
448,192,114105,1,0,0:0:0:0:
64,192,114184,1,0,0:0:0:0:
192,192,114264,1,0,0:0:0:0:
320,192,114264,1,0,0:0:0:0:
448,192,114264,1,0,0:0:0:0:
64,192,114343,1,0,0:0:0:0:
192,192,114422,1,0,0:0:0:0:
448,192,114502,1,0,0:0:0:0:
320,192,114581,1,0,0:0:0:0:
64,192,114581,1,0,0:0:0:0:
192,192,114661,1,0,0:0:0:0:
448,192,114740,1,0,0:0:0:0:
320,192,114819,1,0,0:0:0:0:
192,192,114899,1,0,0:0:0:0:
64,192,114899,1,0,0:0:0:0:
448,192,114899,1,0,0:0:0:0:
320,192,114978,1,0,0:0:0:0:
64,192,115057,1,0,0:0:0:0:
448,192,115137,1,0,0:0:0:0:
320,192,115216,1,0,0:0:0:0:
192,192,115216,1,0,0:0:0:0:
64,192,115296,1,0,0:0:0:0:
448,192,115375,1,0,0:0:0:0:
320,192,115454,1,0,0:0:0:0:
192,192,115534,1,0,0:0:0:0:
64,192,115534,1,0,0:0:0:0:
448,192,115534,1,0,0:0:0:0:
320,192,115613,1,0,0:0:0:0:
64,192,115692,1,0,0:0:0:0:
192,192,115772,1,0,0:0:0:0:
320,192,115851,1,0,0:0:0:0:
448,192,115851,1,0,0:0:0:0:
192,192,115930,1,0,0:0:0:0:
448,192,116010,1,0,0:0:0:0:
320,192,116089,1,0,0:0:0:0:
192,192,116169,1,0,0:0:0:0:
64,192,116169,1,0,0:0:0:0:
448,192,116169,1,0,0:0:0:0:
320,192,116248,1,0,0:0:0:0:
64,192,116327,1,0,0:0:0:0:
448,192,116407,1,0,0:0:0:0:
320,192,116486,1,0,0:0:0:0:
192,192,116486,1,0,0:0:0:0:
64,192,116565,1,0,0:0:0:0:
448,192,116645,1,0,0:0:0:0:
192,192,116724,1,0,0:0:0:0:
64,192,116803,1,0,0:0:0:0:
320,192,116803,1,0,0:0:0:0:
448,192,116803,1,0,0:0:0:0:
192,192,116883,1,0,0:0:0:0:
320,192,116962,1,0,0:0:0:0:
64,192,117042,1,0,0:0:0:0:
192,192,117121,1,0,0:0:0:0:
448,192,117121,1,0,0:0:0:0:
320,192,117200,1,0,0:0:0:0:
64,192,117280,1,0,0:0:0:0:
448,192,117359,1,0,0:0:0:0:
320,192,117438,1,0,0:0:0:0:
192,192,117438,1,0,0:0:0:0:
64,192,117438,1,0,0:0:0:0:
448,192,117518,1,0,0:0:0:0:
192,192,117597,1,0,0:0:0:0:
320,192,117676,1,0,0:0:0:0:
448,192,117756,1,0,0:0:0:0:
64,192,117756,1,0,0:0:0:0:
320,192,117835,1,0,0:0:0:0:
192,192,117915,1,0,0:0:0:0:
448,192,117994,1,0,0:0:0:0:
320,192,118073,1,0,0:0:0:0:
192,192,118073,1,0,0:0:0:0:
64,192,118073,1,0,0:0:0:0:
448,192,118153,1,0,0:0:0:0:
64,192,118232,1,0,0:0:0:0:
192,192,118311,1,0,0:0:0:0:
320,192,118391,1,0,0:0:0:0:
448,192,118391,1,0,0:0:0:0:
64,192,118470,1,0,0:0:0:0:
192,192,118549,1,0,0:0:0:0:
448,192,118629,1,0,0:0:0:0:
320,192,118708,1,0,0:0:0:0:
192,192,118708,1,0,0:0:0:0:
64,192,118708,1,0,0:0:0:0:
448,192,118788,1,0,0:0:0:0:
64,192,118867,1,0,0:0:0:0:
320,192,118946,1,0,0:0:0:0:
448,192,119026,1,0,0:0:0:0:
64,192,119026,1,0,0:0:0:0:
192,192,119105,1,0,0:0:0:0:
320,192,119184,1,0,0:0:0:0:
64,192,119264,1,0,0:0:0:0:
320,192,119343,1,0,0:0:0:0:
448,192,119343,1,0,0:0:0:0:
192,192,119343,1,0,0:0:0:0:
64,192,119422,1,0,0:0:0:0:
192,192,119502,1,0,0:0:0:0:
448,192,119581,1,0,0:0:0:0:
64,192,119661,1,0,0:0:0:0:
320,192,119661,1,0,0:0:0:0:
192,192,119740,1,0,0:0:0:0:
320,192,119819,1,0,0:0:0:0:
64,192,119899,1,0,0:0:0:0:
192,192,119978,1,0,0:0:0:0:
320,192,119978,1,0,0:0:0:0:
448,192,119978,1,0,0:0:0:0:
64,192,120057,1,0,0:0:0:0:
192,192,120137,1,0,0:0:0:0:
448,192,120216,1,0,0:0:0:0:
320,192,120296,1,0,0:0:0:0:
64,192,120296,1,0,0:0:0:0:
192,192,120375,1,0,0:0:0:0:
448,192,120454,1,0,0:0:0:0:
320,192,120534,1,0,0:0:0:0:
192,192,120613,1,0,0:0:0:0:
64,192,120613,1,0,0:0:0:0:
448,192,120613,1,0,0:0:0:0:
320,192,120692,1,0,0:0:0:0:
64,192,120772,1,0,0:0:0:0:
448,192,120851,1,0,0:0:0:0:
320,192,120930,1,0,0:0:0:0:
192,192,120930,1,0,0:0:0:0:
64,192,121010,1,0,0:0:0:0:
448,192,121089,1,0,0:0:0:0:
320,192,121169,1,0,0:0:0:0:
192,192,121248,1,0,0:0:0:0:
64,192,121248,1,0,0:0:0:0:
448,192,121248,1,0,0:0:0:0:
320,192,121327,1,0,0:0:0:0:
64,192,121407,1,0,0:0:0:0:
192,192,121486,1,0,0:0:0:0:
320,192,121565,1,0,0:0:0:0:
448,192,121565,1,0,0:0:0:0:
192,192,121645,1,0,0:0:0:0:
64,192,121645,1,0,0:0:0:0:
320,192,121724,1,0,0:0:0:0:
64,192,121803,1,0,0:0:0:0:
192,192,121883,1,0,0:0:0:0:
320,192,121883,1,0,0:0:0:0:
448,192,121962,1,0,0:0:0:0:
64,192,121962,1,0,0:0:0:0:
192,192,122042,1,0,0:0:0:0:
320,192,122042,1,0,0:0:0:0:
64,192,122121,1,0,0:0:0:0:
448,192,122121,1,0,0:0:0:0:
192,192,122200,1,0,0:0:0:0:
320,192,122280,1,0,0:0:0:0:
64,192,122359,1,0,0:0:0:0:
192,192,122438,1,0,0:0:0:0:
448,192,122518,1,0,0:0:0:0:
320,192,122518,1,0,0:0:0:0:
64,192,122518,1,0,0:0:0:0:
192,192,122597,1,0,0:0:0:0:
448,192,122676,1,0,0:0:0:0:
64,192,122756,1,0,0:0:0:0:
192,192,122835,1,0,0:0:0:0:
320,192,122835,1,0,0:0:0:0:
448,192,122915,1,0,0:0:0:0:
64,192,122994,1,0,0:0:0:0:
320,192,123073,1,0,0:0:0:0:
192,192,123153,1,0,0:0:0:0:
64,192,123153,1,0,0:0:0:0:
448,192,123153,1,0,0:0:0:0:
320,192,123232,1,0,0:0:0:0:
192,192,123311,1,0,0:0:0:0:
448,192,123391,1,0,0:0:0:0:
320,192,123470,1,0,0:0:0:0:
64,192,123470,1,0,0:0:0:0:
192,192,123549,1,0,0:0:0:0:
448,192,123629,1,0,0:0:0:0:
64,192,123708,1,0,0:0:0:0:
192,192,123788,1,0,0:0:0:0:
320,192,123788,1,0,0:0:0:0:
448,192,123788,1,0,0:0:0:0:
64,192,123867,1,0,0:0:0:0:
320,192,123946,1,0,0:0:0:0:
192,192,124026,1,0,0:0:0:0:
64,192,124105,1,0,0:0:0:0:
448,192,124105,1,0,0:0:0:0:
192,192,124184,1,0,0:0:0:0:
320,192,124264,1,0,0:0:0:0:
64,192,124343,1,0,0:0:0:0:
192,192,124422,1,0,0:0:0:0:
320,192,124422,1,0,0:0:0:0:
448,192,124422,1,0,0:0:0:0:
64,192,124502,1,0,0:0:0:0:
448,192,124581,1,0,0:0:0:0:
320,192,124661,1,0,0:0:0:0:
192,192,124740,1,0,0:0:0:0:
64,192,124740,1,0,0:0:0:0:
448,192,124819,1,0,0:0:0:0:
320,192,124899,1,0,0:0:0:0:
64,192,124978,1,0,0:0:0:0:
192,192,125057,1,0,0:0:0:0:
320,192,125057,1,0,0:0:0:0:
448,192,125057,1,0,0:0:0:0:
64,192,125137,1,0,0:0:0:0:
448,192,125216,1,0,0:0:0:0:
192,192,125296,1,0,0:0:0:0:
64,192,125375,1,0,0:0:0:0:
320,192,125375,1,0,0:0:0:0:
448,192,125454,1,0,0:0:0:0:
192,192,125534,1,0,0:0:0:0:
320,192,125613,1,0,0:0:0:0:
192,192,125692,1,0,0:0:0:0:
64,192,125692,1,0,0:0:0:0:
448,192,125692,1,0,0:0:0:0:
320,192,125772,1,0,0:0:0:0:
64,192,125851,1,0,0:0:0:0:
192,192,125930,1,0,0:0:0:0:
320,192,126010,1,0,0:0:0:0:
448,192,126010,1,0,0:0:0:0:
64,192,126089,1,0,0:0:0:0:
192,192,126169,1,0,0:0:0:0:
448,192,126248,1,0,0:0:0:0:
320,192,126327,1,0,0:0:0:0:
192,192,126327,1,0,0:0:0:0:
64,192,126327,1,0,0:0:0:0:
448,192,126407,1,0,0:0:0:0:
64,192,126486,1,0,0:0:0:0:
320,192,126565,1,0,0:0:0:0:
192,192,126645,1,0,0:0:0:0:
64,192,126645,1,0,0:0:0:0:
448,192,126724,1,0,0:0:0:0:
320,192,126803,1,0,0:0:0:0:
64,192,126883,1,0,0:0:0:0:
192,192,126962,1,0,0:0:0:0:
320,192,126962,1,0,0:0:0:0:
448,192,126962,1,0,0:0:0:0:
64,192,127042,1,0,0:0:0:0:
448,192,127121,1,0,0:0:0:0:
320,192,127200,1,0,0:0:0:0:
192,192,127280,1,0,0:0:0:0:
64,192,127280,1,0,0:0:0:0:
448,192,127280,1,0,0:0:0:0:
320,192,127359,1,0,0:0:0:0:
64,192,127438,1,0,0:0:0:0:
448,192,127518,1,0,0:0:0:0:
320,192,127597,1,0,0:0:0:0:
192,192,127597,1,0,0:0:0:0:
64,192,127597,1,0,0:0:0:0:
448,192,127676,1,0,0:0:0:0:
192,192,127756,1,0,0:0:0:0:
320,192,127835,1,0,0:0:0:0:
448,192,127915,1,0,0:0:0:0:
64,192,127915,1,0,0:0:0:0:
192,192,127994,1,0,0:0:0:0:
320,192,128073,1,0,0:0:0:0:
64,192,128153,1,0,0:0:0:0:
320,192,128232,1,0,0:0:0:0:
448,192,128232,1,0,0:0:0:0:
192,192,128232,1,0,0:0:0:0:
64,192,128311,1,0,0:0:0:0:
448,192,128391,1,0,0:0:0:0:
320,192,128470,1,0,0:0:0:0:
192,192,128549,1,0,0:0:0:0:
64,192,128549,1,0,0:0:0:0:
448,192,128629,1,0,0:0:0:0:
64,192,128708,1,0,0:0:0:0:
192,192,128788,1,0,0:0:0:0:
320,192,128867,1,0,0:0:0:0:
448,192,128867,1,0,0:0:0:0:
64,192,128867,1,0,0:0:0:0:
192,192,128946,1,0,0:0:0:0:
448,192,129026,1,0,0:0:0:0:
64,192,129105,1,0,0:0:0:0:
192,192,129184,1,0,0:0:0:0:
320,192,129184,1,0,0:0:0:0:
448,192,129264,1,0,0:0:0:0:
64,192,129343,1,0,0:0:0:0:
320,192,129422,1,0,0:0:0:0:
192,192,129502,1,0,0:0:0:0:
64,192,129502,1,0,0:0:0:0:
448,192,129502,1,0,0:0:0:0:
320,192,129581,1,0,0:0:0:0:
192,192,129661,1,0,0:0:0:0:
448,192,129740,1,0,0:0:0:0:
320,192,129819,1,0,0:0:0:0:
64,192,129819,1,0,0:0:0:0:
192,192,129819,1,0,0:0:0:0:
448,192,129899,1,0,0:0:0:0:
64,192,129978,1,0,0:0:0:0:
192,192,130057,1,0,0:0:0:0:
320,192,130137,1,0,0:0:0:0:
448,192,130137,1,0,0:0:0:0:
64,192,130216,1,0,0:0:0:0:
192,192,130216,1,0,0:0:0:0:
448,192,130296,1,0,0:0:0:0:
320,192,130296,1,0,0:0:0:0:
192,192,130375,1,0,0:0:0:0:
64,192,130375,1,0,0:0:0:0:
448,192,130454,1,0,0:0:0:0:
192,192,130534,1,0,0:0:0:0:
448,192,130613,1,0,0:0:0:0:
192,192,130692,1,0,0:0:0:0:
64,192,130772,1,0,0:0:0:0:
320,192,130851,1,0,0:0:0:0:
64,192,130930,1,0,0:0:0:0:
320,192,131010,1,0,0:0:0:0:
448,192,131089,1,0,0:0:0:0:
192,192,131089,1,0,0:0:0:0:
64,192,131089,1,0,0:0:0:0:
320,192,131169,1,0,0:0:0:0:
192,192,131248,1,0,0:0:0:0:
320,192,131327,1,0,0:0:0:0:
64,192,131407,1,0,0:0:0:0:
448,192,131486,1,0,0:0:0:0:
64,192,131565,1,0,0:0:0:0:
448,192,131645,1,0,0:0:0:0:
320,192,131724,1,0,0:0:0:0:
64,192,131803,1,0,0:0:0:0:
320,192,131883,1,0,0:0:0:0:
64,192,131962,1,0,0:0:0:0:
192,192,132042,1,0,0:0:0:0:
320,192,132121,1,0,0:0:0:0:
192,192,132200,1,0,0:0:0:0:
320,192,132280,1,0,0:0:0:0:
64,192,132359,1,0,0:0:0:0:
448,192,132359,1,0,0:0:0:0:
192,192,132438,1,0,0:0:0:0:
320,192,132518,1,0,0:0:0:0:
64,192,132597,1,0,0:0:0:0:
192,192,132676,1,0,0:0:0:0:
320,192,132676,1,0,0:0:0:0:
448,192,132676,1,0,0:0:0:0:
64,192,132756,1,0,0:0:0:0:
448,192,132835,1,0,0:0:0:0:
192,192,132915,1,0,0:0:0:0:
320,192,132994,1,0,0:0:0:0:
192,192,133073,1,0,0:0:0:0:
448,192,133153,1,0,0:0:0:0:
64,192,133232,1,0,0:0:0:0:
192,192,133311,1,0,0:0:0:0:
320,192,133311,1,0,0:0:0:0:
448,192,133311,1,0,0:0:0:0:
64,192,133391,1,0,0:0:0:0:
320,192,133470,1,0,0:0:0:0:
192,192,133549,1,0,0:0:0:0:
448,192,133629,1,0,0:0:0:0:
64,192,133708,1,0,0:0:0:0:
192,192,133788,1,0,0:0:0:0:
320,192,133867,1,0,0:0:0:0:
192,192,133946,1,0,0:0:0:0:
64,192,133946,1,0,0:0:0:0:
448,192,133946,1,0,0:0:0:0:
320,192,134026,1,0,0:0:0:0:
64,192,134105,1,0,0:0:0:0:
192,192,134184,1,0,0:0:0:0:
448,192,134264,1,0,0:0:0:0:
192,192,134343,1,0,0:0:0:0:
320,192,134422,1,0,0:0:0:0:
64,192,134502,1,0,0:0:0:0:
192,192,134581,1,0,0:0:0:0:
320,192,134581,1,0,0:0:0:0:
448,192,134581,1,0,0:0:0:0:
64,192,134661,1,0,0:0:0:0:
448,192,134740,1,0,0:0:0:0:
192,192,134819,1,0,0:0:0:0:
320,192,134899,1,0,0:0:0:0:
192,192,134978,1,0,0:0:0:0:
448,192,135057,1,0,0:0:0:0:
320,192,135137,1,0,0:0:0:0:
192,192,135216,1,0,0:0:0:0:
64,192,135216,1,0,0:0:0:0:
448,192,135216,1,0,0:0:0:0:
320,192,135296,1,0,0:0:0:0:
64,192,135375,1,0,0:0:0:0:
448,192,135454,1,0,0:0:0:0:
192,192,135534,1,0,0:0:0:0:
320,192,135613,1,0,0:0:0:0:
64,192,135692,1,0,0:0:0:0:
192,192,135772,1,0,0:0:0:0:
320,192,135851,1,0,0:0:0:0:
448,192,135851,1,0,0:0:0:0:
64,192,135851,1,0,0:0:0:0:
192,192,135930,1,0,0:0:0:0:
448,192,136010,1,0,0:0:0:0:
64,192,136089,1,0,0:0:0:0:
192,192,136169,1,0,0:0:0:0:
448,192,136248,1,0,0:0:0:0:
64,192,136327,1,0,0:0:0:0:
320,192,136407,1,0,0:0:0:0:
192,192,136486,1,0,0:0:0:0:
64,192,136486,1,0,0:0:0:0:
448,192,136486,1,0,0:0:0:0:
320,192,136565,1,0,0:0:0:0:
192,192,136645,1,0,0:0:0:0:
448,192,136724,1,0,0:0:0:0:
64,192,136803,1,0,0:0:0:0:
320,192,136883,1,0,0:0:0:0:
192,192,136962,1,0,0:0:0:0:
448,192,137042,1,0,0:0:0:0:
320,192,137121,1,0,0:0:0:0:
192,192,137121,1,0,0:0:0:0:
64,192,137121,1,0,0:0:0:0:
448,192,137200,1,0,0:0:0:0:
64,192,137280,1,0,0:0:0:0:
320,192,137359,1,0,0:0:0:0:
192,192,137438,1,0,0:0:0:0:
448,192,137518,1,0,0:0:0:0:
64,192,137597,1,0,0:0:0:0:
192,192,137676,1,0,0:0:0:0:
320,192,137756,1,0,0:0:0:0:
448,192,137756,1,0,0:0:0:0:
64,192,137756,1,0,0:0:0:0:
192,192,137835,1,0,0:0:0:0:
448,192,137915,1,0,0:0:0:0:
64,192,137994,1,0,0:0:0:0:
320,192,138073,1,0,0:0:0:0:
192,192,138153,1,0,0:0:0:0:
320,192,138232,1,0,0:0:0:0:
64,192,138311,1,0,0:0:0:0:
192,192,138391,1,0,0:0:0:0:
320,192,138391,1,0,0:0:0:0:
448,192,138391,1,0,0:0:0:0:
64,192,138470,1,0,0:0:0:0:
448,192,138549,1,0,0:0:0:0:
192,192,138629,1,0,0:0:0:0:
320,192,138708,1,0,0:0:0:0:
64,192,138788,1,0,0:0:0:0:
448,192,138867,1,0,0:0:0:0:
320,192,138946,1,0,0:0:0:0:
192,192,139026,1,0,0:0:0:0:
64,192,139026,1,0,0:0:0:0:
448,192,139026,1,0,0:0:0:0:
320,192,139105,1,0,0:0:0:0:
64,192,139184,1,0,0:0:0:0:
448,192,139264,1,0,0:0:0:0:
192,192,139343,1,0,0:0:0:0:
448,192,139422,1,0,0:0:0:0:
64,192,139502,1,0,0:0:0:0:
192,192,139581,1,0,0:0:0:0:
320,192,139661,1,0,0:0:0:0:
448,192,139661,1,0,0:0:0:0:
64,192,139661,1,0,0:0:0:0:
192,192,139740,1,0,0:0:0:0:
448,192,139819,1,0,0:0:0:0:
64,192,139899,1,0,0:0:0:0:
320,192,139978,1,0,0:0:0:0:
192,192,140057,1,0,0:0:0:0:
448,192,140137,1,0,0:0:0:0:
64,192,140216,1,0,0:0:0:0:
192,192,140296,1,0,0:0:0:0:
320,192,140296,1,0,0:0:0:0:
448,192,140296,1,0,0:0:0:0:
64,192,140375,1,0,0:0:0:0:
320,192,140454,1,0,0:0:0:0:
192,192,140534,1,0,0:0:0:0:
448,192,140613,1,0,0:0:0:0:
192,192,140692,1,0,0:0:0:0:
320,192,140772,1,0,0:0:0:0:
64,192,140851,1,0,0:0:0:0:
192,192,140930,1,0,0:0:0:0:
320,192,140930,1,0,0:0:0:0:
448,192,140930,1,0,0:0:0:0:
64,192,141010,1,0,0:0:0:0:
192,192,141089,1,0,0:0:0:0:
448,192,141169,1,0,0:0:0:0:
64,192,141248,1,0,0:0:0:0:
320,192,141327,1,0,0:0:0:0:
192,192,141407,1,0,0:0:0:0:
448,192,141486,1,0,0:0:0:0:
192,192,141565,1,0,0:0:0:0:
320,192,141565,1,0,0:0:0:0:
64,192,141565,1,0,0:0:0:0:
448,192,141645,1,0,0:0:0:0:
64,192,141724,1,0,0:0:0:0:
320,192,141803,1,0,0:0:0:0:
192,192,141883,1,0,0:0:0:0:
448,192,141883,1,0,0:0:0:0:
64,192,141883,1,0,0:0:0:0:
320,192,142042,1,0,0:0:0:0:
448,192,142042,1,0,0:0:0:0:
192,192,142121,1,0,0:0:0:0:
64,192,142121,1,0,0:0:0:0:
320,192,142200,1,0,0:0:0:0:
192,192,142280,1,0,0:0:0:0:
64,192,142359,1,0,0:0:0:0:
192,192,142438,1,0,0:0:0:0:
448,192,142518,1,0,0:0:0:0:
320,192,142597,1,0,0:0:0:0:
64,192,142676,1,0,0:0:0:0:
448,192,142756,1,0,0:0:0:0:
320,192,142835,1,0,0:0:0:0:
192,192,142835,1,0,0:0:0:0:
64,192,142835,1,0,0:0:0:0:
448,192,142915,1,0,0:0:0:0:
192,192,142994,1,0,0:0:0:0:
320,192,143073,1,0,0:0:0:0:
64,192,143153,1,0,0:0:0:0:
448,192,143232,1,0,0:0:0:0:
320,192,143311,1,0,0:0:0:0:
64,192,143391,1,0,0:0:0:0:
192,192,143470,1,0,0:0:0:0:
320,192,143470,1,0,0:0:0:0:
448,192,143470,1,0,0:0:0:0:
64,192,143549,1,0,0:0:0:0:
448,192,143629,1,0,0:0:0:0:
192,192,143708,1,0,0:0:0:0:
320,192,143788,1,0,0:0:0:0:
64,192,143867,1,0,0:0:0:0:
448,192,143946,1,0,0:0:0:0:
192,192,144026,1,0,0:0:0:0:
320,192,144105,1,0,0:0:0:0:
448,192,144105,1,0,0:0:0:0:
64,192,144105,1,0,0:0:0:0:
192,192,144184,1,0,0:0:0:0:
320,192,144264,1,0,0:0:0:0:
64,192,144343,1,0,0:0:0:0:
448,192,144422,1,0,0:0:0:0:
64,192,144502,1,0,0:0:0:0:
320,192,144581,1,0,0:0:0:0:
192,192,144661,1,0,0:0:0:0:
64,192,144740,1,0,0:0:0:0:
320,192,144740,1,0,0:0:0:0:
448,192,144740,1,0,0:0:0:0:
192,192,144819,1,0,0:0:0:0:
448,192,144899,1,0,0:0:0:0:
64,192,144978,1,0,0:0:0:0:
192,192,145057,1,0,0:0:0:0:
448,192,145137,1,0,0:0:0:0:
64,192,145216,1,0,0:0:0:0:
320,192,145296,1,0,0:0:0:0:
192,192,145375,1,0,0:0:0:0:
64,192,145375,1,0,0:0:0:0:
448,192,145375,1,0,0:0:0:0:
320,192,145454,1,0,0:0:0:0:
192,192,145534,1,0,0:0:0:0:
448,192,145613,1,0,0:0:0:0:
64,192,145692,1,0,0:0:0:0:
448,192,145772,1,0,0:0:0:0:
192,192,145851,1,0,0:0:0:0:
320,192,145930,1,0,0:0:0:0:
192,192,146010,1,0,0:0:0:0:
448,192,146010,1,0,0:0:0:0:
64,192,146010,1,0,0:0:0:0:
320,192,146089,1,0,0:0:0:0:
64,192,146169,1,0,0:0:0:0:
448,192,146248,1,0,0:0:0:0:
192,192,146327,1,0,0:0:0:0:
448,192,146407,1,0,0:0:0:0:
64,192,146486,1,0,0:0:0:0:
192,192,146565,1,0,0:0:0:0:
320,192,146645,1,0,0:0:0:0:
448,192,146645,1,0,0:0:0:0:
64,192,146645,1,0,0:0:0:0:
192,192,146724,1,0,0:0:0:0:
448,192,146803,1,0,0:0:0:0:
64,192,146883,1,0,0:0:0:0:
320,192,146962,1,0,0:0:0:0:
192,192,147042,1,0,0:0:0:0:
448,192,147121,1,0,0:0:0:0:
320,192,147200,1,0,0:0:0:0:
192,192,147280,1,0,0:0:0:0:
64,192,147280,1,0,0:0:0:0:
448,192,147280,1,0,0:0:0:0:
320,192,147359,1,0,0:0:0:0:
64,192,147438,1,0,0:0:0:0:
192,192,147518,1,0,0:0:0:0:
448,192,147597,1,0,0:0:0:0:
192,192,147676,1,0,0:0:0:0:
320,192,147756,1,0,0:0:0:0:
64,192,147835,1,0,0:0:0:0:
192,192,147915,1,0,0:0:0:0:
320,192,147915,1,0,0:0:0:0:
448,192,147915,1,0,0:0:0:0:
64,192,147994,1,0,0:0:0:0:
448,192,148073,1,0,0:0:0:0:
192,192,148153,1,0,0:0:0:0:
320,192,148232,1,0,0:0:0:0:
64,192,148311,1,0,0:0:0:0:
448,192,148391,1,0,0:0:0:0:
320,192,148470,1,0,0:0:0:0:
192,192,148549,1,0,0:0:0:0:
64,192,148549,1,0,0:0:0:0:
448,192,148549,1,0,0:0:0:0:
320,192,148629,1,0,0:0:0:0:
64,192,148708,1,0,0:0:0:0:
448,192,148788,1,0,0:0:0:0:
192,192,148867,1,0,0:0:0:0:
320,192,148946,1,0,0:0:0:0:
192,192,149026,1,0,0:0:0:0:
448,192,149105,1,0,0:0:0:0:
320,192,149184,1,0,0:0:0:0:
192,192,149184,1,0,0:0:0:0:
64,192,149184,1,0,0:0:0:0:
448,192,149264,1,0,0:0:0:0:
64,192,149343,1,0,0:0:0:0:
192,192,149422,1,0,0:0:0:0:
448,192,149502,1,0,0:0:0:0:
64,192,149581,1,0,0:0:0:0:
320,192,149661,1,0,0:0:0:0:
192,192,149740,1,0,0:0:0:0:
320,192,149819,1,0,0:0:0:0:
448,192,149819,1,0,0:0:0:0:
64,192,149819,1,0,0:0:0:0:
192,192,149899,1,0,0:0:0:0:
448,192,149978,1,0,0:0:0:0:
64,192,150057,1,0,0:0:0:0:
192,192,150137,1,0,0:0:0:0:
320,192,150137,1,0,0:0:0:0:
448,192,150137,1,0,0:0:0:0:
64,192,150216,1,0,0:0:0:0:
320,192,150296,1,0,0:0:0:0:
192,192,150375,1,0,0:0:0:0:
64,192,150454,1,0,0:0:0:0:
448,192,150454,1,0,0:0:0:0:
320,192,150534,1,0,0:0:0:0:
192,192,150534,1,0,0:0:0:0:
64,192,150613,1,0,0:0:0:0:
448,192,150613,1,0,0:0:0:0:
320,192,150692,1,0,0:0:0:0:
192,192,150692,1,0,0:0:0:0:
448,192,150772,1,0,0:0:0:0:
64,192,150851,1,0,0:0:0:0:
320,192,150930,1,0,0:0:0:0:
448,192,151010,1,0,0:0:0:0:
192,192,151089,1,0,0:0:0:0:
320,192,151169,1,0,0:0:0:0:
64,192,151248,1,0,0:0:0:0:
192,192,151327,1,0,0:0:0:0:
320,192,151407,1,0,0:0:0:0:
448,192,151407,1,0,0:0:0:0:
64,192,151407,1,0,0:0:0:0:
192,192,151486,1,0,0:0:0:0:
448,192,151565,1,0,0:0:0:0:
320,192,151645,1,0,0:0:0:0:
192,192,151724,1,0,0:0:0:0:
320,192,151803,1,0,0:0:0:0:
192,192,151883,1,0,0:0:0:0:
320,192,151962,1,0,0:0:0:0:
64,192,152042,1,0,0:0:0:0:
192,192,152121,1,0,0:0:0:0:
64,192,152200,1,0,0:0:0:0:
192,192,152280,1,0,0:0:0:0:
320,192,152359,1,0,0:0:0:0:
192,192,152518,1,0,0:0:0:0:
320,192,152597,1,0,0:0:0:0:
192,192,152676,1,0,0:0:0:0:
448,192,152676,1,0,0:0:0:0:
64,192,152676,128,0,152835:0:0:0:0:
320,192,152835,1,0,0:0:0:0:
192,192,152994,128,0,153153:0:0:0:0:
64,192,153153,1,0,0:0:0:0:
320,192,153153,1,0,0:0:0:0:
448,192,153153,128,0,153311:0:0:0:0:
192,192,153311,1,0,0:0:0:0:
320,192,153470,128,0,153629:0:0:0:0:
192,192,153629,1,0,0:0:0:0:
448,192,153629,1,0,0:0:0:0:
64,192,153629,128,0,153788:0:0:0:0:
320,192,153788,1,0,0:0:0:0:
192,192,153946,128,0,154105:0:0:0:0:
64,192,154105,1,0,0:0:0:0:
320,192,154105,1,0,0:0:0:0:
448,192,154105,128,0,154264:0:0:0:0:
192,192,154264,1,0,0:0:0:0:
64,192,154422,128,0,154581:0:0:0:0:
192,192,154581,1,0,0:0:0:0:
448,192,154581,1,0,0:0:0:0:
320,192,154581,128,0,154740:0:0:0:0:
64,192,154740,1,0,0:0:0:0:
320,192,154899,1,0,0:0:0:0:
448,192,154899,1,0,0:0:0:0:
192,192,154899,128,0,155057:0:0:0:0:
64,192,155057,1,0,0:0:0:0:
64,192,155216,1,0,0:0:0:0:
192,192,155216,1,0,0:0:0:0:
320,192,155216,1,0,0:0:0:0:
448,192,155375,1,0,0:0:0:0:
192,192,155454,1,0,0:0:0:0:
320,192,155534,1,0,0:0:0:0:
192,192,155692,1,0,0:0:0:0:
448,192,155692,1,0,0:0:0:0:
320,192,155692,1,0,0:0:0:0:
448,192,155851,1,0,0:0:0:0:
64,192,155851,1,0,0:0:0:0:
192,192,155930,1,0,0:0:0:0:
320,192,156010,1,0,0:0:0:0:
448,192,156169,1,0,0:0:0:0:
64,192,156169,1,0,0:0:0:0:
320,192,156327,1,0,0:0:0:0:
192,192,156407,1,0,0:0:0:0:
320,192,156486,1,0,0:0:0:0:
192,192,156645,1,0,0:0:0:0:
64,192,156645,1,0,0:0:0:0:
192,192,156803,1,0,0:0:0:0:
320,192,156803,1,0,0:0:0:0:
448,192,156883,1,0,0:0:0:0:
64,192,156962,1,0,0:0:0:0:
320,192,156962,1,0,0:0:0:0:
192,192,157042,1,0,0:0:0:0:
448,192,157121,1,0,0:0:0:0:
320,192,157121,1,0,0:0:0:0:
64,192,157280,1,0,0:0:0:0:
192,192,157280,1,0,0:0:0:0:
320,192,157438,1,0,0:0:0:0:
64,192,157438,1,0,0:0:0:0:
192,192,157597,1,0,0:0:0:0:
320,192,157597,1,0,0:0:0:0:
192,192,157756,1,0,0:0:0:0:
448,192,157756,1,0,0:0:0:0:
64,192,157756,1,0,0:0:0:0:
320,192,157915,1,0,0:0:0:0:
320,192,158073,1,0,0:0:0:0:
64,192,158232,1,0,0:0:0:0:
192,192,158391,1,0,0:0:0:0:
320,192,158391,1,0,0:0:0:0:
192,192,158549,1,0,0:0:0:0:
448,192,158708,1,0,0:0:0:0:
64,192,158867,1,0,0:0:0:0:
64,192,159026,1,0,0:0:0:0:
448,192,159184,1,0,0:0:0:0:
192,192,159343,1,0,0:0:0:0:
192,192,159502,1,0,0:0:0:0:
64,192,159661,1,0,0:0:0:0:
448,192,159661,1,0,0:0:0:0:
320,192,159819,1,0,0:0:0:0:
448,192,159978,1,0,0:0:0:0:
320,192,160137,1,0,0:0:0:0:
64,192,160296,1,0,0:0:0:0:
448,192,160454,1,0,0:0:0:0:
448,192,160613,1,0,0:0:0:0:
192,192,160772,1,0,0:0:0:0:
448,192,160930,1,0,0:0:0:0:
320,192,160930,1,0,0:0:0:0:
320,192,161089,1,0,0:0:0:0:
64,192,161248,1,0,0:0:0:0:
448,192,161407,1,0,0:0:0:0:
448,192,161565,1,0,0:0:0:0:
192,192,161724,1,0,0:0:0:0:
320,192,161883,1,0,0:0:0:0:
320,192,162042,1,0,0:0:0:0:
192,192,162200,1,0,0:0:0:0:
64,192,162200,1,0,0:0:0:0:
448,192,162359,1,0,0:0:0:0:
64,192,162518,1,0,0:0:0:0:
448,192,162676,1,0,0:0:0:0:
320,192,162835,1,0,0:0:0:0:
192,192,162994,1,0,0:0:0:0:
192,192,163153,1,0,0:0:0:0:
320,192,163311,1,0,0:0:0:0:
64,192,163470,1,0,0:0:0:0:
192,192,163470,1,0,0:0:0:0:
64,192,163629,1,0,0:0:0:0:
448,192,163788,1,0,0:0:0:0:
192,192,163946,1,0,0:0:0:0:
192,192,164105,1,0,0:0:0:0:
448,192,164264,1,0,0:0:0:0:
192,192,164422,1,0,0:0:0:0:
192,192,164581,1,0,0:0:0:0:
448,192,164740,1,0,0:0:0:0:
320,192,164740,1,0,0:0:0:0:
64,192,164899,1,0,0:0:0:0:
448,192,165057,1,0,0:0:0:0:
64,192,165216,1,0,0:0:0:0:
192,192,165375,1,0,0:0:0:0:
448,192,165534,1,0,0:0:0:0:
448,192,165692,1,0,0:0:0:0:
64,192,165851,1,0,0:0:0:0:
192,192,166010,1,0,0:0:0:0:
320,192,166010,1,0,0:0:0:0:
320,192,166169,1,0,0:0:0:0:
64,192,166327,1,0,0:0:0:0:
192,192,166486,1,0,0:0:0:0:
192,192,166645,1,0,0:0:0:0:
64,192,166803,1,0,0:0:0:0:
448,192,166962,1,0,0:0:0:0:
448,192,167121,1,0,0:0:0:0:
192,192,167280,1,0,0:0:0:0:
64,192,167280,1,0,0:0:0:0:
320,192,167438,1,0,0:0:0:0:
64,192,167597,1,0,0:0:0:0:
320,192,167756,1,0,0:0:0:0:
448,192,167915,1,0,0:0:0:0:
192,192,168073,1,0,0:0:0:0:
192,192,168232,1,0,0:0:0:0:
448,192,168391,1,0,0:0:0:0:
64,192,168549,1,0,0:0:0:0:
192,192,168549,1,0,0:0:0:0:
64,192,168708,1,0,0:0:0:0:
448,192,168867,1,0,0:0:0:0:
192,192,169026,1,0,0:0:0:0:
192,192,169184,1,0,0:0:0:0:
448,192,169343,1,0,0:0:0:0:
192,192,169502,1,0,0:0:0:0:
192,192,169661,1,0,0:0:0:0:
448,192,169819,1,0,0:0:0:0:
320,192,169819,1,0,0:0:0:0:
64,192,169978,1,0,0:0:0:0:
448,192,170137,1,0,0:0:0:0:
64,192,170296,1,0,0:0:0:0:
192,192,170454,1,0,0:0:0:0:
320,192,170613,1,0,0:0:0:0:
320,192,170772,1,0,0:0:0:0:
192,192,170930,1,0,0:0:0:0:
320,192,171089,1,0,0:0:0:0:
448,192,171089,1,0,0:0:0:0:
448,192,171248,1,0,0:0:0:0:
192,192,171407,1,0,0:0:0:0:
64,192,171565,1,0,0:0:0:0:
64,192,171724,1,0,0:0:0:0:
192,192,171883,1,0,0:0:0:0:
448,192,172042,1,0,0:0:0:0:
448,192,172200,1,0,0:0:0:0:
192,192,172359,1,0,0:0:0:0:
64,192,172359,1,0,0:0:0:0:
320,192,172518,1,0,0:0:0:0:
192,192,172676,1,0,0:0:0:0:
320,192,172835,1,0,0:0:0:0:
448,192,172994,1,0,0:0:0:0:
64,192,173153,1,0,0:0:0:0:
64,192,173311,1,0,0:0:0:0:
448,192,173470,1,0,0:0:0:0:
192,192,173629,1,0,0:0:0:0:
320,192,173629,1,0,0:0:0:0:
192,192,173788,1,0,0:0:0:0:
448,192,173946,1,0,0:0:0:0:
64,192,174105,1,0,0:0:0:0:
64,192,174264,1,0,0:0:0:0:
448,192,174422,1,0,0:0:0:0:
64,192,174581,1,0,0:0:0:0:
64,192,174740,1,0,0:0:0:0:
448,192,174899,1,0,0:0:0:0:
192,192,174899,1,0,0:0:0:0:
320,192,175057,1,0,0:0:0:0:
448,192,175216,1,0,0:0:0:0:
320,192,175375,1,0,0:0:0:0:
64,192,175534,1,0,0:0:0:0:
448,192,175692,1,0,0:0:0:0:
448,192,175851,1,0,0:0:0:0:
64,192,176010,1,0,0:0:0:0:
320,192,176169,1,0,0:0:0:0:
192,192,176169,1,0,0:0:0:0:
320,192,176327,1,0,0:0:0:0:
64,192,176486,1,0,0:0:0:0:
192,192,176645,1,0,0:0:0:0:
192,192,176803,1,0,0:0:0:0:
64,192,176962,1,0,0:0:0:0:
448,192,177121,1,0,0:0:0:0:
448,192,177280,1,0,0:0:0:0:
64,192,177438,1,0,0:0:0:0:
320,192,177438,1,0,0:0:0:0:
448,192,177597,1,0,0:0:0:0:
64,192,177756,1,0,0:0:0:0:
320,192,177756,1,0,0:0:0:0:
448,192,177915,1,0,0:0:0:0:
192,192,178073,1,0,0:0:0:0:
64,192,178073,1,0,0:0:0:0:
320,192,178073,1,0,0:0:0:0:
448,192,178232,1,0,0:0:0:0:
192,192,178391,1,0,0:0:0:0:
448,192,178549,1,0,0:0:0:0:
64,192,178708,1,0,0:0:0:0:
320,192,178708,1,0,0:0:0:0:
192,192,178867,1,0,0:0:0:0:
320,192,179026,1,0,0:0:0:0:
192,192,179184,1,0,0:0:0:0:
320,192,179343,1,0,0:0:0:0:
192,192,179502,1,0,0:0:0:0:
320,192,179661,1,0,0:0:0:0:
192,192,179819,1,0,0:0:0:0:
64,192,179978,1,0,0:0:0:0:
448,192,179978,1,0,0:0:0:0:
320,192,180137,1,0,0:0:0:0:
64,192,180296,1,0,0:0:0:0:
192,192,180375,1,0,0:0:0:0:
320,192,180454,1,0,0:0:0:0:
192,192,180534,1,0,0:0:0:0:
64,192,180613,1,0,0:0:0:0:
320,192,180772,1,0,0:0:0:0:
64,192,180930,1,0,0:0:0:0:
320,192,181089,1,0,0:0:0:0:
64,192,181248,1,0,0:0:0:0:
192,192,181248,1,0,0:0:0:0:
448,192,181407,1,0,0:0:0:0:
192,192,181565,1,0,0:0:0:0:
448,192,181724,1,0,0:0:0:0:
192,192,181883,1,0,0:0:0:0:
448,192,182042,1,0,0:0:0:0:
192,192,182200,1,0,0:0:0:0:
448,192,182359,1,0,0:0:0:0:
320,192,182518,1,0,0:0:0:0:
192,192,182518,1,0,0:0:0:0:
64,192,182676,1,0,0:0:0:0:
192,192,182835,1,0,0:0:0:0:
320,192,182835,1,0,0:0:0:0:
64,192,182994,1,0,0:0:0:0:
192,192,183153,1,0,0:0:0:0:
320,192,183153,1,0,0:0:0:0:
448,192,183153,1,0,0:0:0:0:
64,192,183311,1,0,0:0:0:0:
320,192,183470,1,0,0:0:0:0:
64,192,183629,1,0,0:0:0:0:
192,192,183788,1,0,0:0:0:0:
448,192,183788,1,0,0:0:0:0:
320,192,183946,1,0,0:0:0:0:
192,192,184105,1,0,0:0:0:0:
320,192,184264,1,0,0:0:0:0:
192,192,184422,1,0,0:0:0:0:
320,192,184581,1,0,0:0:0:0:
192,192,184740,1,0,0:0:0:0:
320,192,184899,1,0,0:0:0:0:
64,192,185057,1,0,0:0:0:0:
448,192,185057,1,0,0:0:0:0:
192,192,185216,1,0,0:0:0:0:
448,192,185375,1,0,0:0:0:0:
320,192,185454,1,0,0:0:0:0:
192,192,185534,1,0,0:0:0:0:
320,192,185613,1,0,0:0:0:0:
448,192,185692,1,0,0:0:0:0:
192,192,185851,1,0,0:0:0:0:
448,192,186010,1,0,0:0:0:0:
192,192,186169,1,0,0:0:0:0:
64,192,186327,1,0,0:0:0:0:
448,192,186327,1,0,0:0:0:0:
320,192,186486,1,0,0:0:0:0:
64,192,186645,1,0,0:0:0:0:
320,192,186803,1,0,0:0:0:0:
64,192,186962,1,0,0:0:0:0:
320,192,187121,1,0,0:0:0:0:
64,192,187280,1,0,0:0:0:0:
320,192,187438,1,0,0:0:0:0:
192,192,187597,1,0,0:0:0:0:
64,192,187597,1,0,0:0:0:0:
448,192,187756,1,0,0:0:0:0:
192,192,187915,1,0,0:0:0:0:
64,192,187915,1,0,0:0:0:0:
448,192,188073,1,0,0:0:0:0:
320,192,188232,1,0,0:0:0:0:
192,192,188232,1,0,0:0:0:0:
64,192,188232,1,0,0:0:0:0:
448,192,188391,1,0,0:0:0:0:
192,192,188549,1,0,0:0:0:0:
448,192,188708,1,0,0:0:0:0:
192,192,188867,1,0,0:0:0:0:
320,192,188867,1,0,0:0:0:0:
64,192,189026,1,0,0:0:0:0:
320,192,189184,1,0,0:0:0:0:
64,192,189343,1,0,0:0:0:0:
320,192,189502,1,0,0:0:0:0:
64,192,189661,1,0,0:0:0:0:
320,192,189819,1,0,0:0:0:0:
64,192,189978,1,0,0:0:0:0:
192,192,190137,1,0,0:0:0:0:
320,192,190137,1,0,0:0:0:0:
448,192,190296,1,0,0:0:0:0:
192,192,190454,1,0,0:0:0:0:
320,192,190534,1,0,0:0:0:0:
448,192,190613,1,0,0:0:0:0:
320,192,190692,1,0,0:0:0:0:
192,192,190772,1,0,0:0:0:0:
448,192,190930,1,0,0:0:0:0:
192,192,191089,1,0,0:0:0:0:
448,192,191248,1,0,0:0:0:0:
64,192,191407,1,0,0:0:0:0:
192,192,191407,1,0,0:0:0:0:
320,192,191565,1,0,0:0:0:0:
192,192,191724,1,0,0:0:0:0:
320,192,191883,1,0,0:0:0:0:
192,192,192042,1,0,0:0:0:0:
320,192,192200,1,0,0:0:0:0:
192,192,192359,1,0,0:0:0:0:
320,192,192518,1,0,0:0:0:0:
192,192,192676,1,0,0:0:0:0:
64,192,192676,1,0,0:0:0:0:
448,192,192835,1,0,0:0:0:0:
192,192,192994,1,0,0:0:0:0:
64,192,192994,1,0,0:0:0:0:
448,192,193153,1,0,0:0:0:0:
320,192,193311,1,0,0:0:0:0:
192,192,193311,1,0,0:0:0:0:
64,192,193311,1,0,0:0:0:0:
320,192,193629,1,0,0:0:0:0:
320,192,193788,1,0,0:0:0:0:
320,192,193946,1,0,0:0:0:0:
192,192,193946,1,0,0:0:0:0:
320,192,194105,1,0,0:0:0:0:
192,192,194105,1,0,0:0:0:0:
320,192,194264,1,0,0:0:0:0:
192,192,194264,1,0,0:0:0:0:
320,192,194422,1,0,0:0:0:0:
192,192,194422,1,0,0:0:0:0:
192,192,194581,1,0,0:0:0:0:
320,192,194581,1,0,0:0:0:0:
192,192,194740,1,0,0:0:0:0:
320,192,194740,1,0,0:0:0:0:
192,192,194899,1,0,0:0:0:0:
320,192,194899,1,0,0:0:0:0:
320,192,195057,1,0,0:0:0:0:
192,192,195057,1,0,0:0:0:0:
320,192,195216,1,0,0:0:0:0:
192,192,195216,1,0,0:0:0:0:
320,192,195375,1,0,0:0:0:0:
192,192,195375,1,0,0:0:0:0:
320,192,195534,1,0,0:0:0:0:
192,192,195534,1,0,0:0:0:0:
320,192,195692,1,0,0:0:0:0:
192,192,195692,1,0,0:0:0:0:
64,192,195851,1,0,0:0:0:0:
448,192,195851,1,0,0:0:0:0:
320,192,195930,1,0,0:0:0:0:
192,192,196010,1,0,0:0:0:0:
64,192,196089,1,0,0:0:0:0:
320,192,196169,1,0,0:0:0:0:
192,192,196248,1,0,0:0:0:0:
448,192,196327,1,0,0:0:0:0:
320,192,196407,1,0,0:0:0:0:
64,192,196486,1,0,0:0:0:0:
192,192,196565,1,0,0:0:0:0:
448,192,196645,1,0,0:0:0:0:
64,192,196724,1,0,0:0:0:0:
320,192,196803,1,0,0:0:0:0:
192,192,196883,1,0,0:0:0:0:
320,192,196962,1,0,0:0:0:0:
448,192,196962,1,0,0:0:0:0:
192,192,197042,1,0,0:0:0:0:
64,192,197042,1,0,0:0:0:0:
448,192,197121,1,0,0:0:0:0:
320,192,197121,1,0,0:0:0:0:
64,192,197200,1,0,0:0:0:0:
192,192,197280,1,0,0:0:0:0:
448,192,197359,1,0,0:0:0:0:
320,192,197359,1,0,0:0:0:0:
64,192,197438,1,0,0:0:0:0:
192,192,197438,1,0,0:0:0:0:
320,192,197518,1,0,0:0:0:0:
448,192,197518,1,0,0:0:0:0:
192,192,197597,1,0,0:0:0:0:
64,192,197597,1,0,0:0:0:0:
320,192,197676,1,0,0:0:0:0:
448,192,197676,1,0,0:0:0:0:
64,192,197756,1,0,0:0:0:0:
192,192,197835,1,0,0:0:0:0:
448,192,197915,1,0,0:0:0:0:
64,192,197994,1,0,0:0:0:0:
320,192,198073,1,0,0:0:0:0:
192,192,198153,1,0,0:0:0:0:
448,192,198232,1,0,0:0:0:0:
64,192,198311,1,0,0:0:0:0:
192,192,198391,1,0,0:0:0:0:
320,192,198391,1,0,0:0:0:0:
448,192,198391,1,0,0:0:0:0:
192,192,198549,1,0,0:0:0:0:
320,192,198549,1,0,0:0:0:0:
64,192,198708,1,0,0:0:0:0:
320,192,198708,1,0,0:0:0:0:
192,192,198867,1,0,0:0:0:0:
64,192,198867,1,0,0:0:0:0:
448,192,198867,1,0,0:0:0:0:
192,192,199026,1,0,0:0:0:0:
320,192,199026,1,0,0:0:0:0:
64,192,199184,1,0,0:0:0:0:
448,192,199184,1,0,0:0:0:0:
192,192,199343,1,0,0:0:0:0:
320,192,199343,1,0,0:0:0:0:
448,192,199343,1,0,0:0:0:0:
320,192,199502,1,0,0:0:0:0:
64,192,199502,1,0,0:0:0:0:
192,192,199661,1,0,0:0:0:0:
64,192,199661,1,0,0:0:0:0:
192,192,199819,1,0,0:0:0:0:
320,192,199819,1,0,0:0:0:0:
448,192,199819,1,0,0:0:0:0:
448,192,199978,1,0,0:0:0:0:
64,192,199978,1,0,0:0:0:0:
320,192,200137,1,0,0:0:0:0:
64,192,200137,1,0,0:0:0:0:
192,192,200296,1,0,0:0:0:0:
320,192,200296,1,0,0:0:0:0:
448,192,200296,1,0,0:0:0:0:
64,192,200454,1,0,0:0:0:0:
448,192,200454,1,0,0:0:0:0:
320,192,200613,1,0,0:0:0:0:
64,192,200613,1,0,0:0:0:0:
192,192,200613,1,0,0:0:0:0:
448,192,200772,1,0,0:0:0:0:
192,192,200772,1,0,0:0:0:0:
320,192,200930,1,0,0:0:0:0:
448,192,200930,1,0,0:0:0:0:
64,192,200930,1,0,0:0:0:0:
192,192,201089,1,0,0:0:0:0:
320,192,201089,1,0,0:0:0:0:
64,192,201248,1,0,0:0:0:0:
448,192,201248,1,0,0:0:0:0:
320,192,201407,1,0,0:0:0:0:
64,192,201407,1,0,0:0:0:0:
192,192,201407,1,0,0:0:0:0:
192,192,201565,1,0,0:0:0:0:
448,192,201565,1,0,0:0:0:0:
320,192,201724,1,0,0:0:0:0:
192,192,201724,1,0,0:0:0:0:
64,192,201883,1,0,0:0:0:0:
320,192,201883,1,0,0:0:0:0:
448,192,201883,1,0,0:0:0:0:
192,192,202042,1,0,0:0:0:0:
448,192,202042,1,0,0:0:0:0:
320,192,202200,1,0,0:0:0:0:
192,192,202200,1,0,0:0:0:0:
64,192,202359,1,0,0:0:0:0:
320,192,202359,1,0,0:0:0:0:
448,192,202359,1,0,0:0:0:0:
192,192,202518,1,0,0:0:0:0:
448,192,202518,1,0,0:0:0:0:
320,192,202676,1,0,0:0:0:0:
64,192,202676,1,0,0:0:0:0:
192,192,202835,1,0,0:0:0:0:
64,192,202835,1,0,0:0:0:0:
448,192,202835,1,0,0:0:0:0:
320,192,202994,1,0,0:0:0:0:
192,192,202994,1,0,0:0:0:0:
320,192,203153,1,0,0:0:0:0:
448,192,203153,1,0,0:0:0:0:
192,192,203311,1,0,0:0:0:0:
448,192,203311,1,0,0:0:0:0:
320,192,203470,1,0,0:0:0:0:
64,192,203470,1,0,0:0:0:0:
192,192,203470,1,0,0:0:0:0:
64,192,203629,1,0,0:0:0:0:
448,192,203629,1,0,0:0:0:0:
192,192,203788,1,0,0:0:0:0:
448,192,203788,1,0,0:0:0:0:
320,192,203946,1,0,0:0:0:0:
192,192,203946,1,0,0:0:0:0:
64,192,203946,1,0,0:0:0:0:
64,192,204105,1,0,0:0:0:0:
448,192,204105,1,0,0:0:0:0:
192,192,204264,1,0,0:0:0:0:
448,192,204264,1,0,0:0:0:0:
320,192,204422,1,0,0:0:0:0:
192,192,204422,1,0,0:0:0:0:
64,192,204422,1,0,0:0:0:0:
320,192,204581,1,0,0:0:0:0:
448,192,204581,1,0,0:0:0:0:
64,192,204740,1,0,0:0:0:0:
448,192,204740,1,0,0:0:0:0:
320,192,204899,1,0,0:0:0:0:
192,192,204899,1,0,0:0:0:0:
64,192,204899,1,0,0:0:0:0:
192,192,205057,1,0,0:0:0:0:
448,192,205057,1,0,0:0:0:0:
320,192,205216,1,0,0:0:0:0:
64,192,205216,1,0,0:0:0:0:
192,192,205375,1,0,0:0:0:0:
64,192,205375,1,0,0:0:0:0:
448,192,205375,1,0,0:0:0:0:
320,192,205534,1,0,0:0:0:0:
192,192,205534,1,0,0:0:0:0:
64,192,205692,1,0,0:0:0:0:
448,192,205692,1,0,0:0:0:0:
320,192,205692,1,0,0:0:0:0:
192,192,205851,1,0,0:0:0:0:
448,192,205851,1,0,0:0:0:0:
320,192,206010,1,0,0:0:0:0:
192,192,206010,1,0,0:0:0:0:
64,192,206010,1,0,0:0:0:0:
64,192,206169,1,0,0:0:0:0:
448,192,206169,1,0,0:0:0:0:
192,192,206327,1,0,0:0:0:0:
448,192,206327,1,0,0:0:0:0:
320,192,206486,1,0,0:0:0:0:
192,192,206486,1,0,0:0:0:0:
64,192,206486,1,0,0:0:0:0:
64,192,206645,1,0,0:0:0:0:
320,192,206645,1,0,0:0:0:0:
192,192,206803,1,0,0:0:0:0:
448,192,206803,1,0,0:0:0:0:
320,192,206962,1,0,0:0:0:0:
192,192,206962,1,0,0:0:0:0:
64,192,206962,1,0,0:0:0:0:
64,192,207121,1,0,0:0:0:0:
448,192,207121,1,0,0:0:0:0:
192,192,207280,1,0,0:0:0:0:
320,192,207280,1,0,0:0:0:0:
448,192,207280,1,0,0:0:0:0:
64,192,207438,1,0,0:0:0:0:
192,192,207518,1,0,0:0:0:0:
320,192,207597,1,0,0:0:0:0:
64,192,207676,1,0,0:0:0:0:
320,192,207756,1,0,0:0:0:0:
448,192,207756,1,0,0:0:0:0:
192,192,207835,1,0,0:0:0:0:
64,192,207835,1,0,0:0:0:0:
320,192,207915,1,0,0:0:0:0:
448,192,207915,1,0,0:0:0:0:
192,192,207994,1,0,0:0:0:0:
64,192,207994,1,0,0:0:0:0:
448,192,208073,1,0,0:0:0:0:
320,192,208153,1,0,0:0:0:0:
192,192,208232,1,0,0:0:0:0:
448,192,208311,1,0,0:0:0:0:
64,192,208391,1,0,0:0:0:0:
192,192,208470,1,0,0:0:0:0:
320,192,208549,1,0,0:0:0:0:
448,192,208549,1,0,0:0:0:0:
64,192,208549,1,0,0:0:0:0:
192,192,208708,1,0,0:0:0:0:
320,192,208708,1,0,0:0:0:0:
64,192,208867,1,0,0:0:0:0:
448,192,208867,1,0,0:0:0:0:
320,192,209026,1,0,0:0:0:0:
192,192,209026,1,0,0:0:0:0:
64,192,209026,1,0,0:0:0:0:
192,192,209184,1,0,0:0:0:0:
448,192,209184,1,0,0:0:0:0:
320,192,209343,1,0,0:0:0:0:
448,192,209343,1,0,0:0:0:0:
320,192,209502,1,0,0:0:0:0:
192,192,209502,1,0,0:0:0:0:
64,192,209502,1,0,0:0:0:0:
64,192,209661,1,0,0:0:0:0:
448,192,209661,1,0,0:0:0:0:
192,192,209819,1,0,0:0:0:0:
448,192,209819,1,0,0:0:0:0:
320,192,209978,1,0,0:0:0:0:
192,192,209978,1,0,0:0:0:0:
64,192,209978,1,0,0:0:0:0:
64,192,210137,1,0,0:0:0:0:
448,192,210137,1,0,0:0:0:0:
192,192,210296,1,0,0:0:0:0:
448,192,210296,1,0,0:0:0:0:
320,192,210454,1,0,0:0:0:0:
192,192,210454,1,0,0:0:0:0:
64,192,210454,1,0,0:0:0:0:
64,192,210613,1,0,0:0:0:0:
448,192,210613,1,0,0:0:0:0:
320,192,210772,1,0,0:0:0:0:
192,192,210772,1,0,0:0:0:0:
448,192,210772,1,0,0:0:0:0:
320,192,210930,1,0,0:0:0:0:
64,192,210930,1,0,0:0:0:0:
192,192,211089,1,0,0:0:0:0:
64,192,211089,1,0,0:0:0:0:
448,192,211089,1,0,0:0:0:0:
320,192,211248,1,0,0:0:0:0:
192,192,211248,1,0,0:0:0:0:
64,192,211407,1,0,0:0:0:0:
320,192,211407,1,0,0:0:0:0:
192,192,211565,1,0,0:0:0:0:
64,192,211565,1,0,0:0:0:0:
448,192,211565,1,0,0:0:0:0:
320,192,211724,1,0,0:0:0:0:
192,192,211724,1,0,0:0:0:0:
64,192,211883,1,0,0:0:0:0:
448,192,211883,1,0,0:0:0:0:
192,192,212042,1,0,0:0:0:0:
320,192,212042,1,0,0:0:0:0:
448,192,212042,1,0,0:0:0:0:
320,192,212200,1,0,0:0:0:0:
64,192,212200,1,0,0:0:0:0:
192,192,212359,1,0,0:0:0:0:
64,192,212359,1,0,0:0:0:0:
192,192,212518,1,0,0:0:0:0:
320,192,212518,1,0,0:0:0:0:
448,192,212518,1,0,0:0:0:0:
64,192,212676,1,0,0:0:0:0:
448,192,212676,1,0,0:0:0:0:
64,192,212835,1,0,0:0:0:0:
320,192,212835,1,0,0:0:0:0:
192,192,212994,1,0,0:0:0:0:
320,192,212994,1,0,0:0:0:0:
448,192,212994,1,0,0:0:0:0:
64,192,213153,1,0,0:0:0:0:
448,192,213153,1,0,0:0:0:0:
320,192,213311,1,0,0:0:0:0:
192,192,213311,1,0,0:0:0:0:
64,192,213311,1,0,0:0:0:0:
192,192,213470,1,0,0:0:0:0:
448,192,213470,1,0,0:0:0:0:
320,192,213629,1,0,0:0:0:0:
448,192,213629,1,0,0:0:0:0:
64,192,213629,1,0,0:0:0:0:
192,192,213788,1,0,0:0:0:0:
320,192,213788,1,0,0:0:0:0:
192,192,213946,1,0,0:0:0:0:
64,192,213946,1,0,0:0:0:0:
448,192,213946,1,0,0:0:0:0:
320,192,214105,1,0,0:0:0:0:
64,192,214105,1,0,0:0:0:0:
192,192,214264,1,0,0:0:0:0:
320,192,214264,1,0,0:0:0:0:
448,192,214264,1,0,0:0:0:0:
64,192,214422,1,0,0:0:0:0:
448,192,214422,1,0,0:0:0:0:
320,192,214581,1,0,0:0:0:0:
192,192,214581,1,0,0:0:0:0:
64,192,214581,1,0,0:0:0:0:
192,192,214740,1,0,0:0:0:0:
448,192,214740,1,0,0:0:0:0:
320,192,214899,1,0,0:0:0:0:
192,192,214899,1,0,0:0:0:0:
64,192,215057,1,0,0:0:0:0:
320,192,215057,1,0,0:0:0:0:
448,192,215057,1,0,0:0:0:0:
448,192,215216,1,0,0:0:0:0:
192,192,215216,1,0,0:0:0:0:
320,192,215375,1,0,0:0:0:0:
192,192,215375,1,0,0:0:0:0:
64,192,215534,1,0,0:0:0:0:
448,192,215534,1,0,0:0:0:0:
320,192,215534,1,0,0:0:0:0:
192,192,215692,1,0,0:0:0:0:
448,192,215692,1,0,0:0:0:0:
320,192,215851,1,0,0:0:0:0:
192,192,215851,1,0,0:0:0:0:
64,192,215851,1,0,0:0:0:0:
64,192,216010,1,0,0:0:0:0:
448,192,216010,1,0,0:0:0:0:
192,192,216169,1,0,0:0:0:0:
320,192,216169,1,0,0:0:0:0:
448,192,216169,1,0,0:0:0:0:
64,192,216327,1,0,0:0:0:0:
320,192,216327,1,0,0:0:0:0:
192,192,216486,1,0,0:0:0:0:
320,192,216645,1,0,0:0:0:0:
448,192,216645,1,0,0:0:0:0:
320,192,216803,1,0,0:0:0:0:
448,192,216803,1,0,0:0:0:0:
320,192,216962,1,0,0:0:0:0:
448,192,216962,1,0,0:0:0:0:
320,192,217121,1,0,0:0:0:0:
448,192,217121,1,0,0:0:0:0:
320,192,217280,1,0,0:0:0:0:
448,192,217280,1,0,0:0:0:0:
64,192,217438,1,0,0:0:0:0:
320,192,217438,1,0,0:0:0:0:
448,192,217438,1,0,0:0:0:0:
192,192,217597,1,0,0:0:0:0:
320,192,217676,1,0,0:0:0:0:
64,192,217756,1,0,0:0:0:0:
192,192,217835,1,0,0:0:0:0:
448,192,217915,1,0,0:0:0:0:
320,192,217994,1,0,0:0:0:0:
192,192,218073,1,0,0:0:0:0:
64,192,218073,1,0,0:0:0:0:
448,192,218073,1,0,0:0:0:0:
320,192,218232,1,0,0:0:0:0:
448,192,218311,1,0,0:0:0:0:
64,192,218391,1,0,0:0:0:0:
192,192,218391,1,0,0:0:0:0:
320,192,218549,1,0,0:0:0:0:
64,192,218708,1,0,0:0:0:0:
448,192,218708,1,0,0:0:0:0:
320,192,218867,1,0,0:0:0:0:
64,192,218867,1,0,0:0:0:0:
192,192,219026,1,0,0:0:0:0:
320,192,219026,1,0,0:0:0:0:
448,192,219026,1,0,0:0:0:0:
64,192,219184,1,0,0:0:0:0:
448,192,219184,1,0,0:0:0:0:
320,192,219343,1,0,0:0:0:0:
192,192,219343,128,0,219661:0:0:0:0:
448,192,219502,1,0,0:0:0:0:
448,192,219661,1,0,0:0:0:0:
320,192,219661,1,0,0:0:0:0:
64,192,219661,1,0,0:0:0:0:
192,192,219819,1,0,0:0:0:0:
64,192,219819,1,0,0:0:0:0:
448,192,219978,1,0,0:0:0:0:
320,192,219978,1,0,0:0:0:0:
64,192,220137,1,0,0:0:0:0:
448,192,220137,1,0,0:0:0:0:
64,192,220296,1,0,0:0:0:0:
320,192,220296,1,0,0:0:0:0:
192,192,220296,128,0,220454:0:0:0:0:
448,192,220454,128,0,220613:0:0:0:0:
320,192,220613,128,0,220930:0:0:0:0:
64,192,220772,1,0,0:0:0:0:
64,192,220930,1,0,0:0:0:0:
448,192,220930,1,0,0:0:0:0:
192,192,220930,128,0,221248:0:0:0:0:
320,192,221089,1,0,0:0:0:0:
64,192,221248,1,0,0:0:0:0:
448,192,221248,1,0,0:0:0:0:
320,192,221407,1,0,0:0:0:0:
192,192,221407,1,0,0:0:0:0:
64,192,221565,1,0,0:0:0:0:
320,192,221565,1,0,0:0:0:0:
448,192,221565,1,0,0:0:0:0:
64,192,221724,1,0,0:0:0:0:
448,192,221724,1,0,0:0:0:0:
320,192,221883,1,0,0:0:0:0:
192,192,221883,128,0,222200:0:0:0:0:
448,192,222042,1,0,0:0:0:0:
320,192,222200,1,0,0:0:0:0:
448,192,222200,1,0,0:0:0:0:
64,192,222200,1,0,0:0:0:0:
192,192,222359,1,0,0:0:0:0:
320,192,222359,1,0,0:0:0:0:
448,192,222518,1,0,0:0:0:0:
64,192,222518,1,0,0:0:0:0:
192,192,222676,1,0,0:0:0:0:
320,192,222676,1,0,0:0:0:0:
320,192,222835,1,0,0:0:0:0:
64,192,222835,1,0,0:0:0:0:
448,192,222835,128,0,222994:0:0:0:0:
192,192,222994,128,0,223153:0:0:0:0:
320,192,223153,128,0,223470:0:0:0:0:
64,192,223311,1,0,0:0:0:0:
64,192,223470,1,0,0:0:0:0:
448,192,223470,1,0,0:0:0:0:
192,192,223470,128,0,223788:0:0:0:0:
448,192,223629,1,0,0:0:0:0:
64,192,223788,1,0,0:0:0:0:
448,192,223788,1,0,0:0:0:0:
320,192,223788,1,0,0:0:0:0:
192,192,223946,1,0,0:0:0:0:
320,192,223946,1,0,0:0:0:0:
64,192,224105,1,0,0:0:0:0:
448,192,224105,1,0,0:0:0:0:
192,192,224105,1,0,0:0:0:0:
320,192,224264,1,0,0:0:0:0:
64,192,224264,1,0,0:0:0:0:
192,192,224422,128,0,224740:0:0:0:0:
448,192,224422,1,0,0:0:0:0:
320,192,224581,1,0,0:0:0:0:
64,192,224740,1,0,0:0:0:0:
320,192,224740,1,0,0:0:0:0:
448,192,224740,1,0,0:0:0:0:
192,192,224899,1,0,0:0:0:0:
448,192,224899,1,0,0:0:0:0:
320,192,225057,1,0,0:0:0:0:
64,192,225057,1,0,0:0:0:0:
192,192,225216,1,0,0:0:0:0:
320,192,225216,1,0,0:0:0:0:
192,192,225375,1,0,0:0:0:0:
64,192,225375,1,0,0:0:0:0:
448,192,225375,128,0,225534:0:0:0:0:
320,192,225534,128,0,225692:0:0:0:0:
64,192,225692,128,0,226010:0:0:0:0:
192,192,225851,1,0,0:0:0:0:
192,192,226010,1,0,0:0:0:0:
320,192,226010,1,0,0:0:0:0:
448,192,226010,128,0,226327:0:0:0:0:
64,192,226169,1,0,0:0:0:0:
192,192,226327,1,0,0:0:0:0:
320,192,226327,1,0,0:0:0:0:
64,192,226407,1,0,0:0:0:0:
448,192,226486,1,0,0:0:0:0:
192,192,226565,1,0,0:0:0:0:
448,192,226645,1,0,0:0:0:0:
320,192,226645,1,0,0:0:0:0:
64,192,226645,1,0,0:0:0:0:
192,192,226724,1,0,0:0:0:0:
320,192,226803,1,0,0:0:0:0:
64,192,226883,1,0,0:0:0:0:
448,192,226962,1,0,0:0:0:0:
320,192,227042,1,0,0:0:0:0:
64,192,227121,1,0,0:0:0:0:
192,192,227200,1,0,0:0:0:0:
320,192,227280,1,0,0:0:0:0:
448,192,227280,1,0,0:0:0:0:
64,192,227280,1,0,0:0:0:0:
192,192,227359,1,0,0:0:0:0:
448,192,227438,1,0,0:0:0:0:
64,192,227518,1,0,0:0:0:0:
320,192,227597,1,0,0:0:0:0:
192,192,227676,1,0,0:0:0:0:
448,192,227756,1,0,0:0:0:0:
64,192,227835,1,0,0:0:0:0:
192,192,227915,1,0,0:0:0:0:
320,192,227915,1,0,0:0:0:0:
448,192,227915,1,0,0:0:0:0:
64,192,227994,1,0,0:0:0:0:
320,192,228073,1,0,0:0:0:0:
192,192,228153,1,0,0:0:0:0:
448,192,228232,1,0,0:0:0:0:
64,192,228311,1,0,0:0:0:0:
448,192,228391,1,0,0:0:0:0:
64,192,228470,1,0,0:0:0:0:
192,192,228549,1,0,0:0:0:0:
320,192,228629,1,0,0:0:0:0:
192,192,228708,1,0,0:0:0:0:
320,192,228788,1,0,0:0:0:0:
64,192,228867,1,0,0:0:0:0:
448,192,228867,1,0,0:0:0:0:
320,192,229026,1,0,0:0:0:0:
64,192,229026,1,0,0:0:0:0:
192,192,229184,1,0,0:0:0:0:
320,192,229184,1,0,0:0:0:0:
448,192,229184,1,0,0:0:0:0:
64,192,229343,1,0,0:0:0:0:
192,192,229343,1,0,0:0:0:0:
64,192,229502,1,0,0:0:0:0:
448,192,229502,128,0,229819:0:0:0:0:
192,192,229661,1,0,0:0:0:0:
320,192,229819,1,0,0:0:0:0:
192,192,229819,1,0,0:0:0:0:
64,192,229819,1,0,0:0:0:0:
64,192,229978,1,0,0:0:0:0:
448,192,229978,1,0,0:0:0:0:
320,192,230137,1,0,0:0:0:0:
192,192,230137,1,0,0:0:0:0:
64,192,230296,1,0,0:0:0:0:
320,192,230296,1,0,0:0:0:0:
192,192,230454,1,0,0:0:0:0:
64,192,230454,1,0,0:0:0:0:
448,192,230454,128,0,230613:0:0:0:0:
320,192,230613,128,0,230772:0:0:0:0:
64,192,230772,128,0,231089:0:0:0:0:
192,192,230930,1,0,0:0:0:0:
192,192,231089,1,0,0:0:0:0:
320,192,231089,1,0,0:0:0:0:
448,192,231089,128,0,231407:0:0:0:0:
64,192,231248,1,0,0:0:0:0:
320,192,231407,1,0,0:0:0:0:
192,192,231407,1,0,0:0:0:0:
64,192,231565,1,0,0:0:0:0:
320,192,231565,1,0,0:0:0:0:
192,192,231724,1,0,0:0:0:0:
448,192,231724,1,0,0:0:0:0:
64,192,231724,1,0,0:0:0:0:
192,192,231883,1,0,0:0:0:0:
320,192,231883,1,0,0:0:0:0:
64,192,232042,1,0,0:0:0:0:
448,192,232042,128,0,232359:0:0:0:0:
192,192,232200,1,0,0:0:0:0:
320,192,232359,1,0,0:0:0:0:
192,192,232359,1,0,0:0:0:0:
64,192,232359,1,0,0:0:0:0:
448,192,232518,1,0,0:0:0:0:
320,192,232518,1,0,0:0:0:0:
64,192,232676,1,0,0:0:0:0:
448,192,232676,1,0,0:0:0:0:
320,192,232835,1,0,0:0:0:0:
192,192,232835,1,0,0:0:0:0:
320,192,232994,1,0,0:0:0:0:
448,192,232994,1,0,0:0:0:0:
64,192,232994,128,0,233153:0:0:0:0:
192,192,233153,128,0,233311:0:0:0:0:
448,192,233311,128,0,233629:0:0:0:0:
64,192,233470,1,0,0:0:0:0:
64,192,233629,1,0,0:0:0:0:
320,192,233629,1,0,0:0:0:0:
192,192,233629,128,0,233946:0:0:0:0:
448,192,233788,1,0,0:0:0:0:
320,192,233946,1,0,0:0:0:0:
64,192,233946,1,0,0:0:0:0:
192,192,234105,1,0,0:0:0:0:
448,192,234105,1,0,0:0:0:0:
320,192,234264,1,0,0:0:0:0:
64,192,234264,1,0,0:0:0:0:
448,192,234264,1,0,0:0:0:0:
320,192,234422,1,0,0:0:0:0:
192,192,234422,1,0,0:0:0:0:
192,192,234581,1,0,0:0:0:0:
64,192,234581,128,0,234899:0:0:0:0:
448,192,234740,1,0,0:0:0:0:
192,192,234899,1,0,0:0:0:0:
320,192,234899,1,0,0:0:0:0:
448,192,234899,1,0,0:0:0:0:
320,192,235057,1,0,0:0:0:0:
64,192,235057,1,0,0:0:0:0:
192,192,235216,1,0,0:0:0:0:
448,192,235216,1,0,0:0:0:0:
320,192,235375,1,0,0:0:0:0:
192,192,235375,1,0,0:0:0:0:
320,192,235534,1,0,0:0:0:0:
448,192,235534,1,0,0:0:0:0:
64,192,235534,128,0,235692:0:0:0:0:
192,192,235692,128,0,235851:0:0:0:0:
448,192,235851,128,0,236169:0:0:0:0:
64,192,236010,1,0,0:0:0:0:
64,192,236169,1,0,0:0:0:0:
192,192,236169,128,0,236486:0:0:0:0:
320,192,236169,1,0,0:0:0:0:
448,192,236327,1,0,0:0:0:0:
320,192,236486,1,0,0:0:0:0:
64,192,236486,1,0,0:0:0:0:
448,192,236565,1,0,0:0:0:0:
192,192,236645,1,0,0:0:0:0:
320,192,236724,1,0,0:0:0:0:
64,192,236803,1,0,0:0:0:0:
192,192,236803,1,0,0:0:0:0:
448,192,236803,1,0,0:0:0:0:
320,192,236883,1,0,0:0:0:0:
64,192,236962,1,0,0:0:0:0:
448,192,237042,1,0,0:0:0:0:
320,192,237121,1,0,0:0:0:0:
192,192,237200,1,0,0:0:0:0:
448,192,237280,1,0,0:0:0:0:
64,192,237359,1,0,0:0:0:0:
192,192,237438,1,0,0:0:0:0:
320,192,237438,1,0,0:0:0:0:
448,192,237438,1,0,0:0:0:0:
64,192,237518,1,0,0:0:0:0:
320,192,237597,1,0,0:0:0:0:
192,192,237676,1,0,0:0:0:0:
448,192,237756,1,0,0:0:0:0:
320,192,237756,1,0,0:0:0:0:
64,192,237756,1,0,0:0:0:0:
192,192,237835,1,0,0:0:0:0:
448,192,237915,1,0,0:0:0:0:
320,192,237994,1,0,0:0:0:0:
64,192,238073,1,0,0:0:0:0:
448,192,238153,1,0,0:0:0:0:
64,192,238232,1,0,0:0:0:0:
448,192,238311,1,0,0:0:0:0:
320,192,238391,1,0,0:0:0:0:
64,192,238470,1,0,0:0:0:0:
320,192,238549,1,0,0:0:0:0:
64,192,238629,1,0,0:0:0:0:
192,192,238708,1,0,0:0:0:0:
320,192,238788,1,0,0:0:0:0:
192,192,238867,1,0,0:0:0:0:
320,192,238946,1,0,0:0:0:0:
192,192,239026,1,0,0:0:0:0:
64,192,239026,1,0,0:0:0:0:
448,192,239026,1,0,0:0:0:0:
320,192,239184,1,0,0:0:0:0:
64,192,239184,1,0,0:0:0:0:
192,192,239343,1,0,0:0:0:0:
320,192,239343,1,0,0:0:0:0:
64,192,239502,1,0,0:0:0:0:
448,192,239502,1,0,0:0:0:0:
192,192,239661,1,0,0:0:0:0:
320,192,239661,128,0,239978:0:0:0:0:
448,192,239661,1,0,0:0:0:0:
64,192,239819,1,0,0:0:0:0:
64,192,239978,1,0,0:0:0:0:
192,192,239978,1,0,0:0:0:0:
448,192,239978,1,0,0:0:0:0:
320,192,240137,1,0,0:0:0:0:
192,192,240137,1,0,0:0:0:0:
64,192,240296,1,0,0:0:0:0:
320,192,240296,1,0,0:0:0:0:
448,192,240296,1,0,0:0:0:0:
192,192,240454,1,0,0:0:0:0:
64,192,240454,1,0,0:0:0:0:
192,192,240613,1,0,0:0:0:0:
448,192,240613,1,0,0:0:0:0:
320,192,240613,128,0,240772:0:0:0:0:
64,192,240772,128,0,240930:0:0:0:0:
192,192,240930,128,0,241248:0:0:0:0:
448,192,241089,1,0,0:0:0:0:
64,192,241248,1,0,0:0:0:0:
448,192,241248,1,0,0:0:0:0:
320,192,241248,128,0,241565:0:0:0:0:
192,192,241407,1,0,0:0:0:0:
64,192,241565,1,0,0:0:0:0:
448,192,241565,1,0,0:0:0:0:
192,192,241565,1,0,0:0:0:0:
320,192,241724,1,0,0:0:0:0:
64,192,241724,1,0,0:0:0:0:
192,192,241883,1,0,0:0:0:0:
320,192,241883,1,0,0:0:0:0:
448,192,241883,1,0,0:0:0:0:
64,192,242042,1,0,0:0:0:0:
448,192,242042,1,0,0:0:0:0:
320,192,242200,1,0,0:0:0:0:
64,192,242200,1,0,0:0:0:0:
192,192,242200,128,0,242518:0:0:0:0:
448,192,242359,1,0,0:0:0:0:
320,192,242518,1,0,0:0:0:0:
448,192,242518,1,0,0:0:0:0:
64,192,242518,1,0,0:0:0:0:
192,192,242676,1,0,0:0:0:0:
320,192,242676,1,0,0:0:0:0:
192,192,242835,1,0,0:0:0:0:
448,192,242835,1,0,0:0:0:0:
64,192,242835,1,0,0:0:0:0:
320,192,242994,1,0,0:0:0:0:
64,192,242994,1,0,0:0:0:0:
192,192,243153,1,0,0:0:0:0:
320,192,243153,1,0,0:0:0:0:
448,192,243153,128,0,243311:0:0:0:0:
64,192,243311,128,0,243470:0:0:0:0:
320,192,243470,128,0,243788:0:0:0:0:
192,192,243629,1,0,0:0:0:0:
192,192,243788,1,0,0:0:0:0:
64,192,243788,128,0,244105:0:0:0:0:
448,192,243788,1,0,0:0:0:0:
320,192,243946,1,0,0:0:0:0:
192,192,244105,1,0,0:0:0:0:
320,192,244105,1,0,0:0:0:0:
448,192,244105,1,0,0:0:0:0:
448,192,244264,1,0,0:0:0:0:
64,192,244264,1,0,0:0:0:0:
320,192,244422,1,0,0:0:0:0:
192,192,244422,1,0,0:0:0:0:
64,192,244422,1,0,0:0:0:0:
192,192,244581,1,0,0:0:0:0:
448,192,244581,1,0,0:0:0:0:
448,192,244740,1,0,0:0:0:0:
64,192,244740,1,0,0:0:0:0:
320,192,244740,128,0,245057:0:0:0:0:
192,192,244899,1,0,0:0:0:0:
192,192,245057,1,0,0:0:0:0:
448,192,245057,1,0,0:0:0:0:
64,192,245057,1,0,0:0:0:0:
320,192,245216,1,0,0:0:0:0:
64,192,245216,1,0,0:0:0:0:
192,192,245375,1,0,0:0:0:0:
320,192,245375,1,0,0:0:0:0:
448,192,245375,1,0,0:0:0:0:
64,192,245534,1,0,0:0:0:0:
448,192,245534,1,0,0:0:0:0:
320,192,245692,1,0,0:0:0:0:
64,192,245692,1,0,0:0:0:0:
192,192,245692,128,0,245851:0:0:0:0:
448,192,245851,128,0,246010:0:0:0:0:
320,192,246010,128,0,246327:0:0:0:0:
64,192,246169,1,0,0:0:0:0:
64,192,246327,1,0,0:0:0:0:
192,192,246327,128,0,246645:0:0:0:0:
448,192,246327,1,0,0:0:0:0:
320,192,246486,1,0,0:0:0:0:
64,192,246645,1,0,0:0:0:0:
448,192,246645,1,0,0:0:0:0:
320,192,246724,1,0,0:0:0:0:
192,192,246803,1,0,0:0:0:0:
448,192,246883,1,0,0:0:0:0:
64,192,246962,1,0,0:0:0:0:
192,192,246962,1,0,0:0:0:0:
320,192,246962,1,0,0:0:0:0:
448,192,247042,1,0,0:0:0:0:
320,192,247121,1,0,0:0:0:0:
192,192,247200,1,0,0:0:0:0:
320,192,247280,1,0,0:0:0:0:
448,192,247280,1,0,0:0:0:0:
64,192,247280,1,0,0:0:0:0:
192,192,247359,1,0,0:0:0:0:
448,192,247438,1,0,0:0:0:0:
64,192,247518,1,0,0:0:0:0:
192,192,247597,1,0,0:0:0:0:
320,192,247597,1,0,0:0:0:0:
448,192,247597,1,0,0:0:0:0:
64,192,247676,1,0,0:0:0:0:
192,192,247756,1,0,0:0:0:0:
320,192,247835,1,0,0:0:0:0:
64,192,247915,1,0,0:0:0:0:
448,192,247915,1,0,0:0:0:0:
192,192,247915,1,0,0:0:0:0:
320,192,247994,1,0,0:0:0:0:
64,192,248073,1,0,0:0:0:0:
448,192,248153,1,0,0:0:0:0:
320,192,248232,1,0,0:0:0:0:
192,192,248232,1,0,0:0:0:0:
64,192,248232,1,0,0:0:0:0:
448,192,248311,1,0,0:0:0:0:
192,192,248391,1,0,0:0:0:0:
320,192,248470,1,0,0:0:0:0:
64,192,248549,1,0,0:0:0:0:
448,192,248629,1,0,0:0:0:0:
64,192,248708,1,0,0:0:0:0:
448,192,248788,1,0,0:0:0:0:
320,192,248867,1,0,0:0:0:0:
192,192,248946,1,0,0:0:0:0:
320,192,249026,1,0,0:0:0:0:
192,192,249105,1,0,0:0:0:0:
64,192,249184,1,0,0:0:0:0:
320,192,249184,1,0,0:0:0:0:
448,192,249184,1,0,0:0:0:0:
192,192,249343,1,0,0:0:0:0:
448,192,249343,1,0,0:0:0:0:
320,192,249502,1,0,0:0:0:0:
192,192,249502,1,0,0:0:0:0:
64,192,249502,1,0,0:0:0:0:
64,192,249661,1,0,0:0:0:0:
448,192,249661,1,0,0:0:0:0:
448,192,249819,1,0,0:0:0:0:
192,192,249819,1,0,0:0:0:0:
320,192,249819,128,0,250137:0:0:0:0:
64,192,249978,1,0,0:0:0:0:
192,192,250137,1,0,0:0:0:0:
64,192,250137,1,0,0:0:0:0:
448,192,250137,1,0,0:0:0:0:
320,192,250296,1,0,0:0:0:0:
192,192,250296,1,0,0:0:0:0:
64,192,250454,1,0,0:0:0:0:
320,192,250454,1,0,0:0:0:0:
448,192,250454,1,0,0:0:0:0:
192,192,250613,1,0,0:0:0:0:
448,192,250613,1,0,0:0:0:0:
320,192,250772,1,0,0:0:0:0:
192,192,250772,1,0,0:0:0:0:
64,192,250772,128,0,250930:0:0:0:0:
448,192,250930,128,0,251089:0:0:0:0:
192,192,251089,128,0,251407:0:0:0:0:
320,192,251248,1,0,0:0:0:0:
64,192,251407,1,0,0:0:0:0:
320,192,251407,1,0,0:0:0:0:
448,192,251407,128,0,251724:0:0:0:0:
192,192,251565,1,0,0:0:0:0:
64,192,251724,1,0,0:0:0:0:
320,192,251724,1,0,0:0:0:0:
192,192,251724,1,0,0:0:0:0:
320,192,251883,1,0,0:0:0:0:
448,192,251883,1,0,0:0:0:0:
64,192,252042,1,0,0:0:0:0:
192,192,252042,1,0,0:0:0:0:
448,192,252042,1,0,0:0:0:0:
320,192,252200,1,0,0:0:0:0:
192,192,252200,1,0,0:0:0:0:
448,192,252359,1,0,0:0:0:0:
64,192,252359,128,0,252676:0:0:0:0:
192,192,252359,1,0,0:0:0:0:
320,192,252518,1,0,0:0:0:0:
192,192,252676,1,0,0:0:0:0:
320,192,252676,1,0,0:0:0:0:
448,192,252676,1,0,0:0:0:0:
192,192,252835,1,0,0:0:0:0:
64,192,252835,1,0,0:0:0:0:
448,192,252994,1,0,0:0:0:0:
64,192,252994,1,0,0:0:0:0:
320,192,252994,1,0,0:0:0:0:
192,192,253153,1,0,0:0:0:0:
320,192,253153,1,0,0:0:0:0:
192,192,253311,1,0,0:0:0:0:
64,192,253311,1,0,0:0:0:0:
448,192,253311,128,0,253470:0:0:0:0:
320,192,253470,128,0,253629:0:0:0:0:
64,192,253629,128,0,253946:0:0:0:0:
448,192,253788,1,0,0:0:0:0:
448,192,253946,1,0,0:0:0:0:
192,192,253946,1,0,0:0:0:0:
320,192,253946,128,0,254264:0:0:0:0:
64,192,254105,1,0,0:0:0:0:
192,192,254264,1,0,0:0:0:0:
448,192,254264,1,0,0:0:0:0:
64,192,254264,1,0,0:0:0:0:
320,192,254422,1,0,0:0:0:0:
192,192,254422,1,0,0:0:0:0:
64,192,254581,1,0,0:0:0:0:
448,192,254581,1,0,0:0:0:0:
320,192,254581,1,0,0:0:0:0:
192,192,254740,1,0,0:0:0:0:
448,192,254740,1,0,0:0:0:0:
320,192,254899,1,0,0:0:0:0:
192,192,254899,1,0,0:0:0:0:
64,192,254899,128,0,255216:0:0:0:0:
448,192,255057,1,0,0:0:0:0:
192,192,255216,1,0,0:0:0:0:
320,192,255216,1,0,0:0:0:0:
448,192,255216,1,0,0:0:0:0:
320,192,255375,1,0,0:0:0:0:
64,192,255375,1,0,0:0:0:0:
192,192,255534,1,0,0:0:0:0:
64,192,255534,1,0,0:0:0:0:
448,192,255534,1,0,0:0:0:0:
320,192,255692,1,0,0:0:0:0:
192,192,255692,1,0,0:0:0:0:
320,192,255851,1,0,0:0:0:0:
448,192,255851,1,0,0:0:0:0:
64,192,255851,128,0,256010:0:0:0:0:
192,192,256010,128,0,256169:0:0:0:0:
448,192,256169,128,0,256486:0:0:0:0:
64,192,256327,1,0,0:0:0:0:
64,192,256486,1,0,0:0:0:0:
320,192,256486,1,0,0:0:0:0:
192,192,256486,128,0,256803:0:0:0:0:
448,192,256645,1,0,0:0:0:0:
64,192,256803,1,0,0:0:0:0:
448,192,256883,1,0,0:0:0:0:
320,192,256962,1,0,0:0:0:0:
64,192,257042,1,0,0:0:0:0:
192,192,257121,1,0,0:0:0:0:
320,192,257121,1,0,0:0:0:0:
64,192,257200,1,0,0:0:0:0:
448,192,257200,1,0,0:0:0:0:
320,192,257280,1,0,0:0:0:0:
192,192,257280,1,0,0:0:0:0:
448,192,257359,1,0,0:0:0:0:
64,192,257438,1,0,0:0:0:0:
320,192,257518,1,0,0:0:0:0:
192,192,257597,1,0,0:0:0:0:
64,192,257676,1,0,0:0:0:0:
320,192,257756,1,0,0:0:0:0:
448,192,257835,1,0,0:0:0:0:
320,192,257915,1,0,0:0:0:0:
192,192,257994,1,0,0:0:0:0:
448,192,258073,1,0,0:0:0:0:
64,192,258073,1,0,0:0:0:0:
320,192,258073,1,0,0:0:0:0:
192,192,258153,1,0,0:0:0:0:
64,192,258232,1,0,0:0:0:0:
448,192,258311,1,0,0:0:0:0:
192,192,258391,1,0,0:0:0:0:
320,192,258470,1,0,0:0:0:0:
192,192,258549,1,0,0:0:0:0:
64,192,258629,1,0,0:0:0:0:
320,192,258708,1,0,0:0:0:0:
448,192,258708,1,0,0:0:0:0:
192,192,258708,1,0,0:0:0:0:
64,192,259026,1,0,0:0:0:0:
320,192,259026,1,0,0:0:0:0:
448,192,259026,1,0,0:0:0:0:
320,192,259343,1,0,0:0:0:0:
192,192,259343,1,0,0:0:0:0:
64,192,259343,1,0,0:0:0:0:
