osu file format v14

[General]
AudioFilename: audio.mp3
AudioLeadIn: 0
PreviewTime: 167
Countdown: 0
SampleSet: Soft
StackLeniency: 0.7
Mode: 2
LetterboxInBreaks: 0
WidescreenStoryboard: 0

[Editor]
DistanceSpacing: 1.5
BeatDivisor: 4
GridSize: 16
TimelineZoom: 2.172261

[Metadata]
Title:Rextep.mp3
TitleUnicode:Rextep.mp3
Artist:Amlink
ArtistUnicode:Amlink
Creator:ExGon
Version:MixGon
Source:
Tags:
BeatmapID:1269289
BeatmapSetID:600715

[Difficulty]
HPDrainRate:3
CircleSize:4.6
OverallDifficulty:9
ApproachRate:9
SliderMultiplier:2.56
SliderTickRate:0.5

[Events]
//Background and Video events
0,0,"rextep.png",0,0
//Break Periods
2,10194,11495
2,46840,48140
//Storyboard Layer 0 (Background)
//Storyboard Layer 1 (Fail)
//Storyboard Layer 2 (Pass)
//Storyboard Layer 3 (Foreground)
//Storyboard Sound Samples

[TimingPoints]
245,600,4,2,0,40,1,0
245,-50,4,2,0,40,0,0
13745,-25,4,2,0,40,0,0
13845,-25,4,2,0,40,0,0
14195,-100,4,2,0,40,0,0
15395,-33.3333333333333,4,2,0,40,0,0
16745,-50,4,2,0,40,0,0
18245,-25,4,2,0,40,0,0
18545,-50,4,2,0,40,0,0
18845,-100,4,2,0,40,0,0
19745,-50,4,2,0,40,0,1
20195,-33.3333333333333,4,2,0,40,0,0
21245,-50,4,2,0,40,0,0
26090,600,4,2,0,40,1,0
26690,-66.6666666666667,4,2,0,40,0,0
27140,-33.3333333333333,4,2,0,40,0,0
27290,600,4,2,0,40,1,0
27290,-50,4,2,0,40,0,0
29690,-100,4,2,0,40,0,0
30590,-50,4,2,0,40,0,0
33890,9.375,4,2,0,40,1,0
33890,-400,4,2,0,40,0,0
34490,600,4,2,0,40,1,0
34490,-50,4,2,0,40,0,0
34940,9.375,4,2,0,40,1,0
34940,-400,4,2,0,40,0,0
35090,600,4,2,0,40,1,0
35090,-50,4,2,0,40,0,0
36890,600,4,2,0,40,1,0
36890,-50,4,2,0,40,0,0
42665,-25,4,2,0,40,0,0
42890,-50,4,2,0,40,0,0
46490,-50,4,2,0,40,0,1
48740,-100,4,2,0,40,0,1
48890,-80,4,2,0,40,0,1
49190,-66.6666666666667,4,2,0,40,0,1
49490,-57.1428571428571,4,2,0,40,0,1
49940,-50,4,2,0,40,0,1
50390,-18.1818181818182,4,2,0,40,0,1
50840,-100,4,2,0,40,0,1
51365,-50,4,2,0,40,0,1
52040,-33.3333333333333,4,2,0,40,0,1
53390,-50,4,2,0,40,0,1
56352,-50,4,2,0,40,0,0
56390,-50,4,2,0,40,0,1
56840,-33.3333333333333,4,2,0,40,0,1
57890,-50,4,2,0,40,0,1
62540,-6.25,4,2,0,40,0,1
62990,-6.25,4,2,0,40,0,0

[Colours]
Combo1 : 192,192,192
Combo2 : 255,255,255

[HitObjects]
112,100,242,5,0,0:0:0:0:
32,176,395,1,0,0:0:0:0:
192,32,545,6,0,B|192:159|320:159|320:32,1,256
352,256,995,2,0,B|288:154|224:154|160:256,1,256
128,320,1445,2,0,L|384:320,1,256
256,192,1745,12,0,1746,0:0:0:0:
256,192,1745,12,0,1746,0:0:0:0:
256,192,1745,12,0,1746,0:0:0:0:
256,192,1745,12,0,1746,0:0:0:0:
256,192,1745,12,0,1746,0:0:0:0:
256,192,1745,12,0,1746,0:0:0:0:
256,192,1745,12,0,1746,0:0:0:0:
256,192,1745,12,0,1746,0:0:0:0:
256,192,1745,12,0,1746,0:0:0:0:
256,192,1745,12,0,1746,0:0:0:0:
256,192,1745,12,0,1746,0:0:0:0:
256,192,1745,12,0,1746,0:0:0:0:
256,192,1745,12,0,1746,0:0:0:0:
256,192,1745,12,0,1746,0:0:0:0:
256,192,1745,12,0,1746,0:0:0:0:
256,192,1745,12,0,1746,0:0:0:0:
256,192,1745,12,0,1746,0:0:0:0:
256,192,1745,12,0,1746,0:0:0:0:
256,192,1745,12,0,1746,0:0:0:0:
256,192,1745,12,0,1746,0:0:0:0:
256,192,1745,12,0,1746,0:0:0:0:
256,192,1745,12,0,1746,0:0:0:0:
256,192,1745,12,0,1746,0:0:0:0:
256,192,1745,12,0,1746,0:0:0:0:
256,192,1745,12,0,1746,0:0:0:0:
256,192,1745,12,0,1746,0:0:0:0:
256,192,1745,12,0,1746,0:0:0:0:
256,192,1745,12,0,1746,0:0:0:0:
256,192,1745,12,0,1746,0:0:0:0:
256,192,1745,12,0,1746,0:0:0:0:
256,192,1745,12,0,1746,0:0:0:0:
256,192,1745,12,0,1746,0:0:0:0:
256,32,1895,6,0,B|256:160|256:160|256:32,1,256
414,299,2345,5,0,0:0:0:0:
465,207,2495,1,0,0:0:0:0:
98,299,2645,1,0,0:0:0:0:
47,207,2795,1,0,0:0:0:0:
207,139,2945,6,0,P|175:96|108:107,1,128
305,139,3395,2,0,P|336:96|403:107,1,128
281,197,3845,5,0,0:0:0:0:
29,178,3995,2,0,P|34:284|187:334,1,256
231,197,4445,1,0,0:0:0:0:
483,178,4595,1,0,0:0:0:0:
467,298,4745,1,0,0:0:0:0:
353,343,4895,1,0,0:0:0:0:
416,336,4970,1,0,0:0:0:0:
227,220,5045,5,0,0:0:0:0:
348,125,5345,5,0,0:0:0:0:
285,166,5495,1,0,0:0:0:0:
130,255,5645,2,0,B|256:279|256:279|381:255,1,256
227,166,6020,1,0,0:0:0:0:
164,125,6095,1,0,0:0:0:0:
400,192,6245,6,0,B|496:192|496:192|464:192,2,128
256,144,6695,2,0,P|163:192|256:240,1,256
432,192,7145,2,0,B|496:192|496:192|432:192,1,128
27,97,7445,6,0,B|9:97|6:105|6:105|21:111|21:111|18:118|0:120,1,64
188,61,7745,2,0,B|170:61|167:53|167:53|182:47|182:47|179:40|161:38,1,64
350,142,8045,2,0,B|332:142|329:150|329:150|344:156|344:156|341:163|323:165,2,64
139,175,8495,6,0,L|153:236,2,64
216,315,8795,1,0,0:0:0:0:
372,175,8945,2,0,L|358:236,2,64
296,315,9245,1,0,0:0:0:0:
81,232,9395,6,0,L|43:181,2,64
256,251,9695,1,0,0:0:0:0:
431,232,9845,2,0,L|469:181,2,64
256,192,11495,12,0,11496,0:0:0:0:
256,192,11495,12,0,11496,0:0:0:0:
256,192,11495,12,0,11496,0:0:0:0:
256,192,11495,12,0,11496,0:0:0:0:
256,192,11495,12,0,11496,0:0:0:0:
256,192,11495,12,0,11496,0:0:0:0:
256,192,11495,12,0,11496,0:0:0:0:
256,192,11495,12,0,11496,0:0:0:0:
256,192,11495,12,0,11496,0:0:0:0:
256,192,11495,12,0,11496,0:0:0:0:
256,192,11495,12,0,11496,0:0:0:0:
256,192,11495,12,0,11496,0:0:0:0:
256,192,11495,12,0,11496,0:0:0:0:
256,192,11495,12,0,11496,0:0:0:0:
256,192,11495,12,0,11496,0:0:0:0:
256,192,11495,12,0,11496,0:0:0:0:
256,192,11495,12,0,11496,0:0:0:0:
256,192,11495,12,0,11496,0:0:0:0:
256,192,11495,12,0,11496,0:0:0:0:
256,192,11495,12,0,11496,0:0:0:0:
256,192,11495,12,0,11496,0:0:0:0:
256,192,11495,12,0,11496,0:0:0:0:
256,192,11495,12,0,11496,0:0:0:0:
256,192,11495,12,0,11496,0:0:0:0:
256,192,11495,12,0,11496,0:0:0:0:
256,192,11495,12,0,11496,0:0:0:0:
256,192,11495,12,0,11496,0:0:0:0:
256,192,11495,12,0,11496,0:0:0:0:
256,192,11495,12,0,11496,0:0:0:0:
256,192,11495,12,0,11496,0:0:0:0:
256,192,11495,12,0,11496,0:0:0:0:
256,192,11495,12,0,11496,0:0:0:0:
248,319,12095,5,0,0:0:0:0:
264,319,12170,1,0,0:0:0:0:
280,384,12245,1,0,0:0:0:0:
232,384,12395,1,0,0:0:0:0:
304,288,12545,1,0,0:0:0:0:
207,288,12695,1,0,0:0:0:0:
385,67,12845,6,0,P|288:-11|164:0,1,256
216,225,13295,2,0,P|353:158|385:67,1,256
165,0,13745,2,0,P|155:152|216:225,2,256
469,230,14195,6,0,L|406:240,1,64
43,230,14495,2,0,L|105:240,1,64
256,96,14720,5,0,0:0:0:0:
256,96,14795,5,0,0:0:0:0:
96,160,15095,5,0,0:0:0:0:
32,192,15245,1,0,0:0:0:0:
96,224,15395,2,0,P|256:313|416:224,1,384.000014648438
480,192,15770,1,0,0:0:0:0:
416,160,15845,1,0,0:0:0:0:
88,74,15957,6,0,L|52:105,1,48.0000018310548
256,320,16145,2,0,B|256:224|256:224|256:320,2,192.000007324219
424,74,16595,2,0,L|460:105,1,48.0000018310548
512,288,16745,5,0,0:0:0:0:
256,192,16895,2,0,B|194:175|194:175|333:212|333:212|209:179|209:179|317:208|317:208|225:183|225:183|256:192,1,576
256,192,17045,1,0,0:0:0:0:
256,192,17232,1,0,0:0:0:0:
256,192,17345,1,0,0:0:0:0:
256,192,17495,1,0,0:0:0:0:
48,288,17795,1,0,0:0:0:0:
24,288,17870,1,0,0:0:0:0:
0,288,17945,1,0,0:0:0:0:
407,62,18245,6,0,B|342:48|338:51|330:124,2,128
105,62,18545,2,0,B|169:48|173:51|181:124,1,128
80,288,18845,6,0,B|58:225|61:221|133:204,1,128
432,288,19295,2,0,B|453:225|450:221|379:204,1,128
0,64,19745,6,0,B|-15:64|-15:64|0:64,11,32
0,64,20195,2,0,B|45:25|90:100|135:64|135:64|90:25|45:100|0:64|0:64|45:25|90:100|135:64|135:64|90:25|45:100|0:64,1,576.000021972657
256,128,20795,1,0,0:0:0:0:
448,192,20945,1,0,0:0:0:0:
216,242,21395,1,0,0:0:0:0:
103,205,21545,1,0,0:0:0:0:
160,324,21845,5,0,0:0:0:0:
411,141,21995,1,0,0:0:0:0:
100,141,22145,1,0,0:0:0:0:
351,324,22295,1,0,0:0:0:0:
256,28,22445,1,0,0:0:0:0:
204,260,23195,6,0,B|256:302|311:268|332:209|256:192|256:192|179:174|200:115|256:81|307:123,1,384
140,78,23795,6,0,B|95:37|95:37|97:37,2,64
372,306,24095,2,0,B|417:347|417:347|415:347,2,64
256,192,24282,12,0,25445,0:0:0:0:
48,186,26090,6,0,P|137:218|178:300,1,192
333,301,26690,2,0,P|375:217|464:186,1,192
256,96,27065,5,0,0:0:0:0:
192,160,27140,2,0,P|256:218|320:160,1,192.000007324219
256,192,28340,5,0,0:0:0:0:
256,192,28340,5,0,0:0:0:0:
256,192,28340,5,0,0:0:0:0:
256,192,28340,5,0,0:0:0:0:
256,192,28340,5,0,0:0:0:0:
256,192,28340,5,0,0:0:0:0:
256,192,28340,5,0,0:0:0:0:
256,192,28340,5,0,0:0:0:0:
256,192,28340,5,0,0:0:0:0:
256,192,28340,5,0,0:0:0:0:
256,192,28340,5,0,0:0:0:0:
256,192,28340,5,0,0:0:0:0:
256,192,28340,5,0,0:0:0:0:
256,192,28340,5,0,0:0:0:0:
256,192,28340,5,0,0:0:0:0:
256,192,28340,5,0,0:0:0:0:
256,192,28340,5,0,0:0:0:0:
256,192,28340,5,0,0:0:0:0:
256,192,28340,5,0,0:0:0:0:
256,192,28340,5,0,0:0:0:0:
256,192,28340,5,0,0:0:0:0:
256,192,28340,5,0,0:0:0:0:
256,192,28340,5,0,0:0:0:0:
256,192,28340,5,0,0:0:0:0:
256,192,28340,5,0,0:0:0:0:
256,192,28340,5,0,0:0:0:0:
256,192,28340,5,0,0:0:0:0:
256,192,28340,5,0,0:0:0:0:
256,192,28340,5,0,0:0:0:0:
256,192,28340,5,0,0:0:0:0:
256,192,28340,5,0,0:0:0:0:
256,192,28340,5,0,0:0:0:0:
256,192,28340,5,0,0:0:0:0:
256,192,28340,5,0,0:0:0:0:
256,192,28340,5,0,0:0:0:0:
256,192,28340,5,0,0:0:0:0:
256,192,28340,5,0,0:0:0:0:
256,192,28340,5,0,0:0:0:0:
256,192,28340,5,0,0:0:0:0:
256,192,28340,5,0,0:0:0:0:
256,192,28340,5,0,0:0:0:0:
256,192,28340,5,0,0:0:0:0:
256,192,28340,5,0,0:0:0:0:
256,192,28340,5,0,0:0:0:0:
256,192,28340,5,0,0:0:0:0:
256,192,28340,5,0,0:0:0:0:
256,192,28340,5,0,0:0:0:0:
256,192,28340,5,0,0:0:0:0:
256,192,28340,5,0,0:0:0:0:
256,192,28340,5,0,0:0:0:0:
256,192,28340,5,0,0:0:0:0:
256,192,28340,5,0,0:0:0:0:
256,192,28340,5,0,0:0:0:0:
256,192,28340,5,0,0:0:0:0:
256,192,28340,5,0,0:0:0:0:
256,192,28340,5,0,0:0:0:0:
256,192,28340,5,0,0:0:0:0:
256,192,28340,5,0,0:0:0:0:
256,192,28340,5,0,0:0:0:0:
256,192,28340,5,0,0:0:0:0:
256,192,28340,5,0,0:0:0:0:
256,192,28340,5,0,0:0:0:0:
256,192,28340,5,0,0:0:0:0:
256,192,28340,5,0,0:0:0:0:
128,0,29390,5,0,0:0:0:0:
272,224,29540,1,0,0:0:0:0:
64,68,29690,2,0,B|120:96|120:96|64:124,1,128
256,288,30140,5,0,0:0:0:0:
256,96,30290,1,0,0:0:0:0:
96,192,30440,1,0,0:0:0:0:
320,160,30590,6,0,L|320:32,1,128
448,68,30890,2,0,B|392:96|392:96|448:124,1,128
44,299,31190,5,0,0:0:0:0:
240,224,31415,5,0,0:0:0:0:
192,160,31490,2,0,L|192:32,1,128
416,192,31940,5,0,0:0:0:0:
384,0,32090,1,0,0:0:0:0:
73,348,32240,6,0,P|18:331|36:277,1,128
439,348,32690,2,0,P|494:331|476:277,1,128
255,90,32990,6,0,L|133:128,1,128
337,244,33290,2,0,L|367:120,1,128
162,239,33590,2,0,L|257:326,1,128
256,192,33890,6,0,B|0:192|0:192|0:0|0:0|0:384|0:384|0:192|0:192|256:192|256:192|256:0|256:0|256:384|256:384|256:192|256:192|512:192|512:192|512:0|512:0|512:384|512:384|512:192|512:192|256:192|256:192|256:0|256:0|256:384|256:384|256:192,1,4096
512,192,34340,5,0,0:0:0:0:
256,192,34640,5,0,0:0:0:0:
0,192,34827,5,0,0:0:0:0:
176,0,34940,6,0,B|256:-505|256:-505|336:0,1,1024
336,384,35090,6,0,B|256:483|256:483|176:384,1,256
256,384,35540,1,0,0:0:0:0:
418,301,35690,6,0,P|412:242|363:198,1,128
256,64,35990,2,0,L|256:192,1,128
94,301,36290,2,0,P|99:242|148:198,1,128
400,288,36590,5,0,0:0:0:0:
188,76,36890,6,0,L|61:83,1,128
324,76,37190,2,0,L|450:83,1,128
112,288,37490,5,0,0:0:0:0:
240,160,37640,1,0,0:0:0:0:
272,160,37790,1,0,0:0:0:0:
48,256,37940,5,0,0:0:0:0:
192,208,38090,1,0,0:0:0:0:
224,208,38240,1,0,0:0:0:0:
464,272,38390,5,0,0:0:0:0:
256,192,38390,12,0,38391,0:0:0:0:
256,192,38390,12,0,38391,0:0:0:0:
256,192,38390,12,0,38391,0:0:0:0:
256,192,38390,12,0,38391,0:0:0:0:
256,192,38390,12,0,38391,0:0:0:0:
256,192,38390,12,0,38391,0:0:0:0:
256,192,38390,12,0,38391,0:0:0:0:
256,192,38390,12,0,38391,0:0:0:0:
256,192,38390,12,0,38391,0:0:0:0:
256,192,38390,12,0,38391,0:0:0:0:
256,192,38390,12,0,38391,0:0:0:0:
256,192,38390,12,0,38391,0:0:0:0:
256,192,38390,12,0,38391,0:0:0:0:
256,192,38390,12,0,38391,0:0:0:0:
256,192,38390,12,0,38391,0:0:0:0:
256,192,38390,12,0,38391,0:0:0:0:
256,192,38390,12,0,38391,0:0:0:0:
256,192,38390,12,0,38391,0:0:0:0:
256,192,38390,12,0,38391,0:0:0:0:
256,192,38390,12,0,38391,0:0:0:0:
256,192,38390,12,0,38391,0:0:0:0:
256,192,38390,12,0,38391,0:0:0:0:
256,192,38390,12,0,38391,0:0:0:0:
256,192,38390,12,0,38391,0:0:0:0:
256,192,38390,12,0,38391,0:0:0:0:
256,192,38390,12,0,38391,0:0:0:0:
256,192,38390,12,0,38391,0:0:0:0:
256,192,38390,12,0,38391,0:0:0:0:
256,192,38390,12,0,38391,0:0:0:0:
256,192,38390,12,0,38391,0:0:0:0:
256,192,38390,12,0,38391,0:0:0:0:
256,192,38390,12,0,38391,0:0:0:0:
320,208,38540,5,0,0:0:0:0:
288,208,38690,1,0,0:0:0:0:
170,90,38990,6,0,B|129:121|129:121|112:195,1,128
256,304,39290,2,0,L|256:176,1,128
399,195,39590,2,0,B|382:121|382:121|341:90,1,128
157,343,40040,5,0,0:0:0:0:
354,343,40190,1,0,0:0:0:0:
231,197,40490,5,0,0:0:0:0:
483,178,40640,2,0,P|478:284|325:334,1,256
468,299,40790,1,0,0:0:0:0:
281,197,41090,1,0,0:0:0:0:
29,178,41240,1,0,0:0:0:0:
45,298,41390,1,0,0:0:0:0:
159,343,41540,1,0,0:0:0:0:
96,336,41615,1,0,0:0:0:0:
285,220,41690,5,0,0:0:0:0:
192,287,41990,6,0,L|141:169,1,128
305,309,42290,2,0,L|205:73,1,256
369,213,42665,2,0,L|318:95,1,128
80,192,42890,6,0,B|16:192|16:192|80:192,2,128
256,144,43340,2,0,P|349:192|256:240,1,256
112,192,43790,2,0,B|16:192|16:192|48:192,1,128
485,97,44090,6,0,B|503:97|506:105|506:105|491:111|491:111|494:118|512:120,1,64
324,61,44390,2,0,B|342:61|345:53|345:53|330:47|330:47|333:40|351:38,1,64
162,142,44690,2,0,B|180:142|183:150|183:150|168:156|168:156|171:163|189:165,2,64
384,272,45140,5,0,0:0:0:0:
448,288,45215,1,0,0:0:0:0:
511,272,45290,1,0,0:0:0:0:
227,360,45440,5,0,0:0:0:0:
256,112,45590,1,0,0:0:0:0:
320,96,45665,1,0,0:0:0:0:
384,112,45740,1,0,0:0:0:0:
256,192,45890,1,0,0:0:0:0:
128,112,46040,1,0,0:0:0:0:
192,96,46115,1,0,0:0:0:0:
256,112,46190,1,0,0:0:0:0:
285,23,46340,5,0,0:0:0:0:
0,272,46490,1,0,0:0:0:0:
64,288,46565,1,0,0:0:0:0:
128,272,46640,1,0,0:0:0:0:
256,192,48140,12,0,48141,0:0:0:0:
256,192,48140,12,0,48141,0:0:0:0:
256,192,48140,12,0,48141,0:0:0:0:
256,192,48140,12,0,48141,0:0:0:0:
256,192,48140,12,0,48141,0:0:0:0:
256,192,48140,12,0,48141,0:0:0:0:
256,192,48140,12,0,48141,0:0:0:0:
256,192,48140,12,0,48141,0:0:0:0:
256,192,48140,12,0,48141,0:0:0:0:
256,192,48140,12,0,48141,0:0:0:0:
256,192,48140,12,0,48141,0:0:0:0:
256,192,48140,12,0,48141,0:0:0:0:
256,192,48140,12,0,48141,0:0:0:0:
256,192,48140,12,0,48141,0:0:0:0:
256,192,48140,12,0,48141,0:0:0:0:
256,192,48140,12,0,48141,0:0:0:0:
256,192,48140,12,0,48141,0:0:0:0:
256,192,48140,12,0,48141,0:0:0:0:
256,192,48140,12,0,48141,0:0:0:0:
256,192,48140,12,0,48141,0:0:0:0:
256,192,48140,12,0,48141,0:0:0:0:
256,192,48140,12,0,48141,0:0:0:0:
256,192,48140,12,0,48141,0:0:0:0:
256,192,48140,12,0,48141,0:0:0:0:
256,192,48140,12,0,48141,0:0:0:0:
256,192,48140,12,0,48141,0:0:0:0:
256,192,48140,12,0,48141,0:0:0:0:
256,192,48140,12,0,48141,0:0:0:0:
256,192,48140,12,0,48141,0:0:0:0:
256,192,48140,12,0,48141,0:0:0:0:
256,192,48140,12,0,48141,0:0:0:0:
256,192,48140,12,0,48141,0:0:0:0:
272,72,48740,6,0,L|240:72,1,32
295,120,48890,6,0,L|216:120,1,80
303,168,49190,2,0,L|208:168,1,96.0000036621095
367,216,49490,6,0,L|144:216,1,224.00000213623
383,264,49940,2,0,L|128:264,1,256
430,312,50390,6,0,L|79:312,2,352.000003356934
324,161,50840,6,0,P|337:187|330:219,1,64
188,223,51140,2,0,P|175:197|182:165,1,64
287,260,51365,6,0,P|261:273|229:266,1,64
416,224,51740,5,0,0:0:0:0:
352,192,51890,1,0,0:0:0:0:
416,160,52040,2,0,P|256:71|96:160,1,384.000014648438
160,192,52415,1,0,0:0:0:0:
96,224,52490,1,0,0:0:0:0:
424,310,52602,6,0,L|460:279,1,48.0000018310548
256,64,52790,2,0,B|256:160|256:160|256:64,2,192.000007324219
88,310,53240,2,0,L|52:279,1,48.0000018310548
0,96,53390,5,0,0:0:0:0:
256,192,53540,2,0,B|317:175|317:175|178:212|178:212|302:179|302:179|194:208|194:208|286:183|286:183|256:192,1,576
256,192,53690,1,0,0:0:0:0:
256,192,53877,1,0,0:0:0:0:
256,192,53990,1,0,0:0:0:0:
256,192,54140,1,0,0:0:0:0:
464,288,54440,1,0,0:0:0:0:
488,288,54515,1,0,0:0:0:0:
512,288,54590,1,0,0:0:0:0:
155,120,54890,5,0,0:0:0:0:
256,192,54965,1,0,0:0:0:0:
453,343,55040,1,0,0:0:0:0:
352,268,55190,1,0,0:0:0:0:
55,45,55340,1,0,0:0:0:0:
160,240,55490,6,0,B|160:335|224:367|288:335|288:240,1,256
352,144,55940,2,0,B|352:48|288:16|224:48|224:144,1,256
512,320,56390,6,0,B|527:320|527:320|512:320,11,32
512,320,56840,2,0,B|467:359|422:284|377:320|377:320|422:359|467:284|512:320|512:320|467:359|422:284|377:320|377:320|422:359|467:284|512:320,1,576.000021972657
256,256,57440,1,0,0:0:0:0:
64,192,57590,1,0,0:0:0:0:
295,242,58040,1,0,0:0:0:0:
408,205,58190,1,0,0:0:0:0:
352,60,58490,5,0,0:0:0:0:
100,243,58640,1,0,0:0:0:0:
411,243,58790,1,0,0:0:0:0:
160,60,58940,1,0,0:0:0:0:
255,356,59090,1,0,0:0:0:0:
307,260,59840,6,0,B|256:302|200:268|179:209|256:192|256:192|332:174|311:115|256:81|204:123,1,384
372,78,60440,6,0,B|417:37|417:37|415:37,2,64
140,306,60740,2,0,B|95:347|95:347|97:347,2,64
256,192,60927,12,0,62090,0:0:0:0:
91,173,62540,6,0,B|256:192|256:192|292:136|256:136|256:90|256:136|219:136|256:192|256:192|292:247|256:247|256:293|256:247|219:247|256:192|256:192|420:210,1,640
283,118,62840,6,0,P|253:110|225:124,1,64
