osu file format v14

[General]
AudioFilename: audio.mp3
AudioLeadIn: 0
PreviewTime: 16330
Countdown: 1
SampleSet: Soft
StackLeniency: 0.7
Mode: 0
LetterboxInBreaks: 0
WidescreenStoryboard: 0

[Editor]
Bookmarks: 48258,64258,80258,96258,112258,128258,144258,176258
DistanceSpacing: 0.6
BeatDivisor: 8
GridSize: 4
TimelineZoom: 2.1

[Metadata]
Title:Caroline
TitleUnicode:Caroline
Artist:Amine
ArtistUnicode:Aminé
Creator:Bullhax
Version:Kitty
Source:
Tags:goodforyou good for you rap hip hop 2017
BeatmapID:1581995
BeatmapSetID:751450

[Difficulty]
HPDrainRate:6
CircleSize:4.5
OverallDifficulty:8
ApproachRate:9
SliderMultiplier:2.5
SliderTickRate:1

[Events]
//Background and Video events
0,0,"goodforyou169.jpg",0,0
//Break Periods
//Storyboard Layer 0 (Background)
//Storyboard Layer 1 (Fail)
//Storyboard Layer 2 (Pass)
//Storyboard Layer 3 (Foreground)
//Storyboard Sound Samples

[TimingPoints]
72,-31.25,4,2,0,100,0,0
16330,500,4,2,0,100,1,0
16330,-62.5,4,2,0,100,0,0
16830,-125,4,2,0,100,0,0
17830,-62.5,4,2,0,100,0,0
19330,-125,4,2,0,100,0,0
19830,-186.915887850467,4,2,0,100,0,0
20330,-62.5,4,2,0,100,0,0
20830,-125,4,2,0,100,0,0
21830,-62.5,4,2,0,100,0,0
22830,-125,4,2,0,100,0,0
24330,-62.5,4,2,0,100,0,0
24830,-125,4,2,0,100,0,0
25830,-62.5,4,2,0,100,0,0
27330,-125,4,2,0,100,0,0
28330,-62.5,4,2,0,100,0,0
28830,-125,4,2,0,100,0,0
29830,-62.5,4,2,0,100,0,0
32329,-31.25,4,2,0,100,0,0
32830,-46.5116279069767,4,2,0,100,0,0
33830,-31.25,4,2,0,100,0,0
34330,-46.5116279069767,4,2,0,100,0,0
34830,-83.3333333333333,4,2,0,100,0,0
36330,-31.25,4,2,0,100,0,0
36830,-46.5116279069767,4,2,0,100,0,0
37830,-31.25,4,2,0,100,0,0
38330,-46.5116279069767,4,2,0,100,0,0
38830,-83.3333333333333,4,2,0,100,0,0
40330,-31.25,4,2,0,100,0,0
40830,-46.5116279069767,4,2,0,100,0,0
41830,-31.25,4,2,0,100,0,0
42330,-46.5116279069767,4,2,0,100,0,0
42830,-83.3333333333333,4,2,0,100,0,0
44330,-31.25,4,2,0,100,0,0
44830,-46.5116279069767,4,2,0,100,0,0
45330,-83.3333333333333,4,2,0,100,0,0
46330,-31.25,4,2,0,100,0,0
46830,-46.5116279069767,4,2,0,100,0,0
47330,-186.915887850467,4,2,0,100,0,0
48330,-166.666666666667,4,2,0,100,0,0
56580,-83.3333333333333,4,2,0,100,0,0
64330,-62.5,4,2,0,100,0,0
64830,-125,4,2,0,100,0,0
65830,-62.5,4,2,0,100,0,0
67330,-125,4,2,0,100,0,0
67830,-186.915887850467,4,2,0,100,0,0
68330,-62.5,4,2,0,100,0,0
68830,-186.915887850467,4,2,0,100,0,0
69830,-62.5,4,2,0,100,0,0
72830,-125,4,2,0,100,0,0
73830,-62.5,4,2,0,100,0,0
80830,-125,4,2,0,100,0,0
81330,-186.915887850467,4,2,0,100,0,0
96330,-62.5,4,2,0,100,0,0
96830,-125,4,2,0,100,0,0
97830,-62.5,4,2,0,100,0,0
99080,-125,4,2,0,100,0,0
100330,-62.5,4,2,0,100,0,0
100830,-125,4,2,0,100,0,0
101830,-62.5,4,2,0,100,0,0
103330,-125,4,2,0,100,0,0
104330,-62.5,4,2,0,100,0,0
104830,-125,4,2,0,100,0,0
105830,-62.5,4,2,0,100,0,0
107330,-125,4,2,0,100,0,0
108330,-62.5,4,2,0,100,0,0
108830,-125,4,2,0,100,0,0
109830,-62.5,4,2,0,100,0,0

[HitObjects]
164,192,16330,6,0,P|146:249|159:306,1,100
151,96,16830,2,0,P|168:142|163:191,1,100
60,19,17330,1,0,0:0:0:0:
241,246,17830,6,0,P|287:263|336:258,1,100
151,96,18080,2,0,P|197:78|246:83,1,100
365,154,18330,1,0,0:0:0:0:
55,83,18580,2,0,P|101:100|150:95,1,100
369,17,18830,1,0,0:0:0:0:
151,287,19330,6,0,P|168:333|163:382,1,100
163,191,19830,2,0,P|145:237|150:286,1,100
407,107,20330,6,0,P|360:89|311:94,1,100
502,94,20830,2,0,P|455:111|406:106,1,100
137,40,21330,1,0,0:0:0:0:
406,106,21830,6,0,P|444:137|464:182,1,100
323,301,22080,2,0,P|331:252|360:211,1,100
441,287,22330,1,0,0:0:0:0:
502,94,22580,2,0,P|455:111|406:106,1,100
103,124,22830,2,0,P|149:106|198:111,1,100
391,378,23330,1,0,0:0:0:0:
391,378,23830,2,0,B|391:360|380:347|380:347|394:329|390:312|390:312|382:309|382:309|396:291|384:294|384:294|389:277|390:258|366:234,1,150
88,301,24330,6,0,P|134:318|183:313,1,100
183,313,24830,2,0,P|229:295|278:300,1,100
41,41,25330,1,0,0:0:0:0:
88,301,25830,6,0,P|70:254|75:205,1,100
357,363,26080,2,0,P|374:316|369:267,1,100
396,157,26330,1,0,0:0:0:0:
75,205,26580,2,0,P|79:155|62:109,1,100
281,189,26830,1,0,0:0:0:0:
46,375,27330,6,0,P|95:379|141:362,1,100
183,288,27830,2,0,P|133:283|87:300,1,100
355,246,28330,6,0,P|404:241|450:258,1,100
259,234,28830,2,0,P|305:251|355:246,1,100
58,17,29330,1,0,0:0:0:0:
125,277,29830,6,0,P|142:230|137:181,1,100
367,150,30080,2,0,P|349:196|354:245,1,100
195,91,32330,6,0,L|293:81,9,66.6666666666667
320,177,32830,2,0,L|243:169,5,67.1875010251999
496,89,33330,1,0,0:0:0:0:
91,182,33830,6,0,L|189:172,9,66.6666666666667
242,271,34330,2,0,L|144:261,5,66.6666666666667
340,235,34830,2,0,P|344:284|327:330,2,100
90,268,35330,2,0,P|85:317|102:363,2,100
216,354,35830,1,0,0:0:0:0:
454,118,36330,6,0,L|444:20,9,66.6666666666667
357,161,36830,2,0,L|367:63,5,66.6666666666667
429,348,37330,1,0,0:0:0:0:
262,113,37830,6,0,L|252:15,9,66.6666666666667
165,156,38330,2,0,L|175:58,5,66.6666666666667
319,250,38830,2,0,P|368:254|414:237,2,100
69,143,39330,2,0,P|118:138|164:155,2,100
218,240,39830,1,0,0:0:0:0:
438,352,40330,6,0,L|340:342,9,66.6666666666667
424,183,40830,2,0,L|414:281,5,66.6666666666667
145,323,41330,1,0,0:0:0:0:
228,335,41580,1,0,0:0:0:0:
101,105,41830,6,0,L|91:203,9,66.6666666666667
201,151,42330,2,0,L|299:161,5,66.6666666666667
364,123,42830,2,0,P|368:172|351:218,2,100
0,172,43330,2,0,P|-5:123|12:77,2,100
259,67,43830,1,0,0:0:0:0:
105,359,44330,6,0,L|203:369,9,66.6666666666667
151,278,44830,2,0,L|161:180,5,66.6666666666667
121,118,45330,2,0,P|170:113|216:130,2,100
422,159,45830,2,0,P|375:141|326:146,2,100
356,309,46330,6,0,L|366:211,3,66.6666666666667
383,47,46580,1,0,0:0:0:0:
151,278,46830,2,0,L|159:212,2,67.1875010251999
178,16,47080,1,0,0:0:0:0:
198,341,47330,2,0,P|244:358|293:353,1,100
305,278,47830,2,0,P|258:260|209:265,1,100
79,93,48330,6,0,L|72:145,2,37.4999988555909
263,106,48830,1,0,0:0:0:0:
241,111,49080,1,0,0:0:0:0:
367,86,49330,1,0,0:0:0:0:
345,91,49580,1,0,0:0:0:0:
481,60,49705,5,0,0:0:0:0:
459,65,50080,1,0,0:0:0:0:
439,281,50330,5,0,0:0:0:0:
416,277,50455,1,0,0:0:0:0:
393,273,50580,1,0,0:0:0:0:
370,269,50705,1,0,0:0:0:0:
347,265,50830,2,0,L|354:319,1,37.4999988555909
262,259,51080,2,0,L|269:313,1,37.4999988555909
393,154,51330,2,0,L|400:208,1,37.4999988555909
308,148,51580,2,0,L|315:202,1,37.4999988555909
438,41,51830,2,0,L|445:95,1,37.4999988555909
353,35,52080,2,0,L|360:89,1,37.4999988555909
72,195,52330,6,0,L|79:249,2,37.4999988555909
184,228,52830,1,0,0:0:0:0:
187,250,53080,1,0,0:0:0:0:
172,126,53330,1,0,0:0:0:0:
175,148,53580,1,0,0:0:0:0:
161,25,53705,5,0,0:0:0:0:
164,50,53955,1,0,0:0:0:0:
166,72,54080,1,0,0:0:0:0:
168,94,54205,1,0,0:0:0:0:
361,161,54330,6,0,P|334:169|274:160,1,74.9999977111817
169,118,54705,1,0,0:0:0:0:
172,141,55080,1,0,0:0:0:0:
173,169,55205,1,0,0:0:0:0:
0,150,55330,6,0,P|27:142|87:151,1,74.9999977111817
174,196,55705,1,0,0:0:0:0:
176,226,56080,1,0,0:0:0:0:
56,131,56330,5,0,0:0:0:0:
136,144,56455,1,0,0:0:0:0:
92,281,56580,2,0,P|79:235|88:189,1,74.9999977111817
301,213,56830,2,0,P|258:191|229:154,1,74.9999977111817
196,281,57080,2,0,P|173:238|172:191,1,74.9999977111817
361,95,57330,2,0,P|314:106|268:95,1,74.9999977111817
460,65,57580,1,0,0:0:0:0:
386,1,57705,1,0,0:0:0:0:
418,220,57830,2,0,L|411:303,1,74.9999977111817
288,102,58080,2,0,L|295:185,1,74.9999977111817
0,70,58330,5,0,0:0:0:0:
76,28,58455,1,0,0:0:0:0:
144,85,58580,1,0,0:0:0:0:
220,43,58705,1,0,0:0:0:0:
70,112,58830,2,0,L|63:195,1,74.9999977111817
216,125,59080,2,0,L|209:208,1,74.9999977111817
363,212,59330,2,0,L|369:137,1,74.9999977111817
326,288,59580,1,0,0:0:0:0:
407,285,59705,1,0,0:0:0:0:
399,49,59830,2,0,P|361:46|326:56,1,74.9999977111817
238,282,60080,2,0,P|200:284|165:274,1,74.9999977111817,0|0,0:3|0:3,0:3:0:0:
369,137,60330,5,0,0:0:0:0:
454,161,60455,1,0,0:0:0:0:
285,111,60580,2,0,P|282:148|292:183,1,74.9999977111817,0|0,0:3|0:3,0:3:0:0:
135,50,60830,2,0,P|109:77|96:112,1,74.9999977111817,0|0,0:3|0:3,0:3:0:0:
200,98,61080,2,0,P|187:133|188:170,1,74.9999977111817,0|0,0:3|0:3,0:3:0:0:
359,330,61330,1,0,0:0:0:0:
283,288,61455,1,0,0:0:0:0:
189,281,61580,1,0,0:0:0:0:
113,323,61705,1,0,0:0:0:0:
367,246,61830,2,0,L|373:171,1,74.9999977111817
114,226,62080,2,0,L|107:151,1,74.9999977111817
268,49,62330,5,0,0:0:0:0:
269,121,62455,1,0,0:0:0:0:
265,39,62580,1,0,0:0:0:0:
273,131,62705,1,0,0:0:0:0:
212,86,62830,5,0,0:0:0:0:
330,82,62955,1,0,0:0:0:0:
200,94,63080,1,0,0:0:0:0:
339,70,63205,1,0,0:0:0:0:
193,16,63330,5,0,0:0:0:0:
206,169,63455,1,0,0:0:0:0:
123,38,63580,5,0,0:0:0:0:
273,131,63705,1,0,0:0:0:0:
120,182,63830,5,0,0:0:0:0:
292,0,63955,1,0,0:0:0:0:
51,15,64080,1,0,0:0:0:0:
345,186,64205,1,0,0:0:0:0:
35,172,64330,6,0,P|52:218|47:267,1,100
138,27,64830,2,0,P|121:73|126:122,1,100
378,317,65330,1,0,0:0:0:0:
35,172,65830,6,0,P|52:126|47:77,1,100
29,348,66080,2,0,P|77:339|117:310,1,100
176,207,66330,1,0,0:0:0:0:
473,328,66580,2,0,P|427:311|378:317,1,100
190,358,66830,1,0,0:0:0:0:
408,130,67330,6,0,P|425:83|419:34,1,100
420,229,67830,2,0,L|404:105,1,100.312496938706
431,324,68330,6,0,P|413:277|419:228,1,100
496,174,68580,1,0,0:0:0:0:
257,325,68830,2,0,L|133:341,1,100.312496938706
346,303,69330,1,0,0:0:0:0:
327,215,69455,1,0,0:0:0:0:
239,234,69580,1,0,0:0:0:0:
218,238,69830,6,0,P|168:232|126:206,1,100
510,284,70080,2,0,P|468:257|418:252,1,100
346,303,70330,1,0,0:0:0:0:
508,39,70580,2,0,P|502:88|476:130,1,100
218,29,70830,1,0,0:0:0:0:
223,48,71080,5,0,0:0:0:0:
242,136,71205,1,0,0:0:0:0:
330,117,71330,1,0,0:0:0:0:
311,29,71455,1,0,0:0:0:0:
223,48,71580,1,0,0:0:0:0:
242,136,71705,1,0,0:0:0:0:
330,117,71830,1,0,0:0:0:0:
360,111,72080,5,0,0:0:0:0:
341,23,72205,1,0,0:0:0:0:
261,253,72330,6,0,P|211:247|169:221,1,100
423,266,72830,2,0,P|373:271|331:297,1,100
265,336,73205,5,0,0:0:0:0:
258,109,73330,5,0,0:0:0:0:
278,114,73580,1,0,0:0:0:0:
300,123,73830,6,0,P|349:117|391:91,1,100
65,45,74080,2,0,P|114:50|156:76,1,100
172,178,74330,1,0,0:0:0:0:
498,73,74580,2,0,P|492:122|466:164,1,100
273,267,74830,1,0,0:0:0:0:
276,285,75080,1,0,0:0:0:0:
295,373,75205,1,0,0:0:0:0:
383,354,75330,5,0,0:0:0:0:
401,351,75580,1,0,0:0:0:0:
423,347,75830,1,0,0:0:0:0:
446,361,76080,1,0,0:0:0:0:
172,264,76330,6,0,P|178:313|204:355,1,100
244,64,76830,1,0,0:0:0:0:
226,149,77080,1,0,0:0:0:0:
310,122,77205,5,0,0:0:0:0:
337,206,77330,1,0,0:0:0:0:
253,232,77455,1,0,0:0:0:0:
226,149,77580,1,0,0:0:0:0:
310,122,77705,1,0,0:0:0:0:
337,206,77830,6,0,P|382:226|431:225,1,100
131,129,78080,2,0,P|180:127|225:147,1,100
253,232,78330,1,0,0:0:0:0:
226,147,78455,1,0,0:0:0:0:
310,122,78580,2,0,P|330:76|329:27,1,100
478,302,78830,1,0,0:0:0:0:
253,232,79080,1,0,0:0:0:0:
337,206,79205,1,0,0:0:0:0:
310,122,79330,1,0,0:0:0:0:
305,104,79580,5,0,0:0:0:0:
299,86,79830,1,0,0:0:0:0:
299,86,80080,1,0,0:0:0:0:
134,105,80330,5,0,0:0:0:0:
212,97,80580,1,0,0:0:0:0:
410,134,80830,2,0,P|368:160|319:167,1,100
500,100,81330,2,0,P|451:107|410:134,1,100
385,151,81830,1,0,0:0:0:0:
401,292,82080,1,0,0:0:0:0:
404,317,82580,1,0,0:0:0:0:
134,105,84330,5,0,0:0:0:0:
385,151,85830,1,0,0:0:0:0:
401,292,86080,1,0,0:0:0:0:
404,317,86580,1,0,0:0:0:0:
134,105,88330,5,0,0:0:0:0:
385,151,89830,1,0,0:0:0:0:
401,292,90080,1,0,0:0:0:0:
404,317,90580,1,0,0:0:0:0:
134,105,92330,5,0,0:0:0:0:
256,192,93330,12,0,96205,0:0:0:0:
97,125,96330,6,0,P|73:168|69:217,1,100
68,31,96830,2,0,P|93:75|96:124,1,100
371,44,97330,1,0,0:0:0:0:
149,36,97580,1,0,0:0:0:0:
452,40,97830,6,0,P|427:83|424:132,1,100
497,312,98080,2,0,P|463:275|449:227,1,100
167,307,98330,1,0,0:0:0:0:
313,286,98580,2,0,P|346:249|360:201,1,100
437,366,98830,1,0,0:0:0:0:
72,287,99080,6,0,P|121:286|166:306,1,100
449,227,99580,1,0,0:0:0:0:
7,220,99830,2,0,P|52:199|101:200,1,100
468,321,100330,6,0,P|448:276|449:227,1,100
449,226,100830,2,0,P|469:180|468:131,1,100
96,124,101330,1,0,0:0:0:0:
468,131,101830,6,0,P|447:85|448:36,1,100
172,274,102080,2,0,P|192:228|191:179,1,100
473,269,102330,1,0,0:0:0:0:
96,124,102580,2,0,P|75:78|76:29,1,100
390,177,102830,1,0,0:0:0:0:
17,204,103080,1,0,0:0:0:0:
413,336,103330,6,0,P|363:335|318:355,1,100
19,327,103830,2,0,P|68:326|113:346,1,100
449,132,104330,6,0,P|428:86|429:37,1,100
167,189,104830,1,0,0:0:0:0:
339,177,105080,1,0,0:0:0:0:
7,113,105330,1,0,0:0:0:0:
429,226,105830,6,0,P|449:180|448:131,1,100
199,289,106080,1,0,0:0:0:0:
311,344,106205,2,0,P|360:344|405:324,1,100
181,188,106455,1,0,0:0:0:0:
323,215,106580,1,0,0:0:0:0:
199,289,106705,1,0,0:0:0:0:
448,131,106830,2,0,P|427:85|428:36,1,100
148,97,107080,2,0,P|197:96|242:116,1,100
405,324,107330,6,0,P|360:344|311:344,1,100
199,289,107830,1,0,0:0:0:0:
199,289,108205,1,0,0:0:0:0:
346,257,108330,6,0,P|346:207|326:162,1,100
181,188,108830,2,0,P|180:138|200:93,1,100
451,199,109330,1,0,0:0:0:0:
106,263,109830,6,0,P|85:217|86:168,1,100
274,34,110080,2,0,P|224:33|179:53,1,100
329,127,110330,1,0,0:0:0:0:
189,148,110455,1,0,0:0:0:0:
423,146,110580,2,0,P|378:126|329:127,1,100
453,314,110830,1,0,0:0:0:0:
197,246,111080,1,0,0:0:0:0:
337,267,111205,1,0,0:0:0:0:
274,37,111330,5,0,0:0:0:0:
274,37,111580,1,0,0:0:0:0:
337,267,111830,5,0,0:0:0:0:
197,246,111955,1,0,0:0:0:0:
