osu file format v14

[General]
AudioFilename: audio.mp3
AudioLeadIn: 0
PreviewTime: 62244
Countdown: 0
SampleSet: Soft
StackLeniency: 0.4
Mode: 0
LetterboxInBreaks: 0
WidescreenStoryboard: 0

[Editor]
Bookmarks: 16426,28062,39699,97880
DistanceSpacing: 1
BeatDivisor: 4
GridSize: 4
TimelineZoom: 1

[Metadata]
Title:Phantasy
TitleUnicode:Phantasy
Artist:Amidst
ArtistUnicode:Amidst
Creator:ZLOdeuka-
Version:Normal
Source:
Tags:vincetlow yamakudzi shmiklak Future Bass
BeatmapID:1533602
BeatmapSetID:724594

[Difficulty]
HPDrainRate:3
CircleSize:3.5
OverallDifficulty:3.5
ApproachRate:4.5
SliderMultiplier:0.8
SliderTickRate:1

[Events]
//Background and Video events
0,0,"BG.jpg",0,0
//Break Periods
//Storyboard Layer 0 (Background)
//Storyboard Layer 1 (Fail)
//Storyboard Layer 2 (Pass)
//Storyboard Layer 3 (Foreground)
//Storyboard Sound Samples

[TimingPoints]
4790,363.636363636364,4,2,1,40,1,0
16426,-100,4,2,1,50,0,0
38244,-100,4,2,1,40,0,0
39699,-100,4,2,1,60,0,0
61335,-100,4,2,1,20,0,0
62971,-100,4,2,1,70,0,1
74517,-100,4,2,1,50,0,0
74608,-100,4,2,1,70,0,1
86244,-100,4,2,1,50,0,0

[Colours]
Combo1 : 247,244,155
Combo2 : 191,147,240
Combo3 : 255,64,64
Combo4 : 218,146,146

[HitObjects]
70,333,4790,6,0,P|64:294|71:253,1,80,2|0,0:0|0:0,0:0:0:0:
147,230,5517,2,0,P|153:191|146:150,1,80,2|0,0:0|0:0,0:0:0:0:
119,75,6244,1,2,0:0:0:0:
188,35,6608,1,2,0:0:0:0:
256,75,6971,1,2,0:0:0:0:
325,35,7335,1,2,0:0:0:0:
394,75,7699,6,0,P|400:114|393:155,1,80,2|0,0:0|0:0,0:0:0:0:
317,178,8426,2,0,P|311:217|318:258,1,80,2|2,0:0|0:0,0:0:0:0:
348,330,9153,1,2,0:0:0:0:
268,320,9517,2,0,P|251:317|229:310,1,40,2|0,0:0|0:0,0:0:0:0:
194,291,9880,2,0,P|179:279|163:263,1,40,2|0,0:0|0:0,0:0:0:0:
140,231,10244,1,2,0:0:0:0:
140,150,10608,6,0,L|58:154,1,80,2|0,0:0|0:0,0:0:0:0:
15,220,11335,2,0,L|33:300,1,80,2|0,0:0|0:0,0:0:0:0:
52,375,12062,1,2,0:0:0:0:
110,320,12426,1,2,0:0:0:0:
168,375,12790,1,2,0:0:0:0:
226,320,13153,1,2,0:0:0:0:
256,192,13517,12,10,16426,0:0:0:0:
426,356,17880,5,10,0:0:0:0:
441,277,18244,1,10,0:0:0:0:
448,197,18608,2,0,P|446:176|442:156,2,40,10|8|10,0:0|0:0|0:0,0:0:0:0:
375,230,19335,6,0,P|333:226|297:216,1,80,10|8,0:0|0:0,0:0:0:0:
216,216,20062,2,0,P|177:226|137:229,1,80,10|10,0:0|0:0,0:0:0:0:
57,235,20790,1,10,0:0:0:0:
93,163,21153,1,10,0:0:0:0:
105,83,21517,2,0,L|64:76,2,40,10|8|10,0:0|0:0|0:0,0:0:0:0:
143,92,22062,1,8,0:0:0:0:
182,98,22244,6,0,L|262:92,1,80,10|8,0:0|0:0,0:0:0:0:
321,38,22971,2,0,L|401:44,1,80,10|10,0:0|0:0,0:0:0:0:
480,53,23699,1,10,0:0:0:0:
471,132,24062,1,10,0:0:0:0:
461,211,24426,2,0,P|463:232|469:263,2,40,10|8|10,0:0|0:0|0:0,0:0:0:0:
383,184,25153,6,0,P|380:224|386:265,1,80,10|10,0:0|0:0,0:0:0:0:
394,302,25699,1,8,0:0:0:0:
386,341,25880,2,0,P|346:344|306:341,1,80,10|10,0:0|0:0,0:0:0:0:
227,325,26608,2,0,P|220:342|214:362,2,40,10|8|10,0:0|0:0|0:0,0:0:0:0:
245,289,27153,1,0,0:0:0:0:
264,253,27335,2,0,P|271:236|277:216,2,40,10|8|8,0:0|0:0|0:0,0:0:0:0:
189,222,28062,6,0,L|106:230,1,80,12|8,1:2|0:0,0:0:0:0:
102,149,28790,2,0,L|181:141,1,80,8|8,0:0|0:0,0:0:0:0:
177,61,29517,2,0,L|97:68,1,80,8|8,0:0|0:0,0:0:0:0:
17,75,30244,1,8,0:0:0:0:
22,154,30608,1,8,0:0:0:0:
29,233,30971,6,0,L|16:313,1,80,8|8,0:0|0:0,0:0:0:0:
95,326,31699,2,0,L|107:247,1,80,8|8,0:0|0:0,0:0:0:0:
186,260,32426,2,0,L|173:338,1,80,8|8,0:0|0:0,0:0:0:0:
250,361,33153,1,8,0:0:0:0:
330,361,33517,1,8,0:0:0:0:
406,339,33880,6,0,P|425:301|434:262,1,80,8|8,0:0|0:0,0:0:0:0:
401,190,34608,2,0,P|392:168|386:146,1,40,8|8,0:0|0:0,0:0:0:0:
387,112,34971,2,0,P|392:88|399:65,1,40,8|8,0:0|0:0,0:0:0:0:
412,36,35335,2,0,L|334:19,1,80,8|8,0:0|0:0,0:0:0:0:
256,38,36062,2,0,L|247:78,1,40,8|8,0:0|0:0,0:0:0:0:
237,116,36426,2,0,L|228:156,1,40,8|8,0:0|0:0,0:0:0:0:
256,192,36790,12,0,38244,0:0:0:0:
41,43,39699,6,0,L|201:39,1,160,4|8,1:0|0:0,0:0:0:0:
241,151,40971,1,0,1:0:0:0:
201,148,41153,2,0,L|41:144,1,160,0|8,1:0|0:0,0:0:0:0:
1,142,42062,1,0,1:0:0:0:
5,221,42426,1,0,1:0:0:0:
12,260,42608,6,0,L|155:337,1,160,0|8,1:0|0:0,0:0:0:0:
256,274,43880,1,0,1:0:0:0:
256,314,44062,1,0,1:0:0:0:
332,336,44426,1,2,0:0:0:0:
409,314,44790,2,0,L|423:236,1,80,8|0,0:0|0:0,0:0:0:0:
430,155,45517,6,0,P|426:115|419:76,2,80,0|0|8,1:0|0:0|0:0,0:0:0:0:
310,167,46790,1,0,1:0:0:0:
270,168,46971,2,0,P|262:128|258:88,2,80,0|0|8,1:0|0:0|0:0,0:0:0:0:
242,197,47880,1,0,1:0:0:0:
182,251,48244,1,0,1:0:0:0:
151,276,48426,6,0,P|110:271|71:257,2,80,0|0|8,1:0|0:0|0:0,0:0:0:0:
271,279,49699,1,0,1:0:0:0:
307,263,49880,2,0,L|347:248,1,40,0|8,1:0|0:0,0:0:0:0:
422,231,50426,2,0,L|462:231,2,40,0|8|0,1:0|0:0|1:0,0:0:0:0:
429,151,51153,1,0,1:0:0:0:
435,111,51335,6,0,L|277:92,1,160,4|8,1:0|0:0,0:0:0:0:
182,167,52608,1,0,1:0:0:0:
189,206,52790,2,0,L|347:186,1,160,0|8,1:0|0:0,0:0:0:0:
387,182,53699,1,0,1:0:0:0:
415,256,54062,1,0,1:0:0:0:
401,294,54244,6,0,L|256:360,1,160,0|8,1:0|0:0,0:0:0:0:
140,324,55516,1,0,1:0:0:0:
126,286,55698,1,0,1:0:0:0:
97,211,56062,1,2,0:0:0:0:
102,131,56426,2,0,L|140:55,1,80,8|0,0:0|0:0,0:0:0:0:
217,70,57153,6,0,P|256:74|298:70,2,80,0|0|8,1:0|0:0|0:0,0:0:0:0:
98,87,58426,1,0,1:0:0:0:
79,122,58608,2,0,P|40:126|-2:122,2,80,0|0|8,1:0|0:0|0:0,0:0:0:0:
101,155,59517,1,0,1:0:0:0:
101,234,59880,1,0,1:0:0:0:
99,274,60062,6,0,L|122:353,1,80,0|0,1:0|0:0,0:0:0:0:
201,358,60790,2,0,B|246:285|327:266|327:266|370:192|450:171|450:171|450:92,1,400,8|0,0:0|0:0,0:0:0:0:
375,63,62971,6,0,P|298:80|219:63,1,160,4|8,1:0|1:2,0:0:0:0:
144,35,64062,1,0,0:0:0:0:
67,59,64426,2,0,P|59:101|66:137,1,80,0|0,1:0|0:0,0:0:0:0:
67,217,65153,2,0,P|59:259|66:295,1,80,8|0,1:2|0:0,0:0:0:0:
136,257,65880,6,0,L|297:293,1,160,0|8,1:0|1:2,0:0:0:0:
370,308,66971,1,0,0:0:0:0:
362,228,67335,2,0,L|354:149,1,80,0|0,1:0|0:0,0:0:0:0:
281,115,68062,2,0,L|289:36,1,80,8|0,1:2|0:0,0:0:0:0:
369,28,68790,6,0,P|441:62|476:132,1,160,0|8,1:0|1:2,0:0:0:0:
476,211,69880,1,0,0:0:0:0:
461,289,70244,2,0,L|400:342,1,80,0|0,1:0|0:0,0:0:0:0:
356,274,70971,2,0,L|295:327,1,80,8|0,1:2|0:0,0:0:0:0:
226,368,71699,6,0,L|202:207,1,160,0|8,1:0|1:2,0:0:0:0:
190,130,72790,1,0,0:0:0:0:
176,51,73153,2,0,P|140:42|95:53,1,80,0|0,1:0|0:0,1:0:0:0:
74,83,73699,1,0,1:0:0:0:
59,120,73880,2,0,L|78:240,1,120,0|0,1:0|1:0,0:0:0:0:
109,263,74608,6,0,L|97:345,2,80,4|0|10,1:0|0:0|1:2,0:0:0:0:
170,212,75699,1,0,0:0:0:0:
248,224,76062,2,0,P|287:227|331:225,1,80,0|0,1:2|0:0,0:0:0:0:
374,160,76790,2,0,P|413:158|453:161,1,80,8|0,1:2|0:0,0:0:0:0:
452,241,77517,6,0,L|464:323,2,80,2|0|10,1:2|0:0|1:2,0:0:0:0:
453,161,78608,1,0,0:0:0:0:
456,81,78971,2,0,L|376:58,1,80,0|2,1:2|0:0,0:0:0:0:
321,114,79699,2,0,L|253:65,1,80,8|0,1:2|0:0,0:0:0:0:
183,99,80426,6,0,L|136:29,2,80,2|0|10,1:2|0:0|1:2,0:0:0:0:
198,177,81517,1,0,0:0:0:0:
204,256,81880,2,0,L|189:338,1,80,0|0,1:0|0:0,0:0:0:0:
118,296,82608,2,0,L|103:378,1,80,8|0,1:2|0:0,0:0:0:0:
29,344,83335,6,0,L|14:265,2,80,2|0|10,1:2|0:0|1:2,0:0:0:0:
103,374,84426,1,0,0:0:0:0:
182,364,84790,2,0,P|214:341|239:304,1,80,0|0,1:0|0:0,0:0:0:0:
227,269,85335,1,0,1:0:0:0:
190,253,85517,2,0,P|176:196|189:138,1,120,0|0,1:0|1:0,0:0:0:0:
225,120,86244,6,0,P|264:112|304:111,1,80,6|2,1:2|0:0,0:0:0:0:
284,33,86971,2,0,P|244:25|204:24,1,80,2|2,1:2|0:0,0:0:0:0:
129,50,87699,1,2,1:2:0:0:
76,110,88062,1,2,0:0:0:0:
57,187,88426,1,10,1:2:0:0:
75,264,88790,1,2,0:0:0:0:
136,315,89153,6,0,P|177:315|216:311,1,80,2|0,1:2|0:0,0:0:0:0:
295,311,89880,2,0,P|334:315|374:314,1,80,10|2,1:2|0:0,0:0:0:0:
438,265,90608,1,2,1:2:0:0:
401,193,90971,2,0,L|405:150,1,40,2|0,0:0|0:0,0:0:0:0:
411,113,91335,2,0,L|415:70,1,40,10|0,1:2|0:0,0:0:0:0:
419,33,91699,1,2,0:0:0:0:
340,48,92062,6,0,P|299:53|260:48,1,80,2|0,1:2|0:0,0:0:0:0:
242,126,92790,2,0,P|202:121|162:126,1,80,10|0,1:2|0:0,0:0:0:0:
200,197,93517,1,2,1:2:0:0:
208,276,93880,1,2,0:0:0:0:
184,352,94244,1,10,1:2:0:0:
103,352,94608,1,2,2:0:0:0:
256,192,94971,12,0,97880,0:0:0:0:
