osu file format v14

[General]
AudioFilename: audio.mp3
AudioLeadIn: 0
PreviewTime: 62244
Countdown: 0
SampleSet: Soft
StackLeniency: 0.4
Mode: 0
LetterboxInBreaks: 0
WidescreenStoryboard: 0

[Editor]
Bookmarks: 16426,28062,39699,97880
DistanceSpacing: 1.1
BeatDivisor: 4
GridSize: 4
TimelineZoom: 1

[Metadata]
Title:Phantasy
TitleUnicode:Phantasy
Artist:Amidst
ArtistUnicode:Amidst
Creator:ZLOdeuka-
Version:NYA?!
Source:
Tags:vincetlow yamakudzi shmiklak Future Bass
BeatmapID:1530025
BeatmapSetID:724594

[Difficulty]
HPDrainRate:6
CircleSize:4.2
OverallDifficulty:8.3
ApproachRate:9.3
SliderMultiplier:1.6
SliderTickRate:1

[Events]
//Background and Video events
0,0,"BG.jpg",0,0
//Break Periods
//Storyboard Layer 0 (Background)
//Storyboard Layer 1 (Fail)
//Storyboard Layer 2 (Pass)
//Storyboard Layer 3 (Foreground)
//Storyboard Sound Samples

[TimingPoints]
4790,363.636363636364,4,2,1,40,1,0
16426,-100,4,2,1,50,0,0
38244,-100,4,2,1,40,0,0
39335,-200,4,2,1,40,0,0
39699,-80,4,2,1,60,0,0
40244,-100,4,2,1,60,0,0
41153,-100,4,2,1,60,0,0
41699,-100,4,2,1,60,0,0
42608,-133.333333333333,4,2,1,60,0,0
43153,-100,4,2,1,60,0,0
44790,-100,4,2,1,60,0,0
45335,-100,4,2,1,60,0,0
49153,-100,4,2,1,60,0,0
51335,-80,4,2,1,60,0,0
51880,-100,4,2,1,60,0,0
52789,-100,4,2,1,60,0,0
53335,-100,4,2,1,60,0,0
54244,-133.333333333333,4,2,1,60,0,0
54789,-100,4,2,1,60,0,0
56426,-100,4,2,1,60,0,0
57153,-100,4,2,1,60,0,0
60790,-100,4,2,1,60,0,0
61335,-100,4,2,1,20,0,0
61517,-100,4,2,1,5,0,0
61699,-100,4,2,1,10,0,0
61880,-100,4,2,1,15,0,0
62062,-100,4,2,1,25,0,0
62608,-100,4,2,1,30,0,0
62790,-100,4,2,1,40,0,0
62971,-66.6666666666667,4,2,1,70,0,1
74517,-100,4,2,1,50,0,0
74608,-66.6666666666667,4,2,1,70,0,1
86244,-100,4,2,1,50,0,0

[Colours]
Combo1 : 247,244,155
Combo2 : 191,147,240
Combo3 : 255,64,64
Combo4 : 218,146,146

[HitObjects]
186,166,4790,5,2,0:0:0:0:
201,170,5153,1,0,0:0:0:0:
203,330,5335,1,0,0:0:0:0:
83,287,5517,5,2,0:0:0:0:
72,275,5880,1,0,0:0:0:0:
130,219,6062,1,0,0:0:0:0:
201,255,6244,1,2,0:0:0:0:
190,334,6426,1,0,0:0:0:0:
111,347,6608,1,2,0:0:0:0:
426,299,6971,5,2,0:0:0:0:
415,220,7335,1,2,0:0:0:0:
273,351,7699,5,2,0:0:0:0:
258,356,8062,1,0,0:0:0:0:
273,196,8244,1,0,0:0:0:0:
134,275,8426,5,2,0:0:0:0:
161,158,8608,1,0,0:0:0:0:
76,350,8790,5,2,0:0:0:0:
49,233,8972,1,0,0:0:0:0:
171,363,9153,5,2,0:0:0:0:
241,325,9335,1,0,0:0:0:0:
320,317,9517,1,2,0:0:0:0:
397,335,9699,1,0,0:0:0:0:
474,79,9880,5,2,0:0:0:0:
456,173,10062,1,0,0:0:0:0:
465,268,10244,1,2,0:0:0:0:
488,361,10608,5,2,0:0:0:0:
491,345,10971,1,0,0:0:0:0:
380,228,11153,1,0,0:0:0:0:
463,91,11335,5,2,0:0:0:0:
449,99,11698,1,0,0:0:0:0:
385,147,11880,1,0,0:0:0:0:
317,103,12062,1,2,0:0:0:0:
339,26,12244,1,0,0:0:0:0:
419,24,12426,1,2,0:0:0:0:
99,42,12790,5,2,0:0:0:0:
121,119,13153,1,2,0:0:0:0:
259,40,13517,5,2,0:0:0:0:
237,117,13699,1,0,0:0:0:0:
212,192,13880,1,2,0:0:0:0:
223,203,14244,5,2,0:0:0:0:
302,192,14426,1,0,0:0:0:0:
224,337,14608,1,2,0:0:0:0:
145,326,14790,1,0,0:0:0:0:
26,124,14971,5,2,0:0:0:0:
19,219,15153,1,0,0:0:0:0:
134,36,15335,1,2,0:0:0:0:
127,131,15517,1,0,0:0:0:0:
121,226,15699,1,2,0:0:0:0:
223,230,16426,5,10,0:0:0:0:
227,245,16790,1,8,0:0:0:0:
316,278,16971,1,0,0:0:0:0:
407,308,17153,1,10,0:0:0:0:
411,323,17517,5,10,0:0:0:0:
383,230,17699,1,0,0:0:0:0:
380,134,17880,1,10,0:0:0:0:
399,39,18062,1,0,0:0:0:0:
470,103,18244,1,10,0:0:0:0:
256,179,18608,5,10,0:0:0:0:
58,145,18790,1,8,0:0:0:0:
262,180,18971,1,10,0:0:0:0:
117,340,19335,5,10,0:0:0:0:
120,355,19699,1,8,0:0:0:0:
130,259,19880,1,0,0:0:0:0:
139,163,20062,1,10,0:0:0:0:
373,163,20244,5,0,0:0:0:0:
382,259,20426,1,10,0:0:0:0:
391,354,20607,1,0,0:0:0:0:
382,259,20790,5,10,0:0:0:0:
302,217,20972,1,0,0:0:0:0:
211,217,21154,1,10,0:0:0:0:
130,259,21335,1,0,0:0:0:0:
256,348,21517,5,10,0:0:0:0:
256,140,21699,1,8,0:0:0:0:
256,354,21880,1,10,0:0:0:0:
256,134,22062,1,8,0:0:0:0:
256,37,22244,5,10,0:0:0:0:
271,41,22608,1,8,0:0:0:0:
176,59,22790,1,0,0:0:0:0:
81,76,22971,1,10,0:0:0:0:
75,91,23335,5,10,0:0:0:0:
10,162,23517,1,0,0:0:0:0:
56,246,23699,1,10,0:0:0:0:
150,230,23880,1,0,0:0:0:0:
162,134,24062,1,10,0:0:0:0:
284,338,24426,5,10,0:0:0:0:
482,304,24608,1,8,0:0:0:0:
278,339,24789,1,10,0:0:0:0:
350,136,25153,5,10,0:0:0:0:
339,40,25335,1,0,0:0:0:0:
262,98,25517,5,10,0:0:0:0:
253,319,25699,1,8,0:0:0:0:
350,136,25880,5,10,0:0:0:0:
438,173,26062,1,0,0:0:0:0:
256,207,26244,1,10,0:0:0:0:
168,244,26426,1,0,0:0:0:0:
358,117,26608,5,10,0:0:0:0:
446,154,26790,1,8,0:0:0:0:
260,225,26972,1,10,0:0:0:0:
172,262,27154,1,0,0:0:0:0:
84,299,27335,5,10,0:0:0:0:
63,106,27517,1,8,0:0:0:0:
85,305,27699,1,8,0:0:0:0:
296,344,28062,5,12,1:2:0:0:
387,315,28244,1,0,0:0:0:0:
480,334,28426,1,8,0:0:0:0:
216,40,28790,1,8,0:0:0:0:
125,69,28972,1,0,0:0:0:0:
32,50,29154,1,8,0:0:0:0:
431,40,29517,5,8,0:0:0:0:
438,135,29699,1,0,0:0:0:0:
449,229,29880,1,8,0:0:0:0:
347,92,30062,1,0,0:0:0:0:
262,136,30243,5,8,0:0:0:0:
290,351,30426,1,8,0:0:0:0:
361,172,30608,1,8,0:0:0:0:
197,314,30791,1,8,0:0:0:0:
43,110,30971,5,8,0:0:0:0:
77,199,31153,1,0,0:0:0:0:
40,287,31335,1,8,0:0:0:0:
40,287,31517,1,0,0:0:0:0:
289,348,31699,5,8,0:0:0:0:
255,259,31881,1,0,0:0:0:0:
292,171,32063,1,8,0:0:0:0:
292,171,32245,1,0,0:0:0:0:
464,253,32426,5,8,0:0:0:0:
453,159,32607,1,0,0:0:0:0:
446,64,32789,1,8,0:0:0:0:
373,216,32971,1,0,0:0:0:0:
375,118,33153,5,8,0:0:0:0:
374,114,33244,1,8,0:0:0:0:
373,110,33335,1,8,0:0:0:0:
114,246,33517,1,8,0:0:0:0:
115,242,33608,1,8,0:0:0:0:
116,238,33699,1,8,0:0:0:0:
173,349,33880,5,8,0:0:0:0:
82,170,34062,1,0,0:0:0:0:
257,313,34244,1,8,0:0:0:0:
256,112,34426,1,0,0:0:0:0:
339,349,34608,1,8,0:0:0:0:
339,345,34699,1,8,0:0:0:0:
339,341,34790,1,8,0:0:0:0:
430,170,34971,1,8,0:0:0:0:
429,166,35062,1,8,0:0:0:0:
428,162,35153,1,8,0:0:0:0:
256,33,35335,5,8,0:0:0:0:
296,229,35517,1,0,0:0:0:0:
331,125,35699,1,8,0:0:0:0:
315,323,35880,1,0,0:0:0:0:
151,207,36062,1,8,0:0:0:0:
152,203,36153,1,8,0:0:0:0:
153,199,36244,1,8,0:0:0:0:
27,355,36426,1,8,0:0:0:0:
26,351,36517,1,8,0:0:0:0:
26,347,36608,1,8,0:0:0:0:
216,286,36790,5,8,0:0:0:0:
375,166,36971,1,0,0:0:0:0:
420,360,37153,1,8,0:0:0:0:
335,277,37335,1,0,0:0:0:0:
478,159,37517,5,8,0:0:0:0:
340,13,37699,1,0,0:0:0:0:
274,201,37880,1,8,0:0:0:0:
130,61,38062,1,0,0:0:0:0:
100,259,38244,5,4,3:0:0:0:
123,262,38335,1,0,0:0:0:0:
145,269,38426,1,0,0:0:0:0:
165,280,38517,1,0,0:0:0:0:
184,294,38608,1,0,0:0:0:0:
199,312,38699,1,0,0:0:0:0:
270,347,38790,6,0,P|295:352|313:353,1,40,4|0,3:0|0:0,0:0:0:0:
386,311,38971,1,0,1:0:0:0:
392,288,39062,1,0,0:0:0:0:
396,264,39153,1,0,0:0:0:0:
395,239,39244,1,0,0:0:0:0:
357,171,39335,6,0,P|351:143|357:113,1,60,0|0,3:0|0:0,0:0:0:0:
286,7,39699,6,0,B|260:59|201:42|201:42|131:32|101:97|101:97|63:33,1,300,4|0,1:0|0:0,0:0:0:0:
181,124,40426,1,8,0:0:0:0:
212,197,40608,1,2,0:0:0:0:
222,276,40790,1,2,0:0:0:0:
213,355,40971,1,2,1:2:0:0:
422,351,41153,6,0,B|444:282|386:242|386:242|402:175|466:174,1,240,0|0,1:0|0:0,0:0:0:0:
343,317,41880,1,10,0:0:0:0:
268,289,42062,1,2,1:2:0:0:
204,240,42244,1,2,0:0:0:0:
177,164,42426,1,2,1:2:0:0:
287,42,42608,6,0,B|345:26|383:68|383:68|456:47,1,180.000006866455,0|0,1:0|0:0,0:0:0:0:
316,125,43335,1,10,0:0:0:0:
293,201,43517,1,2,0:0:0:0:
282,280,43699,1,2,0:0:0:0:
285,359,43880,1,2,1:2:0:0:
493,255,44062,5,0,1:0:0:0:
134,36,44426,1,2,0:0:0:0:
136,41,44790,2,0,B|151:105|85:133|85:133|118:162|118:162|85:190|71:228,1,240,8|0,0:0|0:0,0:0:0:0:
183,349,45517,6,0,P|178:333|175:310,1,40,0|0,1:0|0:0,0:0:0:0:
183,349,45699,2,0,P|220:342|263:342,1,80
341,355,45971,1,0,0:0:0:0:
341,355,46062,2,0,P|346:339|351:316,1,40
428,293,46244,6,0,P|427:276|424:252,1,40,8|0,0:0|0:0,0:0:0:0:
370,192,46426,2,0,L|381:113,1,80
335,45,46699,1,0,0:0:0:0:
335,45,46790,2,0,P|315:44|291:48,1,40,0|0,1:0|0:0,0:0:0:0:
275,124,46971,6,0,P|255:125|231:121,1,40,0|0,1:0|0:0,0:0:0:0:
161,88,47153,2,0,P|121:80|82:88,1,80
47,160,47426,1,0,0:0:0:0:
47,160,47517,2,0,L|50:203,1,40
130,210,47699,6,0,L|133:253,1,40,8|0,0:0|0:0,0:0:0:0:
139,253,47880,2,0,L|143:173,1,80,0|0,1:0|0:0,0:0:0:0:
219,198,48153,1,0,0:0:0:0:
219,198,48244,2,0,L|222:241,1,40,0|0,1:0|0:0,0:0:0:0:
228,318,48426,6,0,P|248:314|276:313,1,40,0|0,1:0|0:0,0:0:0:0:
340,346,48608,2,0,P|380:347|419:338,1,80
484,292,48880,1,0,0:0:0:0:
484,292,48971,2,0,P|472:271|468:242,1,40
500,91,49153,6,0,B|473:133|477:180|477:180|436:178|410:208,1,160,8|0,0:0|0:0,0:0:0:0:
395,14,49699,1,0,1:0:0:0:
366,153,49880,2,0,L|281:156,1,80,0|8,1:0|0:0,0:0:0:0:
12,104,50426,2,0,L|91:106,1,80,0|8,1:0|0:0,0:0:0:0:
54,22,50790,1,0,1:0:0:0:
45,20,51153,1,0,1:0:0:0:
100,220,51335,6,0,B|146:276|220:246|220:246|283:316|283:316|323:301|355:318,1,300,4|0,1:0|0:0,0:0:0:0:
317,384,52062,1,10,0:0:0:0:
275,190,52244,1,2,0:0:0:0:
317,378,52426,1,2,0:0:0:0:
388,199,52608,1,2,1:2:0:0:
157,36,52790,6,0,B|126:102|177:145|177:145|156:185|170:228|170:228|159:260,1,240,0|0,1:0|0:0,0:0:0:0:
243,193,53517,1,10,0:0:0:0:
44,170,53699,1,2,1:2:0:0:
222,82,53880,1,2,0:0:0:0:
45,176,54062,1,2,1:2:0:0:
321,120,54244,6,0,B|378:131|385:186|385:186|430:205|436:248,1,180.000006866455,0|0,1:0|0:0,0:0:0:0:
359,262,54971,1,10,0:0:0:0:
484,106,55153,1,2,0:0:0:0:
364,266,55335,1,2,0:0:0:0:
391,67,55517,1,2,1:2:0:0:
457,305,55699,5,0,1:0:0:0:
64,354,56062,1,2,0:0:0:0:
60,349,56426,2,0,B|55:301|111:273|111:273|106:235|106:235|143:191|126:137,1,240,8|0,0:0|0:0,0:0:0:0:
219,34,57153,6,0,P|224:50|227:73,1,40,0|0,1:0|0:0,0:0:0:0:
219,34,57335,2,0,P|256:27|298:27,1,80
376,46,57607,1,0,0:0:0:0:
376,46,57699,2,0,P|380:65|385:84,1,40
444,140,57880,6,0,P|443:157|440:181,1,40,8|0,0:0|0:0,0:0:0:0:
380,234,58062,2,0,L|385:313,1,80
304,311,58335,1,0,0:0:0:0:
304,311,58426,2,0,P|284:310|260:314,1,40,0|0,1:0|0:0,0:0:0:0:
190,343,58608,6,0,P|170:345|150:344,1,40,0|0,1:0|0:0,0:0:0:0:
108,274,58790,2,0,P|132:242|141:204,1,80
215,175,59062,1,0,0:0:0:0:
215,175,59153,2,0,P|209:152|200:134,1,40
171,62,59335,6,0,L|131:59,1,40,8|0,0:0|0:0,0:0:0:0:
126,55,59517,2,0,L|205:49,1,80,0|0,1:0|0:0,0:0:0:0:
286,47,59789,1,0,0:0:0:0:
286,47,59880,2,0,L|325:49,1,40,0|0,1:0|0:0,0:0:0:0:
367,119,60062,6,0,P|357:138|346:152,1,40,0|0,1:0|0:0,0:0:0:0:
378,226,60244,2,0,P|339:243|300:243,1,80
221,240,60517,1,0,0:0:0:0:
221,240,60608,2,0,L|224:196,1,40
205,48,60790,6,0,B|230:102|210:127|210:127|148:143|149:209|149:209|106:223,1,240,8|0,0:0|0:0,0:0:0:0:
29,209,61517,1,0,1:0:0:0:
34,289,61699,1,0,1:0:0:0:
111,345,61880,1,0,1:0:0:0:
222,351,62062,1,0,1:0:0:0:
286,240,62244,5,0,1:0:0:0:
348,370,62426,1,0,1:0:0:0:
414,224,62608,1,0,1:0:0:0:
490,382,62790,1,0,1:0:0:0:
364,122,62971,6,0,B|372:54|304:30|304:30|256:94|208:30|208:30|140:54|149:121,1,360.000013732911,4|0,1:0|0:0,0:0:0:0:
158,346,63699,2,0,B|212:314|266:369|266:369|313:336|284:259|284:259|368:277|370:208,1,360.000013732911,8|0,1:2|0:0,0:0:0:0:
149,121,64426,6,0,B|86:135|50:73|50:73|50:140|23:190|23:190|88:226|79:286,1,360.000013732911,0|0,1:0|0:0,0:0:0:0:
303,259,65153,2,0,B|308:197|237:169|237:169|313:128|295:77|295:77|231:75|193:25,1,360.000013732911,8|0,1:2|0:0,0:0:0:0:
414,65,65880,6,0,B|406:125|357:165|357:165|429:200|430:249|430:249|402:273|388:315|422:357,1,360.000013732911,0|0,1:0|0:0,0:0:0:0:
221,273,66608,2,0,B|272:229|233:165|233:165|284:109|256:56|256:56|197:104|161:44|115:145,1,360.000013732911,8|0,1:2|0:0,0:0:0:0:
107,311,67335,6,0,B|40:313|18:246|18:246|47:190|21:130,1,240.000009155274,0|0,1:0|0:0,0:0:0:0:
20,129,68062,2,0,B|89:145|124:89|124:89|194:98|235:57|235:57|302:87|351:37,1,360.000013732911,8|0,1:2|0:0,0:0:0:0:
422,244,68790,6,0,B|425:310|460:356|460:356|394:339|343:364|343:364|303:315|232:332,1,360.000013732911,0|0,1:0|0:0,0:0:0:0:
281,107,69517,2,0,B|213:123|172:75|172:75|178:146|126:177|126:177|95:111|49:87,1,360.000013732911,8|0,1:2|0:0,0:0:0:0:
125,306,70244,6,0,B|178:275|203:216|203:216|234:285|299:256|299:256|347:313|408:262,1,360.000013732911,0|0,1:0|0:0,0:0:0:0:
479,55,70971,2,0,B|424:81|364:53|364:53|329:95|264:120|264:120|326:132|360:185,1,360.000013732911,8|0,1:2|0:0,0:0:0:0:
197,343,71699,6,0,B|185:283|226:232|226:232|153:206|105:232|105:232|136:181|132:120,1,360.000013732911,0|0,1:0|0:0,0:0:0:0:
125,346,72426,2,0,B|202:360|260:311|260:311|331:306|349:247|349:247|321:205|328:151,1,360.000013732911,8|0,1:2|0:0,0:0:0:0:
498,71,73153,5,0,1:0:0:0:
392,90,73335,1,8,0:0:0:0:
218,163,73517,1,0,0:0:0:0:
324,182,73699,1,0,1:0:0:0:
43,66,73880,5,8,0:0:0:0:
164,273,74062,1,0,1:0:0:0:
56,52,74244,1,8,1:2:0:0:
149,285,74426,1,0,1:0:0:0:
157,119,74608,6,0,B|204:103|242:130|242:130|261:125|279:127,1,120.000004577637,4|0,1:0|0:0,0:0:0:0:
394,333,74971,1,2,0:0:0:0:
288,254,75153,1,2,0:0:0:0:
409,201,75335,2,0,B|433:172|422:122|422:122|431:106|433:82,1,120.000004577637,10|0,1:2|0:0,0:0:0:0:
197,31,75699,1,2,0:0:0:0:
316,57,75880,1,2,0:0:0:0:
69,9,76062,6,0,B|60:80|102:121|102:121|39:137|26:201|26:201|92:225|111:287,1,360.000013732911,0|0,1:0|0:0,0:0:0:0:
275,193,76790,2,0,B|309:249|281:307|281:307|347:295|394:334|394:334|465:313|480:253,1,360.000013732911,8|0,1:2|0:0,0:0:0:0:
395,42,77517,6,0,B|385:87|402:126|402:126|394:165,1,120.000004577637,2|0,1:2|0:0,0:0:0:0:
174,254,77880,1,2,0:0:0:0:
243,24,78062,1,2,0:0:0:0:
320,251,78244,1,10,1:2:0:0:
127,107,78426,1,2,0:0:0:0:
367,100,78608,1,2,0:0:0:0:
174,254,78790,1,2,0:0:0:0:
367,100,78971,6,0,B|416:126|403:206|403:206|455:249|442:315,1,240.000009155274,0|0,1:0|0:0,0:0:0:0:
442,312,79699,2,0,B|378:296|336:348|336:348|281:310|222:339|222:339|169:229,1,360.000013732911,8|0,1:2|0:0,0:0:0:0:
75,32,80426,6,0,L|22:140,1,120.000004577637,2|0,1:2|0:0,0:0:0:0:
262,120,80789,1,2,0:0:0:0:
145,166,80971,1,2,0:0:0:0:
244,246,81153,2,0,B|281:272|326:258|326:258|360:265,1,120.000004577637,10|0,1:2|0:0,0:0:0:0:
130,343,81517,1,2,0:0:0:0:
258,355,81698,1,2,0:0:0:0:
3,332,81880,6,0,B|46:283|23:217|23:217|92:196|101:140|101:140|42:89|91:17,1,360.000013732911,0|0,1:0|0:0,0:0:0:0:
216,206,82608,2,0,B|164:250|200:317|200:317|254:291|308:318|308:318|350:251|295:204,1,360.000013732911,8|0,1:2|0:0,0:0:0:0:
395,57,83335,6,0,B|435:78|441:122|441:122|443:153|441:162,1,120.000004577637,2|0,1:2|0:0,0:0:0:0:
382,282,83698,1,2,0:0:0:0:
158,194,83880,1,2,0:0:0:0:
307,381,84062,1,10,1:2:0:0:
307,140,84244,1,2,0:0:0:0:
158,334,84426,1,2,0:0:0:0:
307,140,84608,1,2,0:0:0:0:
244,320,84790,5,0,1:2:0:0:
353,247,84971,1,8,0:0:0:0:
383,118,85153,1,0,0:0:0:0:
494,46,85335,5,0,1:0:0:0:
438,279,85517,1,8,1:2:0:0:
481,42,85699,1,0,1:0:0:0:
451,294,85880,1,0,1:0:0:0:
468,39,86062,1,0,1:0:0:0:
465,309,86244,5,6,1:2:0:0:
475,321,86607,1,2,0:0:0:0:
316,347,86789,1,0,0:0:0:0:
372,197,86971,5,10,1:2:0:0:
362,184,87334,1,0,0:0:0:0:
304,128,87516,1,0,0:0:0:0:
233,164,87698,1,2,1:2:0:0:
244,243,87880,1,0,0:0:0:0:
323,256,88062,1,2,0:0:0:0:
35,53,88425,5,10,1:2:0:0:
114,42,88789,1,2,0:0:0:0:
450,43,89153,5,2,1:2:0:0:
435,38,89516,1,0,0:0:0:0:
471,194,89698,1,0,0:0:0:0:
317,147,89880,5,10,1:2:0:0:
198,164,90062,1,0,0:0:0:0:
381,99,90244,5,2,0:0:0:0:
262,82,90426,1,0,0:0:0:0:
387,177,90607,5,2,1:2:0:0:
351,247,90789,1,0,0:0:0:0:
294,302,90971,1,2,0:0:0:0:
220,332,91153,1,0,0:0:0:0:
95,100,91334,5,10,1:2:0:0:
127,190,91516,1,0,0:0:0:0:
133,285,91698,1,2,0:0:0:0:
142,377,92062,5,2,1:2:0:0:
156,383,92425,1,0,0:0:0:0:
43,268,92607,1,0,0:0:0:0:
196,223,92789,5,10,1:2:0:0:
181,217,93152,1,0,0:0:0:0:
111,179,93334,1,0,0:0:0:0:
122,99,93516,1,2,1:2:0:0:
201,87,93698,1,0,0:0:0:0:
236,158,93880,1,2,0:0:0:0:
456,307,94244,5,10,1:2:0:0:
379,328,94607,1,2,2:0:0:0:
36,231,94971,5,2,1:2:0:0:
113,253,95153,1,0,0:0:0:0:
188,278,95334,1,2,0:0:0:0:
201,270,95698,5,10,1:2:0:0:
212,191,95880,1,0,0:0:0:0:
345,282,96062,1,2,0:0:0:0:
356,361,96244,1,0,0:0:0:0:
497,214,96425,5,2,1:2:0:0:
490,119,96607,1,0,0:0:0:0:
395,221,96789,1,2,0:0:0:0:
389,126,96971,1,0,1:0:0:0:
382,31,97153,1,8,1:2:0:0:
287,79,97335,5,0,1:0:0:0:
290,87,97699,1,0,1:0:0:0:
