osu file format v14

[General]
AudioFilename: audio.mp3
AudioLeadIn: 0
PreviewTime: 62244
Countdown: 0
SampleSet: Soft
StackLeniency: 0.3
Mode: 0
LetterboxInBreaks: 0
WidescreenStoryboard: 0

[Editor]
Bookmarks: 16426,28062,39699,97880
DistanceSpacing: 1.1
BeatDivisor: 4
GridSize: 4
TimelineZoom: 1

[Metadata]
Title:Phantasy
TitleUnicode:Phantasy
Artist:Amidst
ArtistUnicode:Amidst
Creator:ZLOdeuka-
Version:Hard
Source:
Tags:vincetlow yamakudzi shmiklak Future Bass
BeatmapID:1535742
BeatmapSetID:724594

[Difficulty]
HPDrainRate:5
CircleSize:4.3
OverallDifficulty:7
ApproachRate:8
SliderMultiplier:1.4
SliderTickRate:1

[Events]
//Background and Video events
0,0,"BG.jpg",0,0
//Break Periods
//Storyboard Layer 0 (Background)
//Storyboard Layer 1 (Fail)
//Storyboard Layer 2 (Pass)
//Storyboard Layer 3 (Foreground)
//Storyboard Sound Samples

[TimingPoints]
4790,363.636363636364,4,2,1,40,1,0
16426,-100,4,2,1,50,0,0
38244,-100,4,2,1,40,0,0
39699,-100,4,2,1,60,0,0
60790,-133.333333333333,4,2,1,60,0,0
61335,-133.333333333333,4,2,1,20,0,0
61517,-133.333333333333,4,2,1,5,0,0
61699,-133.333333333333,4,2,1,10,0,0
61880,-100,4,2,1,15,0,0
62062,-100,4,2,1,25,0,0
62608,-100,4,2,1,30,0,0
62790,-100,4,2,1,40,0,0
62971,-100,4,2,1,70,0,1
74517,-100,4,2,1,50,0,0
74608,-100,4,2,1,70,0,1
86244,-100,4,2,1,50,0,0

[Colours]
Combo1 : 247,244,155
Combo2 : 191,147,240
Combo3 : 255,64,64
Combo4 : 218,146,146

[HitObjects]
384,319,4790,5,2,0:0:0:0:
384,319,5153,1,0,0:0:0:0:
388,242,5335,1,0,0:0:0:0:
391,165,5517,1,2,0:0:0:0:
256,34,5880,1,0,0:0:0:0:
259,111,6062,1,0,0:0:0:0:
263,188,6244,5,2,0:0:0:0:
200,232,6426,1,0,0:0:0:0:
223,305,6608,1,2,0:0:0:0:
176,158,6971,1,2,0:0:0:0:
73,273,7335,1,2,0:0:0:0:
61,54,7699,5,2,0:0:0:0:
61,54,8062,2,0,L|130:49,1,70,2|0,0:0|0:0,0:0:0:0:
208,43,8426,1,2,0:0:0:0:
334,119,8608,1,2,0:0:0:0:
256,125,8790,2,0,L|187:130,1,70,2|0,0:0|0:0,0:0:0:0:
290,50,9153,5,2,0:0:0:0:
366,45,9335,1,0,0:0:0:0:
417,102,9517,1,2,0:0:0:0:
401,177,9699,1,0,0:0:0:0:
283,206,9880,5,2,0:0:0:0:
299,281,10062,1,0,0:0:0:0:
316,355,10244,1,2,0:0:0:0:
67,336,10608,5,2,0:0:0:0:
67,336,10971,1,0,0:0:0:0:
77,259,11152,1,0,0:0:0:0:
85,181,11334,1,2,0:0:0:0:
256,35,11699,1,0,0:0:0:0:
264,113,11881,1,0,0:0:0:0:
274,190,12062,5,2,0:0:0:0:
335,143,12244,1,0,0:0:0:0:
395,190,12426,1,2,0:0:0:0:
334,331,12790,1,2,0:0:0:0:
487,317,13153,1,2,0:0:0:0:
273,274,13517,5,2,0:0:0:0:
195,267,13699,1,0,0:0:0:0:
118,260,13880,1,2,0:0:0:0:
118,260,14244,2,0,L|127:188,1,70,2|0,0:0|0:0,0:0:0:0:
214,120,14608,2,0,L|205:192,1,70,2|0,0:0|0:0,0:0:0:0:
134,109,14971,5,2,0:0:0:0:
181,48,15153,1,0,0:0:0:0:
256,33,15335,1,2,0:0:0:0:
331,48,15517,1,0,0:0:0:0:
377,109,15699,1,2,0:0:0:0:
118,128,16426,5,10,0:0:0:0:
118,128,16790,1,8,0:0:0:0:
95,201,16971,1,0,0:0:0:0:
95,278,17153,1,10,0:0:0:0:
324,314,17517,1,10,0:0:0:0:
347,241,17698,1,0,0:0:0:0:
347,164,17880,5,10,0:0:0:0:
382,95,18062,1,0,0:0:0:0:
454,120,18244,1,10,0:0:0:0:
453,274,18608,1,10,0:0:0:0:
453,274,18790,1,8,0:0:0:0:
453,274,18971,1,10,0:0:0:0:
255,349,19335,5,10,0:0:0:0:
255,349,19699,1,8,0:0:0:0:
188,310,19880,1,0,0:0:0:0:
110,310,20062,1,10,0:0:0:0:
110,310,20244,1,0,0:0:0:0:
149,243,20425,1,10,0:0:0:0:
149,165,20607,1,0,0:0:0:0:
104,50,20790,5,10,0:0:0:0:
180,58,20971,1,0,0:0:0:0:
300,120,21153,1,10,0:0:0:0:
224,128,21334,1,0,0:0:0:0:
103,189,21517,1,10,0:0:0:0:
179,197,21698,1,8,0:0:0:0:
179,197,21880,1,10,0:0:0:0:
179,197,22062,1,8,0:0:0:0:
256,296,22244,5,10,0:0:0:0:
256,296,22608,1,8,0:0:0:0:
332,305,22790,1,0,0:0:0:0:
398,343,22972,1,10,0:0:0:0:
494,194,23335,1,10,0:0:0:0:
418,185,23517,1,0,0:0:0:0:
352,147,23699,5,10,0:0:0:0:
370,72,23880,1,0,0:0:0:0:
314,18,24062,1,10,0:0:0:0:
200,122,24426,1,10,0:0:0:0:
200,122,24608,1,8,0:0:0:0:
200,122,24790,1,10,0:0:0:0:
72,296,25153,5,10,0:0:0:0:
69,218,25335,1,0,0:0:0:0:
65,141,25517,1,10,0:0:0:0:
65,141,25699,1,8,0:0:0:0:
128,97,25880,5,10,0:0:0:0:
128,97,26062,1,0,0:0:0:0:
232,119,26244,1,10,0:0:0:0:
169,163,26426,1,0,0:0:0:0:
192,52,26608,5,10,0:0:0:0:
269,51,26790,1,8,0:0:0:0:
309,115,26971,1,10,0:0:0:0:
273,183,27153,1,0,0:0:0:0:
230,247,27335,1,10,0:0:0:0:
257,319,27517,1,8,0:0:0:0:
257,319,27699,1,8,0:0:0:0:
444,205,28062,5,12,1:2:0:0:
425,130,28244,1,0,0:0:0:0:
444,205,28426,1,8,0:0:0:0:
254,191,28790,5,8,0:0:0:0:
254,114,28971,1,0,0:0:0:0:
254,191,29153,1,8,0:0:0:0:
68,205,29517,5,8,0:0:0:0:
87,130,29699,1,0,0:0:0:0:
68,205,29881,1,8,0:0:0:0:
83,280,30062,5,0,0:0:0:0:
159,271,30244,1,8,0:0:0:0:
159,271,30426,1,8,0:0:0:0:
235,280,30608,1,8,0:0:0:0:
235,280,30790,1,8,0:0:0:0:
331,349,30971,5,8,0:0:0:0:
407,341,31153,1,0,0:0:0:0:
331,349,31335,1,8,0:0:0:0:
255,191,31699,5,8,0:0:0:0:
177,192,31881,1,0,0:0:0:0:
255,191,32063,1,8,0:0:0:0:
331,35,32426,5,8,0:0:0:0:
407,43,32608,1,0,0:0:0:0:
331,35,32790,1,8,0:0:0:0:
256,53,32971,5,0,0:0:0:0:
180,35,33153,1,8,0:0:0:0:
173,37,33244,1,8,0:0:0:0:
166,40,33335,1,8,0:0:0:0:
106,100,33517,2,0,L|117:135,2,35,8|8|8,0:0|0:0|0:0,0:0:0:0:
23,119,33880,5,8,0:0:0:0:
49,191,34062,1,0,0:0:0:0:
23,263,34244,1,8,0:0:0:0:
49,335,34426,1,0,0:0:0:0:
123,356,34608,1,8,0:0:0:0:
130,358,34699,1,8,0:0:0:0:
137,361,34790,1,8,0:0:0:0:
213,333,34971,2,0,L|202:298,2,35,8|8|8,0:0|0:0|0:0,0:0:0:0:
294,359,35335,5,8,0:0:0:0:
322,287,35517,1,0,0:0:0:0:
304,211,35699,1,8,0:0:0:0:
236,175,35880,1,0,0:0:0:0:
161,192,36062,5,8,0:0:0:0:
158,185,36153,1,8,0:0:0:0:
155,178,36244,1,8,0:0:0:0:
141,89,36426,2,8,L|106:82,2,35
210,35,36790,5,8,0:0:0:0:
278,69,36971,1,0,0:0:0:0:
355,69,37153,1,8,0:0:0:0:
355,69,37335,1,0,0:0:0:0:
318,136,37517,5,8,0:0:0:0:
304,211,37698,1,0,0:0:0:0:
308,287,37880,1,8,0:0:0:0:
308,287,38062,1,0,0:0:0:0:
256,192,38244,12,0,39335,3:0:0:0:
379,331,39699,6,0,B|394:284|372:240|372:240|412:184|372:132,1,210,4|0,1:0|0:0,0:0:0:0:
316,185,40426,1,8,0:0:0:0:
256,233,40608,1,0,0:0:0:0:
195,185,40790,1,0,0:0:0:0:
256,138,40971,1,0,1:0:0:0:
256,60,41153,6,0,B|199:41|159:80|159:80|141:24|77:24,1,210,0|0,1:0|0:0,0:0:0:0:
87,100,41880,1,8,0:0:0:0:
102,175,42062,1,0,1:0:0:0:
146,237,42244,1,0,0:0:0:0:
218,263,42426,1,0,1:0:0:0:
295,263,42608,6,0,B|331:303|319:363|319:363|363:338|423:348,1,210,0|0,1:0|0:0,0:0:0:0:
495,358,43335,1,8,0:0:0:0:
466,286,43517,1,0,0:0:0:0:
453,209,43699,1,0,0:0:0:0:
457,132,43880,1,0,1:0:0:0:
478,58,44062,5,0,1:0:0:0:
478,58,44426,1,2,0:0:0:0:
478,58,44790,2,0,B|416:13|349:58|349:58|318:37|278:42,1,210,8|0,0:0|0:0,0:0:0:0:
291,146,45517,6,0,L|321:164,2,35,0|0|0,1:0|0:0|0:0,0:0:0:0:
256,245,45880,2,0,L|272:275,2,35,0|0|0,0:0|0:0|0:0,0:0:0:0:
159,288,46244,2,0,L|158:322,2,35,8|0|0,0:0|0:0|0:0,0:0:0:0:
55,264,46608,2,0,L|37:294,2,35,0|0|0,0:0|0:0|1:0,0:0:0:0:
127,187,46971,6,0,P|133:169|137:149,2,35,0|0|0,1:0|0:0|0:0,0:0:0:0:
225,148,47335,2,0,P|221:129|214:110,2,35,0|0|0,0:0|0:0|0:0,0:0:0:0:
292,66,47699,2,0,P|279:51|264:38,2,35,8|0|0,0:0|0:0|1:0,0:0:0:0:
327,165,48062,2,0,P|339:179|354:192,2,35,0|0|0,0:0|0:0|1:0,0:0:0:0:
395,84,48426,6,0,L|426:62,2,35,0|0|0,1:0|0:0|0:0,0:0:0:0:
447,149,48790,2,0,L|478:127,2,35,0|0|0,0:0|0:0|0:0,0:0:0:0:
497,215,49153,1,8,0:0:0:0:
497,215,49699,1,0,1:0:0:0:
458,281,49880,6,0,P|456:316|447:349,1,70,0|8,1:0|0:0,0:0:0:0:
256,352,50426,1,0,1:0:0:0:
193,307,50608,2,0,P|195:272|204:239,1,70,8|0,0:0|1:0,0:0:0:0:
256,57,51153,1,0,1:0:0:0:
256,57,51335,6,0,B|309:38|352:80|352:80|336:140|382:173,1,210,4|0,1:0|0:0,0:0:0:0:
424,109,52062,1,8,0:0:0:0:
478,163,52244,1,0,0:0:0:0:
491,238,52426,1,0,0:0:0:0:
466,310,52608,1,0,1:0:0:0:
390,303,52790,6,0,B|335:300|297:341|297:341|249:306|260:247,1,210,0|0,1:0|0:0,0:0:0:0:
283,175,53517,1,8,0:0:0:0:
307,101,53699,1,0,1:0:0:0:
286,27,53880,1,0,0:0:0:0:
208,27,54062,1,0,1:0:0:0:
188,101,54244,6,0,B|154:139|91:128|91:128|116:184|91:229,1,210,0|0,1:0|0:0,0:0:0:0:
46,291,54971,1,8,0:0:0:0:
122,298,55153,1,0,0:0:0:0:
197,280,55335,1,0,0:0:0:0:
256,230,55517,1,0,1:0:0:0:
256,152,55699,5,0,1:0:0:0:
256,152,56062,1,2,0:0:0:0:
256,152,56426,2,0,B|320:110|343:47|343:47|380:53|415:47,1,210,8|0,0:0|0:0,0:0:0:0:
439,149,57153,6,0,P|456:152|477:155,2,35,0|0|0,1:0|0:0|0:0,0:0:0:0:
393,244,57517,2,0,P|406:255|422:268,2,35,0|0|0,0:0|0:0|0:0,0:0:0:0:
310,308,57880,2,0,P|315:324|323:343,2,35,8|0|0,0:0|0:0|0:0,0:0:0:0:
205,320,58244,2,0,P|202:336|199:358,2,35,0|0|0,0:0|0:0|1:0,0:0:0:0:
246,222,58608,6,0,L|238:184,2,35,0|0|0,1:0|0:0|0:0,0:0:0:0:
143,198,58971,2,0,L|155:161,2,35,0|0|0,0:0|0:0|0:0,0:0:0:0:
54,139,59335,2,0,L|82:113,2,35,8|0|0,0:0|0:0|1:0,0:0:0:0:
49,244,59699,2,0,L|20:269,2,35,0|0|0,0:0|0:0|1:0,0:0:0:0:
117,318,60062,6,0,L|116:352,2,35,0|0|0,1:0|0:0|0:0,0:0:0:0:
195,349,60426,2,0,L|195:384,2,35,0|0|0,0:0|0:0|0:0,0:0:0:0:
294,338,60790,6,0,L|398:332,1,105.000004005432,8|0,0:0|0:0,0:0:0:0:
484,193,61517,2,0,L|380:187,1,105.000004005432,0|0,1:0|1:0,0:0:0:0:
351,186,62062,5,0,1:0:0:0:
308,184,62244,1,0,1:0:0:0:
254,201,62426,1,0,1:0:0:0:
208,254,62608,1,0,1:0:0:0:
191,336,62790,1,0,1:0:0:0:
286,313,62971,6,0,B|334:292|371:324|371:324|408:310|448:325|448:325|489:317,1,210,4|0,1:0|0:0,0:0:0:0:
469,234,63699,2,0,B|456:204|453:168|453:168|481:145|507:130|507:130|500:88|476:57,1,210,8|0,1:2|0:0,0:0:0:0:
396,76,64426,6,0,B|324:85|257:69|257:69|230:97|191:94,1,210,0|0,1:0|0:0,0:0:0:0:
196,10,65153,2,0,P|119:52|141:160,1,210,8|0,1:2|0:0,0:0:0:0:
210,201,65880,6,0,B|235:248|218:303|218:303|259:264|317:268,1,210,0|0,1:0|0:0,0:0:0:0:
392,297,66608,2,0,P|279:281|199:335,1,210,8|0,1:2|0:0,0:0:0:0:
118,334,67335,6,0,B|106:287|131:247|131:247|117:197,1,140,0|0,1:0|0:0,0:0:0:0:
117,199,68062,2,0,B|109:124|186:109|186:109|217:69|259:75|259:75,1,210,8|0,1:2|0:0,0:0:0:0:
254,159,68790,6,0,B|260:214|320:234|320:234|353:285|325:332,1,210,0|0,1:0|0:0,0:0:0:0:
409,335,69517,2,0,B|421:274|401:223|401:223|484:278,1,210,8|0,1:2|0:0,0:0:0:0:
488,192,70244,6,0,B|428:153|428:153|431:120|445:87|445:87|386:48,1,210,0|0,1:0|0:0,0:0:0:0:
302,48,70971,2,0,B|243:87|243:87|180:143|117:99,1,210,8|0,1:2|0:0,0:0:0:0:
173,35,71699,6,0,B|111:-9|48:44|48:44|35:115,1,210,0|0,1:0|0:0,0:0:0:0:
77,188,72426,2,0,B|90:259|90:259|135:252|171:283|171:283|225:283,1,210,8|0,1:2|0:0,0:0:0:0:
304,269,73153,5,0,1:0:0:0:
387,278,73335,1,8,0:0:0:0:
465,308,73517,1,0,0:0:0:0:
386,284,73699,1,0,1:0:0:0:
221,283,73880,5,8,0:0:0:0:
188,205,74062,1,0,1:0:0:0:
181,121,74244,1,8,1:2:0:0:
205,40,74426,1,0,1:0:0:0:
297,159,74608,6,0,P|331:151|366:139,1,70,4|0,1:0|0:0,0:0:0:0:
411,71,74971,1,2,0:0:0:0:
445,147,75153,1,2,0:0:0:0:
457,230,75335,2,0,P|456:265|450:299,1,70,10|0,1:2|0:0,0:0:0:0:
366,288,75699,1,2,0:0:0:0:
283,300,75880,1,2,0:0:0:0:
211,344,76062,6,0,B|169:352|133:325|133:325|110:288|72:273|72:273|56:230,1,210,0|0,1:0|0:0,0:0:0:0:
139,214,76790,2,0,B|132:150|132:150|197:102|160:38|234:33,1,210,8|0,1:2|0:0,0:0:0:0:
299,37,77517,6,0,B|354:38|318:87|388:69|388:69,1,70,2|0,1:2|0:0,0:0:0:0:
435,101,77880,1,2,0:0:0:0:
489,37,78062,1,2,0:0:0:0:
435,101,78244,2,0,P|430:144|434:171,1,70,10|2,1:2|0:0,0:0:0:0:
443,254,78608,1,2,0:0:0:0:
487,325,78790,1,2,0:0:0:0:
443,254,78971,6,0,B|397:248|356:282|356:282|343:259|309:227|309:227,1,140,0|0,1:0|0:0,0:0:0:0:
327,246,79699,2,0,B|293:206|256:148|256:148|235:189|199:217,1,210,8|0,1:2|0:0,0:0:0:0:
124,253,80426,6,0,P|95:233|69:205,1,70,2|0,1:2|0:0,0:0:0:0:
46,127,80790,1,2,0:0:0:0:
92,57,80971,1,2,0:0:0:0:
175,48,81153,2,0,L|246:64,1,70,10|0,1:2|0:0,0:0:0:0:
325,83,81517,1,2,0:0:0:0:
407,101,81699,1,2,0:0:0:0:
351,163,81880,6,0,B|327:224|313:296|313:296|287:264|258:252,1,210,0|0,1:0|0:0,0:0:0:0:
173,248,82608,2,0,P|219:257|321:375,1,210,8|0,1:2|0:0,0:0:0:0:
404,368,83335,6,0,L|417:300,1,70,2|0,1:2|0:0,0:0:0:0:
431,215,83699,1,2,0:0:0:0:
420,131,83880,1,2,0:0:0:0:
388,53,84062,2,0,P|350:49|317:52,1,70,10|2,1:2|0:0,0:0:0:0:
242,88,84426,1,2,0:0:0:0:
158,99,84608,1,2,0:0:0:0:
74,88,84790,5,0,1:2:0:0:
67,171,84971,1,8,0:0:0:0:
156,264,85153,1,0,0:0:0:0:
149,181,85335,1,0,1:0:0:0:
72,256,85517,5,8,1:2:0:0:
107,332,85699,1,0,1:0:0:0:
190,340,85880,1,0,1:0:0:0:
239,271,86062,1,0,1:0:0:0:
203,194,86244,5,6,1:2:0:0:
203,194,86608,1,2,0:0:0:0:
214,117,86790,1,0,0:0:0:0:
225,41,86971,1,10,1:2:0:0:
287,192,87335,1,0,0:0:0:0:
298,268,87516,1,0,0:0:0:0:
309,345,87698,5,2,1:2:0:0:
381,319,87880,1,0,0:0:0:0:
453,345,88062,1,2,0:0:0:0:
478,192,88426,1,10,1:2:0:0:
453,39,88790,1,2,0:0:0:0:
334,137,89153,5,2,1:2:0:0:
334,137,89517,1,0,0:0:0:0:
258,152,89699,1,0,0:0:0:0:
182,137,89880,1,10,1:2:0:0:
68,186,90062,1,0,0:0:0:0:
138,211,90243,1,2,0:0:0:0:
195,264,90425,1,0,0:0:0:0:
317,264,90608,5,2,1:2:0:0:
374,211,90790,1,0,0:0:0:0:
444,186,90971,1,2,0:0:0:0:
444,263,91153,1,0,0:0:0:0:
444,108,91335,1,10,1:2:0:0:
444,108,91517,1,0,0:0:0:0:
444,108,91699,1,2,0:0:0:0:
168,67,92062,5,2,1:2:0:0:
168,67,92426,1,0,0:0:0:0:
148,141,92608,1,0,0:0:0:0:
142,217,92790,1,10,1:2:0:0:
344,317,93153,1,0,0:0:0:0:
364,243,93335,1,0,0:0:0:0:
370,167,93517,5,2,1:2:0:0:
297,141,93699,1,0,0:0:0:0:
355,91,93880,1,2,0:0:0:0:
256,209,94244,1,10,1:2:0:0:
157,91,94608,1,2,2:0:0:0:
256,192,94971,12,0,97880,0:0:0:0:
