osu file format v14

[General]
AudioFilename: audio.mp3
AudioLeadIn: 0
PreviewTime: 62244
Countdown: 0
SampleSet: Soft
StackLeniency: 0.3
Mode: 0
LetterboxInBreaks: 0
EpilepsyWarning: 1
WidescreenStoryboard: 1

[Editor]
Bookmarks: 4790,16426,28062,39699,51335,62971,74608,86244,97880
DistanceSpacing: 1
BeatDivisor: 4
GridSize: 4
TimelineZoom: 0.8999999

[Metadata]
Title:Phantasy
TitleUnicode:Phantasy
Artist:Amidst
ArtistUnicode:Amidst
Creator:ZLOdeuka-
Version:Collab Insane
Source:
Tags:vincetlow yamakudzi shmiklak Future Bass
BeatmapID:1530899
BeatmapSetID:724594

[Difficulty]
HPDrainRate:6
CircleSize:4.2
OverallDifficulty:7.5
ApproachRate:8.5
SliderMultiplier:1.4
SliderTickRate:1

[Events]
//Background and Video events
0,0,"BG.jpg",0,0
//Break Periods
//Storyboard Layer 0 (Background)
//Storyboard Layer 1 (Fail)
//Storyboard Layer 2 (Pass)
//Storyboard Layer 3 (Foreground)
Sprite,Foreground,Centre,"SB\white.jpg",320,450 C,0,4790,,0,0,0 V,0,4790,,3.948129,0.2485162 F,0,4790,5153,0,0.75 F,0,97880,98244,0.75,0
Sprite,Foreground,Centre,"Lyrics\Su.png",320,240 C,0,4790,,255,255,255 P,0,4790,,A F,0,4790,4940,0,1 S,2,4790,5182,0.5,0.6 MX,0,4790,16426,292.63 MY,0,4790,16426,450 S,2,5182,5574,0.6,0.5 F,0,16276,16426,1,0
Sprite,Foreground,Centre,"Lyrics\h.png",320,240 C,0,4888,,255,255,255 P,0,4888,,A F,0,4888,5038,0,1 S,2,4888,5280,0.5,0.6 MX,0,4888,16426,307.63 MY,0,4888,16426,450 S,2,5280,5672,0.6,0.5 F,0,16276,16426,1,0
Sprite,Foreground,Centre,"Lyrics\m.png",320,240 C,0,4986,,255,255,255 P,0,4986,,A F,0,4986,5136,0,1 S,2,4986,5378,0.5,0.6 MX,0,4986,16426,325.18 MY,0,4986,16426,450 S,2,5378,5770,0.6,0.5 F,0,16276,16426,1,0
Sprite,Foreground,Centre,"Lyrics\i.png",320,240 C,0,5084,,255,255,255 P,0,5084,,A F,0,5084,5234,0,1 S,2,5084,5476,0.5,0.6 MX,0,5084,16426,339.78 MY,0,5084,16426,450 S,2,5476,5868,0.6,0.5 F,0,16276,16426,1,0
Sprite,Foreground,Centre,"Lyrics\k.png",320,240 C,0,5182,,255,255,255 P,0,5182,,A F,0,5182,5332,0,1 S,2,5182,5574,0.5,0.6 MX,0,5182,16426,351.93 MY,0,5182,16426,450 S,2,5574,5966,0.6,0.5 F,0,16276,16426,1,0
Sprite,Foreground,Centre,"Lyrics\l.png",320,240 C,0,5280,,255,255,255 P,0,5280,,A F,0,5280,5430,0,1 S,2,5280,5672,0.5,0.6 MX,0,5280,16426,363.78 MY,0,5280,16426,450 S,2,5672,6064,0.6,0.5 F,0,16276,16426,1,0
Sprite,Foreground,Centre,"Lyrics\a.png",320,240 C,0,5378,,255,255,255 P,0,5378,,A F,0,5378,5528,0,1 S,2,5378,5770,0.5,0.6 MX,0,5378,16426,376.08 MY,0,5378,16426,450 S,2,5770,6162,0.6,0.5 F,0,16276,16426,1,0
Sprite,Foreground,Centre,"Lyrics\k.png",320,240 C,0,5476,,255,255,255 P,0,5476,,A F,0,5476,5626,0,1 S,2,5476,5868,0.5,0.6 MX,0,5476,16426,390.03 MY,0,5476,16426,450 S,2,5868,6260,0.6,0.5 F,0,16276,16426,1,0
Sprite,Foreground,Centre,"Lyrics\Zu.png",320,240 C,0,16426,,255,255,255 P,0,16426,,A F,0,16426,16576,0,1 S,2,16426,16818,0.5,0.6 MX,0,16426,28062,282.565 MY,0,16426,28062,450 S,2,16818,17210,0.6,0.5 F,0,27912,28062,1,0
Sprite,Foreground,Centre,"Lyrics\Lu.png",320,240 C,0,16524,,255,255,255 P,0,16524,,A F,0,16524,16674,0,1 S,2,16524,16916,0.5,0.6 MX,0,16524,28062,297.115 MY,0,16524,28062,450 S,2,16916,17308,0.6,0.5 F,0,27912,28062,1,0
Sprite,Foreground,Centre,"Lyrics\Ou.png",320,240 C,0,16622,,255,255,255 P,0,16622,,A F,0,16622,16772,0,1 S,2,16622,17014,0.5,0.6 MX,0,16622,28062,311.865 MY,0,16622,28062,450 S,2,17014,17406,0.6,0.5 F,0,27912,28062,1,0
Sprite,Foreground,Centre,"Lyrics\d.png",320,240 C,0,16720,,255,255,255 P,0,16720,,A F,0,16720,16870,0,1 S,2,16720,17112,0.5,0.6 MX,0,16720,28062,327.165 MY,0,16720,28062,450 S,2,17112,17504,0.6,0.5 F,0,27912,28062,1,0
Sprite,Foreground,Centre,"Lyrics\e.png",320,240 C,0,16818,,255,255,255 P,0,16818,,A F,0,16818,16968,0,1 S,2,16818,17210,0.5,0.6 MX,0,16818,28062,341.115 MY,0,16818,28062,450 S,2,17210,17602,0.6,0.5 F,0,27912,28062,1,0
Sprite,Foreground,Centre,"Lyrics\u.png",320,240 C,0,16916,,255,255,255 P,0,16916,,A F,0,16916,17066,0,1 S,2,16916,17308,0.5,0.6 MX,0,16916,28062,355.265 MY,0,16916,28062,450 S,2,17308,17700,0.6,0.5 F,0,27912,28062,1,0
Sprite,Foreground,Centre,"Lyrics\k.png",320,240 C,0,17014,,255,255,255 P,0,17014,,A F,0,17014,17164,0,1 S,2,17014,17406,0.5,0.6 MX,0,17014,28062,369.265 MY,0,17014,28062,450 S,2,17406,17798,0.6,0.5 F,0,27912,28062,1,0
Sprite,Foreground,Centre,"Lyrics\a.png",320,240 C,0,17112,,255,255,255 P,0,17112,,A F,0,17112,17262,0,1 S,2,17112,17504,0.5,0.6 MX,0,17112,28062,382.965 MY,0,17112,28062,450 S,2,17504,17896,0.6,0.5 F,0,27912,28062,1,0
Sprite,Foreground,Centre,"Lyrics\45.png",320,240 C,0,17210,,255,255,255 P,0,17210,,A F,0,17210,17360,0,1 S,2,17210,17602,0.5,0.6 MX,0,17210,28062,396.515 MY,0,17210,28062,450 S,2,17602,17994,0.6,0.5 F,0,27912,28062,1,0
Sprite,Foreground,Centre,"Lyrics\Su.png",320,240 C,0,28062,,255,255,255 P,0,28062,,A F,0,28062,28212,0,1 S,2,28062,28454,0.5,0.6 MX,0,28062,39699,292.63 MY,0,28062,39699,450 S,2,28454,28846,0.6,0.5 F,0,39549,39699,1,0
Sprite,Foreground,Centre,"Lyrics\h.png",320,240 C,0,28160,,255,255,255 P,0,28160,,A F,0,28160,28310,0,1 S,2,28160,28552,0.5,0.6 MX,0,28160,39699,307.63 MY,0,28160,39699,450 S,2,28552,28944,0.6,0.5 F,0,39549,39699,1,0
Sprite,Foreground,Centre,"Lyrics\m.png",320,240 C,0,28258,,255,255,255 P,0,28258,,A F,0,28258,28408,0,1 S,2,28258,28650,0.5,0.6 MX,0,28258,39699,325.18 MY,0,28258,39699,450 S,2,28650,29042,0.6,0.5 F,0,39549,39699,1,0
Sprite,Foreground,Centre,"Lyrics\i.png",320,240 C,0,28356,,255,255,255 P,0,28356,,A F,0,28356,28506,0,1 S,2,28356,28748,0.5,0.6 MX,0,28356,39699,339.78 MY,0,28356,39699,450 S,2,28748,29140,0.6,0.5 F,0,39549,39699,1,0
Sprite,Foreground,Centre,"Lyrics\k.png",320,240 C,0,28454,,255,255,255 P,0,28454,,A F,0,28454,28604,0,1 S,2,28454,28846,0.5,0.6 MX,0,28454,39699,351.93 MY,0,28454,39699,450 S,2,28846,29238,0.6,0.5 F,0,39549,39699,1,0
Sprite,Foreground,Centre,"Lyrics\l.png",320,240 C,0,28552,,255,255,255 P,0,28552,,A F,0,28552,28702,0,1 S,2,28552,28944,0.5,0.6 MX,0,28552,39699,363.78 MY,0,28552,39699,450 S,2,28944,29336,0.6,0.5 F,0,39549,39699,1,0
Sprite,Foreground,Centre,"Lyrics\a.png",320,240 C,0,28650,,255,255,255 P,0,28650,,A F,0,28650,28800,0,1 S,2,28650,29042,0.5,0.6 MX,0,28650,39699,376.08 MY,0,28650,39699,450 S,2,29042,29434,0.6,0.5 F,0,39549,39699,1,0
Sprite,Foreground,Centre,"Lyrics\k.png",320,240 C,0,28748,,255,255,255 P,0,28748,,A F,0,28748,28898,0,1 S,2,28748,29140,0.5,0.6 MX,0,28748,39699,390.03 MY,0,28748,39699,450 S,2,29140,29532,0.6,0.5 F,0,39549,39699,1,0
Sprite,Foreground,Centre,"Lyrics\Zu.png",320,240 C,0,39699,,255,255,255 P,0,39699,,A F,0,39699,39849,0,1 S,2,39699,40091,0.5,0.6 MX,0,39699,51335,282.565 MY,0,39699,51335,450 S,2,40091,40483,0.6,0.5 F,0,51185,51335,1,0
Sprite,Foreground,Centre,"Lyrics\Lu.png",320,240 C,0,39797,,255,255,255 P,0,39797,,A F,0,39797,39947,0,1 S,2,39797,40189,0.5,0.6 MX,0,39797,51335,297.115 MY,0,39797,51335,450 S,2,40189,40581,0.6,0.5 F,0,51185,51335,1,0
Sprite,Foreground,Centre,"Lyrics\Ou.png",320,240 C,0,39895,,255,255,255 P,0,39895,,A F,0,39895,40045,0,1 S,2,39895,40287,0.5,0.6 MX,0,39895,51335,311.865 MY,0,39895,51335,450 S,2,40287,40679,0.6,0.5 F,0,51185,51335,1,0
Sprite,Foreground,Centre,"Lyrics\d.png",320,240 C,0,39993,,255,255,255 P,0,39993,,A F,0,39993,40143,0,1 S,2,39993,40385,0.5,0.6 MX,0,39993,51335,327.165 MY,0,39993,51335,450 S,2,40385,40777,0.6,0.5 F,0,51185,51335,1,0
Sprite,Foreground,Centre,"Lyrics\e.png",320,240 C,0,40091,,255,255,255 P,0,40091,,A F,0,40091,40241,0,1 S,2,40091,40483,0.5,0.6 MX,0,40091,51335,341.115 MY,0,40091,51335,450 S,2,40483,40875,0.6,0.5 F,0,51185,51335,1,0
Sprite,Foreground,Centre,"Lyrics\u.png",320,240 C,0,40189,,255,255,255 P,0,40189,,A F,0,40189,40339,0,1 S,2,40189,40581,0.5,0.6 MX,0,40189,51335,355.265 MY,0,40189,51335,450 S,2,40581,40973,0.6,0.5 F,0,51185,51335,1,0
Sprite,Foreground,Centre,"Lyrics\k.png",320,240 C,0,40287,,255,255,255 P,0,40287,,A F,0,40287,40437,0,1 S,2,40287,40679,0.5,0.6 MX,0,40287,51335,369.265 MY,0,40287,51335,450 S,2,40679,41071,0.6,0.5 F,0,51185,51335,1,0
Sprite,Foreground,Centre,"Lyrics\a.png",320,240 C,0,40385,,255,255,255 P,0,40385,,A F,0,40385,40535,0,1 S,2,40385,40777,0.5,0.6 MX,0,40385,51335,382.965 MY,0,40385,51335,450 S,2,40777,41169,0.6,0.5 F,0,51185,51335,1,0
Sprite,Foreground,Centre,"Lyrics\45.png",320,240 C,0,40483,,255,255,255 P,0,40483,,A F,0,40483,40633,0,1 S,2,40483,40875,0.5,0.6 MX,0,40483,51335,396.515 MY,0,40483,51335,450 S,2,40875,41267,0.6,0.5 F,0,51185,51335,1,0
Sprite,Foreground,Centre,"Lyrics\Su.png",320,240 C,0,51335,,255,255,255 P,0,51335,,A F,0,51335,51485,0,1 S,2,51335,51727,0.5,0.6 MX,0,51335,62971,292.63 MY,0,51335,62971,450 S,2,51727,52119,0.6,0.5 F,0,62821,62971,1,0
Sprite,Foreground,Centre,"Lyrics\h.png",320,240 C,0,51433,,255,255,255 P,0,51433,,A F,0,51433,51583,0,1 S,2,51433,51825,0.5,0.6 MX,0,51433,62971,307.63 MY,0,51433,62971,450 S,2,51825,52217,0.6,0.5 F,0,62821,62971,1,0
Sprite,Foreground,Centre,"Lyrics\m.png",320,240 C,0,51531,,255,255,255 P,0,51531,,A F,0,51531,51681,0,1 S,2,51531,51923,0.5,0.6 MX,0,51531,62971,325.18 MY,0,51531,62971,450 S,2,51923,52315,0.6,0.5 F,0,62821,62971,1,0
Sprite,Foreground,Centre,"Lyrics\i.png",320,240 C,0,51629,,255,255,255 P,0,51629,,A F,0,51629,51779,0,1 S,2,51629,52021,0.5,0.6 MX,0,51629,62971,339.78 MY,0,51629,62971,450 S,2,52021,52413,0.6,0.5 F,0,62821,62971,1,0
Sprite,Foreground,Centre,"Lyrics\k.png",320,240 C,0,51727,,255,255,255 P,0,51727,,A F,0,51727,51877,0,1 S,2,51727,52119,0.5,0.6 MX,0,51727,62971,351.93 MY,0,51727,62971,450 S,2,52119,52511,0.6,0.5 F,0,62821,62971,1,0
Sprite,Foreground,Centre,"Lyrics\l.png",320,240 C,0,51825,,255,255,255 P,0,51825,,A F,0,51825,51975,0,1 S,2,51825,52217,0.5,0.6 MX,0,51825,62971,363.78 MY,0,51825,62971,450 S,2,52217,52609,0.6,0.5 F,0,62821,62971,1,0
Sprite,Foreground,Centre,"Lyrics\a.png",320,240 C,0,51923,,255,255,255 P,0,51923,,A F,0,51923,52073,0,1 S,2,51923,52315,0.5,0.6 MX,0,51923,62971,376.08 MY,0,51923,62971,450 S,2,52315,52707,0.6,0.5 F,0,62821,62971,1,0
Sprite,Foreground,Centre,"Lyrics\k.png",320,240 C,0,52021,,255,255,255 P,0,52021,,A F,0,52021,52171,0,1 S,2,52021,52413,0.5,0.6 MX,0,52021,62971,390.03 MY,0,52021,62971,450 S,2,52413,52805,0.6,0.5 F,0,62821,62971,1,0
Sprite,Foreground,Centre,"Lyrics\Zu.png",320,240 C,0,62971,,255,255,255 P,0,62971,,A F,0,62971,63121,0,1 S,2,62971,63363,0.5,0.6 MX,0,62971,74608,282.565 MY,0,62971,74608,450 S,2,63363,63755,0.6,0.5 F,0,74458,74608,1,0
Sprite,Foreground,Centre,"Lyrics\Lu.png",320,240 C,0,63069,,255,255,255 P,0,63069,,A F,0,63069,63219,0,1 S,2,63069,63461,0.5,0.6 MX,0,63069,74608,297.115 MY,0,63069,74608,450 S,2,63461,63853,0.6,0.5 F,0,74458,74608,1,0
Sprite,Foreground,Centre,"Lyrics\Ou.png",320,240 C,0,63167,,255,255,255 P,0,63167,,A F,0,63167,63317,0,1 S,2,63167,63559,0.5,0.6 MX,0,63167,74608,311.865 MY,0,63167,74608,450 S,2,63559,63951,0.6,0.5 F,0,74458,74608,1,0
Sprite,Foreground,Centre,"Lyrics\d.png",320,240 C,0,63265,,255,255,255 P,0,63265,,A F,0,63265,63415,0,1 S,2,63265,63657,0.5,0.6 MX,0,63265,74608,327.165 MY,0,63265,74608,450 S,2,63657,64049,0.6,0.5 F,0,74458,74608,1,0
Sprite,Foreground,Centre,"Lyrics\e.png",320,240 C,0,63363,,255,255,255 P,0,63363,,A F,0,63363,63513,0,1 S,2,63363,63755,0.5,0.6 MX,0,63363,74608,341.115 MY,0,63363,74608,450 S,2,63755,64147,0.6,0.5 F,0,74458,74608,1,0
Sprite,Foreground,Centre,"Lyrics\u.png",320,240 C,0,63461,,255,255,255 P,0,63461,,A F,0,63461,63611,0,1 S,2,63461,63853,0.5,0.6 MX,0,63461,74608,355.265 MY,0,63461,74608,450 S,2,63853,64245,0.6,0.5 F,0,74458,74608,1,0
Sprite,Foreground,Centre,"Lyrics\k.png",320,240 C,0,63559,,255,255,255 P,0,63559,,A F,0,63559,63709,0,1 S,2,63559,63951,0.5,0.6 MX,0,63559,74608,369.265 MY,0,63559,74608,450 S,2,63951,64343,0.6,0.5 F,0,74458,74608,1,0
Sprite,Foreground,Centre,"Lyrics\a.png",320,240 C,0,63657,,255,255,255 P,0,63657,,A F,0,63657,63807,0,1 S,2,63657,64049,0.5,0.6 MX,0,63657,74608,382.965 MY,0,63657,74608,450 S,2,64049,64441,0.6,0.5 F,0,74458,74608,1,0
Sprite,Foreground,Centre,"Lyrics\45.png",320,240 C,0,63755,,255,255,255 P,0,63755,,A F,0,63755,63905,0,1 S,2,63755,64147,0.5,0.6 MX,0,63755,74608,396.515 MY,0,63755,74608,450 S,2,64147,64539,0.6,0.5 F,0,74458,74608,1,0
Sprite,Foreground,Centre,"Lyrics\Su.png",320,240 C,0,74608,,255,255,255 P,0,74608,,A F,0,74608,74758,0,1 S,2,74608,75000,0.5,0.6 MX,0,74608,86244,292.63 MY,0,74608,86244,450 S,2,75000,75392,0.6,0.5 F,0,86094,86244,1,0
Sprite,Foreground,Centre,"Lyrics\h.png",320,240 C,0,74706,,255,255,255 P,0,74706,,A F,0,74706,74856,0,1 S,2,74706,75098,0.5,0.6 MX,0,74706,86244,307.63 MY,0,74706,86244,450 S,2,75098,75490,0.6,0.5 F,0,86094,86244,1,0
Sprite,Foreground,Centre,"Lyrics\m.png",320,240 C,0,74804,,255,255,255 P,0,74804,,A F,0,74804,74954,0,1 S,2,74804,75196,0.5,0.6 MX,0,74804,86244,325.18 MY,0,74804,86244,450 S,2,75196,75588,0.6,0.5 F,0,86094,86244,1,0
Sprite,Foreground,Centre,"Lyrics\i.png",320,240 C,0,74902,,255,255,255 P,0,74902,,A F,0,74902,75052,0,1 S,2,74902,75294,0.5,0.6 MX,0,74902,86244,339.78 MY,0,74902,86244,450 S,2,75294,75686,0.6,0.5 F,0,86094,86244,1,0
Sprite,Foreground,Centre,"Lyrics\k.png",320,240 C,0,75000,,255,255,255 P,0,75000,,A F,0,75000,75150,0,1 S,2,75000,75392,0.5,0.6 MX,0,75000,86244,351.93 MY,0,75000,86244,450 S,2,75392,75784,0.6,0.5 F,0,86094,86244,1,0
Sprite,Foreground,Centre,"Lyrics\l.png",320,240 C,0,75098,,255,255,255 P,0,75098,,A F,0,75098,75248,0,1 S,2,75098,75490,0.5,0.6 MX,0,75098,86244,363.78 MY,0,75098,86244,450 S,2,75490,75882,0.6,0.5 F,0,86094,86244,1,0
Sprite,Foreground,Centre,"Lyrics\a.png",320,240 C,0,75196,,255,255,255 P,0,75196,,A F,0,75196,75346,0,1 S,2,75196,75588,0.5,0.6 MX,0,75196,86244,376.08 MY,0,75196,86244,450 S,2,75588,75980,0.6,0.5 F,0,86094,86244,1,0
Sprite,Foreground,Centre,"Lyrics\k.png",320,240 C,0,75294,,255,255,255 P,0,75294,,A F,0,75294,75444,0,1 S,2,75294,75686,0.5,0.6 MX,0,75294,86244,390.03 MY,0,75294,86244,450 S,2,75686,76078,0.6,0.5 F,0,86094,86244,1,0
Sprite,Foreground,Centre,"Lyrics\Zu.png",320,240 C,0,86244,,255,255,255 P,0,86244,,A F,0,86244,86394,0,1 S,2,86244,86636,0.5,0.6 MX,0,86244,97880,282.565 MY,0,86244,97880,450 S,2,86636,87028,0.6,0.5 F,0,97730,97880,1,0
Sprite,Foreground,Centre,"Lyrics\Lu.png",320,240 C,0,86342,,255,255,255 P,0,86342,,A F,0,86342,86492,0,1 S,2,86342,86734,0.5,0.6 MX,0,86342,97880,297.115 MY,0,86342,97880,450 S,2,86734,87126,0.6,0.5 F,0,97730,97880,1,0
Sprite,Foreground,Centre,"Lyrics\Ou.png",320,240 C,0,86440,,255,255,255 P,0,86440,,A F,0,86440,86590,0,1 S,2,86440,86832,0.5,0.6 MX,0,86440,97880,311.865 MY,0,86440,97880,450 S,2,86832,87224,0.6,0.5 F,0,97730,97880,1,0
Sprite,Foreground,Centre,"Lyrics\d.png",320,240 C,0,86538,,255,255,255 P,0,86538,,A F,0,86538,86688,0,1 S,2,86538,86930,0.5,0.6 MX,0,86538,97880,327.165 MY,0,86538,97880,450 S,2,86930,87322,0.6,0.5 F,0,97730,97880,1,0
Sprite,Foreground,Centre,"Lyrics\e.png",320,240 C,0,86636,,255,255,255 P,0,86636,,A F,0,86636,86786,0,1 S,2,86636,87028,0.5,0.6 MX,0,86636,97880,341.115 MY,0,86636,97880,450 S,2,87028,87420,0.6,0.5 F,0,97730,97880,1,0
Sprite,Foreground,Centre,"Lyrics\u.png",320,240 C,0,86734,,255,255,255 P,0,86734,,A F,0,86734,86884,0,1 S,2,86734,87126,0.5,0.6 MX,0,86734,97880,355.265 MY,0,86734,97880,450 S,2,87126,87518,0.6,0.5 F,0,97730,97880,1,0
Sprite,Foreground,Centre,"Lyrics\k.png",320,240 C,0,86832,,255,255,255 P,0,86832,,A F,0,86832,86982,0,1 S,2,86832,87224,0.5,0.6 MX,0,86832,97880,369.265 MY,0,86832,97880,450 S,2,87224,87616,0.6,0.5 F,0,97730,97880,1,0
Sprite,Foreground,Centre,"Lyrics\a.png",320,240 C,0,86930,,255,255,255 P,0,86930,,A F,0,86930,87080,0,1 S,2,86930,87322,0.5,0.6 MX,0,86930,97880,382.965 MY,0,86930,97880,450 S,2,87322,87714,0.6,0.5 F,0,97730,97880,1,0
Sprite,Foreground,Centre,"Lyrics\45.png",320,240 C,0,87028,,255,255,255 P,0,87028,,A F,0,87028,87178,0,1 S,2,87028,87420,0.5,0.6 MX,0,87028,97880,396.515 MY,0,87028,97880,450 S,2,87420,87812,0.6,0.5 F,0,97730,97880,1,0
//Storyboard Sound Samples

[TimingPoints]
4790,363.636363636364,4,2,1,40,1,0
16426,-100,4,2,1,50,0,0
39335,-200,4,2,1,40,0,0
39699,-80,4,2,1,60,0,0
40244,-100,4,2,1,60,0,0
41153,-100,4,2,1,60,0,0
41699,-100,4,2,1,60,0,0
42608,-133.333333333333,4,2,1,60,0,0
43153,-100,4,2,1,60,0,0
44790,-100,4,2,1,60,0,0
45335,-100,4,2,1,60,0,0
49153,-100,4,2,1,60,0,0
51335,-80,4,2,1,60,0,0
51880,-200,4,2,1,60,0,0
52789,-100,4,2,1,60,0,0
53335,-100,4,2,1,60,0,0
54244,-133.333333333333,4,2,1,60,0,0
54789,-100,4,2,1,60,0,0
56426,-100,4,2,1,60,0,0
57153,-100,4,2,1,60,0,0
60790,-100,4,2,1,60,0,0
61335,-100,4,2,1,20,0,0
61517,-100,4,2,1,5,0,0
61699,-100,4,2,1,10,0,0
61880,-100,4,2,1,15,0,0
62062,-100,4,2,1,25,0,0
62608,-100,4,2,1,30,0,0
62790,-100,4,2,1,40,0,0
62971,-80,4,2,1,70,0,1
74517,-100,4,2,1,50,0,0
74608,-80,4,2,1,70,0,1
86244,-100,4,2,1,50,0,0

[Colours]
Combo1 : 247,244,155
Combo2 : 191,147,240
Combo3 : 255,64,64
Combo4 : 218,146,146

[HitObjects]
128,156,4790,5,2,0:0:0:0:
128,156,5153,2,0,P|161:149|216:144,1,70,0|0,0:0|0:0,0:0:0:0:
333,210,5517,2,0,P|299:203|245:198,1,70,2|0,0:0|0:0,0:0:0:0:
283,48,5880,2,0,P|276:81|271:136,1,70,0|0,0:0|0:0,0:0:0:0:
312,288,6244,5,2,0:0:0:0:
257,342,6426,1,0,0:0:0:0:
183,365,6608,2,0,L|110:355,1,70,2|0,0:0|0:0,0:0:0:0:
83,284,6971,2,0,L|156:274,1,70,2|0,0:0|0:0,0:0:0:0:
192,207,7335,2,0,L|119:197,1,70,2|0,0:0|0:0,0:0:0:0:
37,74,7699,5,2,0:0:0:0:
37,74,8062,2,0,L|120:64,1,70,0|0,0:0|0:0,0:0:0:0:
161,120,8426,1,2,0:0:0:0:
215,65,8608,1,0,0:0:0:0:
269,119,8790,1,2,0:0:0:0:
323,64,8971,1,0,0:0:0:0:
389,138,9153,6,0,P|390:186|390:235,1,70,2|0,0:0|0:0,0:0:0:0:
322,321,9517,2,0,P|322:286|323:251,1,70,2|0,0:0|0:0,0:0:0:0:
160,125,9880,2,0,P|156:160|158:195,1,70,2|0,0:0|0:0,0:0:0:0:
213,250,10243,1,2,0:0:0:0:
268,196,10425,1,0,0:0:0:0:
279,37,10608,5,2,0:0:0:0:
279,37,10971,2,0,B|315:48|315:48|346:39,1,70,0|0,0:0|0:0,0:0:0:0:
291,182,11335,2,0,B|265:154|265:154|233:146,1,70,2|0,0:0|0:0,0:0:0:0:
403,101,11699,2,0,B|385:134|385:134|389:166,1,70,0|0,0:0|0:0,0:0:0:0:
477,297,12062,5,2,0:0:0:0:
422,351,12244,1,0,0:0:0:0:
349,324,12426,2,0,P|306:317|270:317,1,70,2|0,0:0|0:0,0:0:0:0:
224,261,12790,2,0,P|217:218|217:182,1,70,2|0,0:0|0:0,0:0:0:0:
161,137,13153,2,0,P|118:144|82:144,1,70,2|0,0:0|0:0,0:0:0:0:
14,48,13517,5,2,0:0:0:0:
84,20,13699,1,0,0:0:0:0:
160,12,13880,2,0,P|190:14|231:17,1,70,2|0,0:0|0:0,0:0:0:0:
284,71,14244,1,2,0:0:0:0:
315,143,14426,1,0,0:0:0:0:
340,16,14608,1,2,0:0:0:0:
371,88,14790,1,0,0:0:0:0:
198,141,14971,5,2,0:0:0:0:
128,112,15153,1,0,0:0:0:0:
73,166,15335,2,0,P|74:202|80:240,1,70,2|0,0:0|0:0,0:0:0:0:
145,326,15699,2,0,P|150:291|151:256,1,70,2|0,0:0|0:0,0:0:0:0:
10,365,16062,2,0,P|58:365|91:355,1,70,0|0,0:0|0:0,0:0:0:0:
243,312,16426,5,10,0:0:0:0:
243,312,16790,2,0,P|277:306|312:306,1,70,8|0,0:0|0:0,0:0:0:0:
306,201,17153,2,0,P|340:206|372:218,1,70,10|0,0:0|0:0,0:0:0:0:
403,117,17517,2,0,P|432:134|459:156,1,70,10|0,0:0|0:0,0:0:0:0:
449,233,17880,5,10,0:0:0:0:
433,308,18062,1,0,0:0:0:0:
372,355,18244,1,10,0:0:0:0:
119,192,18608,5,10,0:0:0:0:
88,364,18790,1,8,0:0:0:0:
119,192,18971,1,10,0:0:0:0:
376,53,19335,5,10,0:0:0:0:
376,53,19699,2,0,P|340:46|302:44,1,70,8|0,0:0|0:0,0:0:0:0:
257,102,20062,1,10,0:0:0:0:
205,159,20244,1,0,0:0:0:0:
291,295,20426,1,10,0:0:0:0:
279,218,20608,1,0,0:0:0:0:
191,253,20790,6,0,P|156:260|120:261,1,70,10|0,0:0|0:0,0:0:0:0:
0,161,21153,2,0,P|35:154|71:153,1,70,10|0,0:0|0:0,0:0:0:0:
191,253,21517,5,10,0:0:0:0:
365,245,21699,1,8,0:0:0:0:
190,239,21880,1,10,0:0:0:0:
363,260,22062,1,8,0:0:0:0:
191,225,22244,5,10,0:0:0:0:
191,225,22608,2,0,P|185:188|185:149,1,70,8|0,0:0|0:0,0:0:0:0:
314,56,22971,2,0,P|313:90|307:125,1,70,10|0,0:0|0:0,0:0:0:0:
154,64,23335,2,0,L|225:62,1,70,10|0,0:0|0:0,0:0:0:0:
406,44,23699,5,10,0:0:0:0:
412,120,23880,1,0,0:0:0:0:
417,196,24062,2,0,L|411:268,1,70,10|0,0:0|0:0,0:0:0:0:
272,345,24426,1,10,0:0:0:0:
241,274,24608,1,8,0:0:0:0:
212,202,24790,2,0,L|218:130,1,70,10|0,0:0|0:0,0:0:0:0:
76,41,25153,6,0,L|81:110,1,70,10|0,0:0|0:0,0:0:0:0:
102,285,25517,1,10,0:0:0:0:
151,116,25699,1,8,0:0:0:0:
39,250,25880,6,0,P|30:283|38:318,1,70,10|0,0:0|0:0,0:0:0:0:
185,352,26244,2,0,P|194:318|186:283,1,70,10|0,0:0|0:0,0:0:0:0:
37,317,26608,5,10,0:0:0:0:
112,301,26790,1,8,0:0:0:0:
187,285,26971,1,10,0:0:0:0:
261,267,27153,1,0,0:0:0:0:
455,281,27335,5,10,0:0:0:0:
305,189,27517,1,8,0:0:0:0:
455,281,27699,2,0,L|461:210,1,70,8|0,0:0|0:0,0:0:0:0:
384,64,28062,5,12,1:2:0:0:
312,40,28244,1,0,0:0:0:0:
327,115,28426,1,8,0:0:0:0:
252,252,28790,5,8,0:0:0:0:
324,276,28972,1,0,0:0:0:0:
310,200,29154,1,8,0:0:0:0:
118,341,29517,5,8,0:0:0:0:
114,264,29698,1,0,0:0:0:0:
111,187,29880,1,8,0:0:0:0:
108,110,30062,1,0,0:0:0:0:
198,290,30244,5,8,0:0:0:0:
32,237,30426,1,8,0:0:0:0:
209,299,30608,2,0,L|281:290,1,70,8|8,0:0|0:0,0:0:0:0:
292,284,30880,1,0,0:0:0:0:
305,279,30971,5,8,0:0:0:0:
307,377,31153,1,0,0:0:0:0:
240,217,31335,2,0,L|244:137,1,70,8|0,0:0|0:0,0:0:0:0:
103,53,31699,5,8,0:0:0:0:
157,107,31880,1,0,0:0:0:0:
86,138,32062,1,8,0:0:0:0:
140,192,32243,1,0,0:0:0:0:
293,213,32426,5,8,0:0:0:0:
216,202,32607,1,0,0:0:0:0:
140,192,32789,1,8,0:0:0:0:
64,182,32971,1,0,0:0:0:0:
184,306,33153,6,0,L|179:265,2,35,8|8|8,0:0|0:0|0:0,0:0:0:0:
272,109,33517,2,0,L|267:143,2,35,8|8|8,0:0|0:0|0:0,0:0:0:0:
332,266,33880,5,8,0:0:0:0:
396,224,34062,1,0,0:0:0:0:
396,300,34244,5,8,0:0:0:0:
348,149,34426,1,0,0:0:0:0:
297,270,34608,6,0,L|338:265,2,35,8|8|8,0:0|0:0|0:0,0:0:0:0:
430,228,34971,2,0,L|389:223,2,35,8|8|8,0:0|0:0|0:0,0:0:0:0:
274,358,35335,5,8,0:0:0:0:
198,366,35516,1,0,0:0:0:0:
134,326,35698,1,8,0:0:0:0:
108,255,35880,1,0,0:0:0:0:
166,107,36062,6,0,L|169:54,2,35,8|8|8,0:0|0:0|0:0,0:0:0:0:
204,234,36426,2,0,L|207:287,2,35,8|8|8,0:0|0:0|0:0,0:0:0:0:
306,96,36790,5,8,0:0:0:0:
251,150,36971,1,0,0:0:0:0:
324,172,37153,2,0,P|340:200|352:244,1,70,8|0,0:0|0:0,0:0:0:0:
210,280,37517,5,8,0:0:0:0:
264,335,37698,1,0,0:0:0:0:
286,262,37880,2,0,P|314:245|358:234,1,70,8|0,0:0|0:0,0:0:0:0:
425,53,38244,5,4,3:0:0:0:
419,87,38334,1,0,0:0:0:0:
403,118,38425,1,0,0:0:0:0:
380,145,38516,1,0,0:0:0:0:
348,160,38608,1,0,0:0:0:0:
314,168,38699,1,0,0:0:0:0:
278,169,38790,2,0,L|237:156,1,35,8|0,3:0|0:0,0:0:0:0:
117,190,38971,5,8,3:0:0:0:
95,165,39061,1,0,0:0:0:0:
85,132,39152,1,0,0:0:0:0:
85,97,39243,1,0,0:0:0:0:
95,64,39334,5,2,3:0:0:0:
209,291,39699,6,0,B|242:329|302:323|302:323|335:277|394:296|394:296|421:283|449:288,1,262.5,4|0,1:0|0:0,0:0:0:0:
362,360,40426,1,8,0:0:0:0:
389,187,40608,1,0,0:0:0:0:
432,356,40790,1,0,0:0:0:0:
389,187,40971,1,0,1:0:0:0:
225,186,41153,6,0,B|198:142|202:85|202:85|150:113|106:73,1,210,0|0,1:0|0:0,0:0:0:0:
160,21,41880,1,8,0:0:0:0:
131,193,42062,1,0,1:0:0:0:
37,45,42244,1,0,0:0:0:0:
131,193,42426,1,0,1:0:0:0:
257,320,42608,6,0,B|288:296|293:254|293:254|313:215|301:169,1,157.500006008148,0|0,1:0|0:0,0:0:0:0:
302,176,43335,1,8,0:0:0:0:
419,45,43517,1,0,0:0:0:0:
393,218,43699,1,0,0:0:0:0:
419,45,43880,1,0,1:0:0:0:
450,138,44062,5,0,1:0:0:0:
450,138,44426,1,0,0:0:0:0:
450,138,44790,2,0,B|497:187|481:250|481:250|541:182,1,210,8|0,0:0|0:0,0:0:0:0:
387,301,45517,5,0,1:0:0:0:
349,293,45608,1,0,0:0:0:0:
311,283,45699,1,0,0:0:0:0:
172,346,45880,2,0,L|138:349,2,35,0|0|0,0:0|0:0|0:0,0:0:0:0:
191,242,46244,1,8,0:0:0:0:
182,137,46426,1,0,0:0:0:0:
29,27,46608,1,0,0:0:0:0:
55,128,46789,1,0,1:0:0:0:
56,233,46971,5,0,1:0:0:0:
52,271,47062,1,0,0:0:0:0:
47,309,47153,1,0,0:0:0:0:
195,351,47335,2,0,L|186:317,2,35,0|0|0,0:0|0:0|0:0,0:0:0:0:
290,305,47699,1,8,0:0:0:0:
390,333,47880,1,0,1:0:0:0:
476,193,48062,1,0,0:0:0:0:
372,205,48245,1,0,1:0:0:0:
272,177,48426,6,0,P|279:141|278:107,1,70,0|0,1:0|0:0,0:0:0:0:
152,19,48790,2,0,P|145:55|146:89,1,70,0|0,0:0|0:0,0:0:0:0:
208,127,49153,6,0,P|155:163|89:135,1,140,8|0,0:0|0:0,0:0:0:0:
45,73,49699,1,0,1:0:0:0:
93,226,49880,2,0,P|98:292|97:303,1,70,0|8,1:0|0:0,0:0:0:0:
414,295,50426,2,0,P|414:260|419:226,1,70,0|8,1:0|0:0,0:0:0:0:
467,73,50790,1,0,1:0:0:0:
465,68,51153,1,0,1:0:0:0:
463,63,51335,6,0,B|486:43|546:48|546:124|499:180|437:167|381:115|388:74,1,262.5,4|0,1:0|0:0,0:0:0:0:
330,199,52062,6,0,L|379:189,2,35,8|0|0,0:0|0:0|0:0,0:0:0:0:
457,248,52608,1,0,1:0:0:0:
227,286,52790,6,0,B|239:253|287:253|295:295|295:295|303:333|350:341|383:305|373:265,1,210,0|0,1:0|0:0,0:0:0:0:
206,180,53517,5,8,0:0:0:0:
236,362,53699,1,0,1:0:0:0:
211,196,53880,1,0,0:0:0:0:
238,381,54062,1,0,1:0:0:0:
202,161,54244,6,0,B|240:177|299:170|263:142|320:135|370:161,1,157.500006008148,0|0,1:0|0:0,0:0:0:0:
239,96,54971,6,0,P|234:61|232:26,2,70,8|0|0,0:0|0:0|0:0,0:0:0:0:
353,153,55517,1,0,1:0:0:0:
146,100,55699,1,0,1:0:0:0:
146,100,56062,1,0,0:0:0:0:
146,100,56426,6,0,P|192:96|176:224,1,210,8|0,0:0|0:0,0:0:0:0:
107,296,57153,6,0,L|65:291,2,35,0|0|0,1:0|0:0|0:0,0:0:0:0:
262,351,57517,2,0,L|302:344,2,35,0|0|0,0:0|0:0|0:0,0:0:0:0:
104,302,57880,2,0,L|62:301,2,35,8|0|0,0:0|0:0|0:0,0:0:0:0:
264,344,58244,2,0,L|303:333,2,35,0|0|0,0:0|0:0|1:0,0:0:0:0:
135,185,58608,6,0,L|130:143,2,35,0|0|0,1:0|0:0|0:0,0:0:0:0:
190,340,58972,2,0,L|183:380,2,35
141,178,59335,2,0,L|140:135,2,35,8|0|0,0:0|0:0|1:0,0:0:0:0:
177,340,59699,2,0,L|165:378,2,35,0|0|0,0:0|0:0|1:0,0:0:0:0:
295,184,60062,5,0,1:0:0:0:
295,184,60153,1,0,0:0:0:0:
295,184,60244,1,0,0:0:0:0:
271,343,60426,1,0,0:0:0:0:
271,343,60517,1,0,0:0:0:0:
271,343,60608,1,0,0:0:0:0:
256,192,60790,12,0,62608,1:0:0:0:
75,232,62971,6,0,B|70:190|100:159|100:159|161:159|183:108|183:108|158:70|167:34,1,262.5,4|0,1:0|0:0,0:0:0:0:
345,34,63699,2,0,B|354:70|329:108|329:108|351:159|412:159|412:159|442:190|437:232,1,262.5,8|0,1:2|0:0,0:0:0:0:
316,227,64426,6,0,B|327:279|302:328|302:328|352:316|388:342|388:342|424:366|453:358,1,262.5,0|0,1:0|0:0,0:0:0:0:
196,227,65153,2,0,B|185:279|210:328|210:328|160:316|124:342|124:342|88:366|59:358,1,262.5,8|0,1:2|0:0,0:0:0:0:
117,200,65880,6,0,B|150:136|219:146|219:146|255:121|290:146|290:146|313:123|344:115,1,262.5,0|0,1:0|0:0,0:0:0:0:
328,247,66608,2,0,B|301:280|301:321|301:321|360:323|405:350|405:350|436:331|479:328,1,262.5,8|0,1:2|0:0,0:0:0:0:
440,207,67335,6,0,B|431:147|471:113|471:113|459:38,1,175,0|0,1:0|0:0,0:0:0:0:
459,42,68062,2,0,B|410:32|352:48|352:48|304:42|255:56|255:56|221:54|196:59,1,262.5,8|0,1:2|0:0,0:0:0:0:
112,157,68790,6,0,B|85:213|130:248|130:248|168:288|136:341|136:341|168:347|192:361,1,262.5,0|0,1:0|0:0,0:0:0:0:
320,360,69517,2,0,B|342:346|374:340|374:340|342:286|380:247|380:247|425:212|398:156,1,262.5,8|0,1:2|0:0,0:0:0:0:
287,180,70244,6,0,B|247:155|257:102|257:102|209:93|199:46|199:46|109:36,1,262.5,0|0,1:0|0:0,0:0:0:0:
26,145,70971,2,0,B|91:152|91:152|112:205|83:249|83:249|142:244|176:271,1,262.5,8|0,1:2|0:0,0:0:0:0:
291,339,71699,6,0,B|326:308|378:323|378:323|442:337|451:272|451:272|431:243|432:207,1,262.5,0|0,1:0|0:0,0:0:0:0:
291,192,72426,2,0,B|283:147|308:113|308:113|270:78|289:38|289:38|339:56|384:38,1,262.5,8|0,1:2|0:0,0:0:0:0:
480,27,73153,5,0,1:0:0:0:
436,196,73335,1,8,0:0:0:0:
462,22,73517,1,0,0:0:0:0:
502,237,73699,1,0,1:0:0:0:
378,63,73880,5,8,0:0:0:0:
230,84,74062,1,0,1:0:0:0:
314,142,74244,1,8,1:2:0:0:
129,99,74426,1,0,1:0:0:0:
271,234,74608,6,0,B|319:254|362:232|362:232|402:202|442:210|466:258|451:303|416:308|378:282,1,262.5,4|2,1:0|0:0,0:0:0:0:
314,142,75335,2,0,P|333:50|373:155,1,262.5,10|2,1:2|0:0,0:0:0:0:
249,321,76062,6,0,B|173:319|87:338|87:338|152:318|170:273,1,262.5,0|0,1:0|0:0,0:0:0:0:
33,150,76790,2,0,P|0:224|118:190,1,262.5,8|0,1:2|0:0,0:0:0:0:
282,36,77517,6,0,B|296:81|368:105|439:75|439:75|406:110|400:160,1,262.5,2|2,1:2|0:0,0:0:0:0:
369,336,78244,2,0,P|310:345|382:253,1,262.5,10|2,1:2|0:0,0:0:0:0:
282,36,78971,6,0,B|269:105|269:105|243:135|243:135|229:198,1,175,0|0,1:0|0:0,0:0:0:0:
229,198,79699,2,0,P|152:176|176:308,1,262.5,8|0,1:2|0:0,0:0:0:0:
293,144,80426,6,0,P|243:105|40:167,1,262.5,2|2,1:2|0:0,0:0:0:0:
328,264,81153,2,0,B|290:140|290:140|421:72,1,262.5,10|2,1:2|0:0,0:0:0:0:
389,359,81880,6,0,B|328:385|237:373|298:327|205:318|127:359,1,262.5,0|0,1:0|0:0,0:0:0:0:
339,233,82608,2,0,P|376:179|435:306,1,262.5,8|0,1:2|0:0,0:0:0:0:
110,253,83335,6,0,P|172:258|173:93,1,262.5,2|2,1:2|0:0,0:0:0:0:
396,155,84062,2,0,B|230:197|230:197|142:174,1,262.5,10|2,1:2|0:0,0:0:0:0:
441,228,84790,5,0,1:2:0:0:
298,89,84971,1,8,0:0:0:0:
446,221,85153,1,0,0:0:0:0:
292,95,85334,1,0,1:0:0:0:
348,237,85517,5,8,1:2:0:0:
439,37,85698,1,0,1:0:0:0:
358,241,85880,1,0,1:0:0:0:
427,31,86061,1,0,1:0:0:0:
419,141,86244,5,2,1:2:0:0:
419,141,86608,2,0,P|383:145|350:143,1,70,2|0,0:0|0:0,0:0:0:0:
211,73,86971,1,10,1:2:0:0:
211,73,87335,2,0,P|215:109|213:142,1,70,0|0,0:0|0:0,0:0:0:0:
147,283,87699,5,2,1:2:0:0:
222,296,87880,1,0,0:0:0:0:
298,307,88062,1,2,0:0:0:0:
484,178,88426,2,0,L|479:109,1,70,10|0,1:2|0:0,0:0:0:0:
380,32,88790,2,0,L|375:101,1,70,2|0,0:0|0:0,0:0:0:0:
358,259,89153,5,2,1:2:0:0:
358,259,89517,2,0,P|327:243|292:219,1,70,0|0,0:0|0:0,0:0:0:0:
177,126,89880,2,0,P|147:145|116:161,1,70,10|0,1:2|0:0,0:0:0:0:
116,161,90244,1,2,0:0:0:0:
102,237,90426,1,0,0:0:0:0:
202,246,90608,5,2,1:2:0:0:
213,322,90790,1,0,0:0:0:0:
304,296,90971,1,2,0:0:0:0:
293,372,91153,1,0,0:0:0:0:
391,269,91335,1,10,1:2:0:0:
422,336,91517,1,0,0:0:0:0:
467,274,91699,1,2,0:0:0:0:
142,192,92062,5,2,1:2:0:0:
142,192,92426,2,0,P|136:160|137:119,1,70,0|0,0:0|0:0,0:0:0:0:
271,43,92790,1,10,1:2:0:0:
271,43,93153,2,0,P|303:49|344:48,1,70,0|0,0:0|0:0,0:0:0:0:
496,33,93517,5,2,1:2:0:0:
486,109,93699,1,0,0:0:0:0:
476,185,93880,1,2,0:0:0:0:
320,342,94244,2,0,L|252:329,1,70,10|0,1:2|0:0,0:0:0:0:
114,258,94608,2,0,L|182:245,1,70,2|0,2:0|0:0,0:0:0:0:
318,216,94971,5,2,1:2:0:0:
325,139,95153,1,0,0:0:0:0:
331,62,95335,1,2,0:0:0:0:
331,62,95699,5,10,1:2:0:0:
192,43,95880,1,0,0:0:0:0:
332,46,96062,1,2,0:0:0:0:
192,60,96244,1,0,0:0:0:0:
431,56,96426,5,2,1:2:0:0:
425,132,96608,1,0,0:0:0:0:
257,195,96790,1,2,0:0:0:0:
263,271,96972,1,0,1:0:0:0:
347,344,97153,5,8,1:2:0:0:
496,311,97335,1,0,1:0:0:0:
496,311,97699,1,0,1:0:0:0:
