osu file format v14

[General]
AudioFilename: audio.mp3
AudioLeadIn: 0
PreviewTime: 62244
Countdown: 0
SampleSet: Soft
StackLeniency: 0.4
Mode: 0
LetterboxInBreaks: 0
WidescreenStoryboard: 0

[Editor]
Bookmarks: 16426,28062,39699,97880
DistanceSpacing: 1
BeatDivisor: 4
GridSize: 4
TimelineZoom: 1

[Metadata]
Title:Phantasy
TitleUnicode:Phantasy
Artist:Amidst
ArtistUnicode:Amidst
Creator:ZLOdeuka-
Version:Advanced
Source:
Tags:vincetlow yamakudzi shmiklak Future Bass
BeatmapID:1534491
BeatmapSetID:724594

[Difficulty]
HPDrainRate:4
CircleSize:4
OverallDifficulty:5.3
ApproachRate:6.3
SliderMultiplier:1.2
SliderTickRate:1

[Events]
//Background and Video events
0,0,"BG.jpg",0,0
//Break Periods
//Storyboard Layer 0 (Background)
//Storyboard Layer 1 (Fail)
//Storyboard Layer 2 (Pass)
//Storyboard Layer 3 (Foreground)
//Storyboard Sound Samples

[TimingPoints]
4790,363.636363636364,4,2,1,40,1,0
16426,-100,4,2,1,50,0,0
38244,-100,4,2,1,40,0,0
39699,-100,4,2,1,60,0,0
61335,-100,4,2,1,20,0,0
62971,-100,4,2,1,70,0,1
74517,-100,4,2,1,50,0,0
74608,-100,4,2,1,70,0,1
86244,-100,4,2,1,50,0,0

[Colours]
Combo1 : 247,244,155
Combo2 : 191,147,240
Combo3 : 255,64,64
Combo4 : 218,146,146

[HitObjects]
61,36,4790,6,0,L|61:156,1,120,2|0,0:0|0:0,0:0:0:0:
62,228,5335,1,0,0:0:0:0:
124,192,5517,1,2,0:0:0:0:
293,245,5880,1,0,0:0:0:0:
355,281,6062,1,0,0:0:0:0:
292,317,6244,6,0,L|230:311,1,60,2|0,0:0|0:0,0:0:0:0:
160,303,6608,1,2,0:0:0:0:
222,173,6971,1,2,0:0:0:0:
363,199,7335,1,2,0:0:0:0:
500,156,7699,6,0,L|484:37,1,120,2|0,0:0|0:0,0:0:0:0:
413,51,8244,1,0,0:0:0:0:
342,64,8426,2,0,P|311:62|283:56,1,60,2|0,0:0|0:0,0:0:0:0:
213,35,8790,2,0,P|183:28|153:26,1,60,2|0,0:0|0:0,0:0:0:0:
89,58,9153,5,2,0:0:0:0:
82,129,9335,1,0,0:0:0:0:
116,192,9517,2,0,P|140:177|171:167,1,60,2|0,0:0|0:0,0:0:0:0:
237,193,9880,1,2,0:0:0:0:
256,262,10062,1,0,0:0:0:0:
236,331,10244,1,2,0:0:0:0:
316,211,10608,6,0,L|436:221,1,120,2|0,0:0|0:0,0:0:0:0:
480,277,11153,1,0,0:0:0:0:
408,288,11335,1,2,0:0:0:0:
388,145,11699,1,0,0:0:0:0:
460,134,11880,1,0,0:0:0:0:
415,77,12062,6,0,P|389:62|361:50,1,60,2|0,0:0|0:0,0:0:0:0:
289,39,12426,1,2,0:0:0:0:
183,137,12790,2,0,L|58:152,1,120,2|2,0:0|0:0,0:0:0:0:
69,295,13517,6,0,L|9:289,2,60,2|0|2,0:0|0:0|0:0,0:0:0:0:
211,314,14244,2,0,L|271:308,1,60,2|0,0:0|0:0,0:0:0:0:
286,237,14608,2,0,L|346:231,1,60,2|0,0:0|0:0,0:0:0:0:
369,299,14971,5,2,0:0:0:0:
404,361,15153,1,0,0:0:0:0:
475,349,15335,1,2,0:0:0:0:
483,277,15517,1,0,0:0:0:0:
418,244,15699,1,2,0:0:0:0:
418,244,16426,6,0,L|428:125,1,120,10|8,0:0|0:0,0:0:0:0:
433,52,16971,1,0,0:0:0:0:
368,84,17153,1,10,0:0:0:0:
256,175,17517,1,10,0:0:0:0:
326,192,17699,1,0,0:0:0:0:
276,244,17880,6,0,L|279:303,1,60,10|0,0:0|0:0,0:0:0:0:
282,376,18244,1,10,0:0:0:0:
138,359,18608,1,10,0:0:0:0:
106,293,18790,1,8,0:0:0:0:
76,227,18971,1,10,0:0:0:0:
76,227,19335,6,0,L|85:103,1,120,10|8,0:0|0:0,0:0:0:0:
93,35,19880,1,0,0:0:0:0:
160,61,20062,2,0,P|214:67|244:68,1,60,10|0,0:0|0:0,0:0:0:0:
292,67,20426,2,0,P|321:64|351:60,1,60,10|0,0:0|0:0,0:0:0:0:
423,52,20790,5,10,0:0:0:0:
454,116,20971,1,0,0:0:0:0:
455,188,21153,2,0,P|443:217|436:248,1,60,10|0,0:0|0:0,0:0:0:0:
438,317,21517,1,10,0:0:0:0:
367,303,21699,1,8,0:0:0:0:
295,310,21880,1,10,0:0:0:0:
231,343,22062,1,8,0:0:0:0:
231,343,22244,6,0,L|108:333,1,120,10|8,0:0|0:0,0:0:0:0:
39,327,22790,1,0,0:0:0:0:
80,268,22971,1,10,0:0:0:0:
148,141,23335,1,10,0:0:0:0:
179,76,23517,1,0,0:0:0:0:
220,135,23699,6,0,L|283:130,1,60,10|0,0:0|0:0,0:0:0:0:
351,124,24062,1,10,0:0:0:0:
400,258,24426,1,10,0:0:0:0:
328,251,24608,1,8,0:0:0:0:
256,245,24790,1,10,0:0:0:0:
116,210,25153,6,0,P|84:224|58:240,2,60,10|0|10,0:0|0:0|0:0,0:0:0:0:
185,188,25699,1,8,0:0:0:0:
253,168,25880,2,0,P|285:154|311:138,1,60,10|0,0:0|0:0,0:0:0:0:
363,185,26244,2,0,P|388:160|407:136,1,60,10|0,0:0|0:0,0:0:0:0:
356,87,26608,5,10,0:0:0:0:
306,35,26790,1,8,0:0:0:0:
256,87,26971,1,10,0:0:0:0:
206,35,27153,1,0,0:0:0:0:
156,87,27335,2,0,L|147:146,2,60,10|8|8,0:0|0:0|0:0,0:0:0:0:
207,221,28062,6,0,L|216:280,2,60,12|0|8,1:2|0:0|0:0,0:0:0:0:
350,236,28790,2,0,L|328:291,2,60,8|0|8,0:0|0:0|0:0,0:0:0:0:
464,323,29517,6,0,L|417:360,2,60,8|0|8,0:0|0:0|0:0,0:0:0:0:
487,254,30062,1,0,0:0:0:0:
489,181,30244,1,8,0:0:0:0:
481,109,30426,1,8,0:0:0:0:
454,42,30608,2,0,P|420:32|394:26,1,60,8|8,0:0|0:0,0:0:0:0:
328,51,30971,6,0,L|265:70,2,60,8|0|8,0:0|0:0|0:0,0:0:0:0:
309,194,31699,2,0,L|244:178,2,60,8|0|8,0:0|0:0|0:0,0:0:0:0:
244,323,32426,6,0,L|196:277,2,60,8|0|8,0:0|0:0|0:0,0:0:0:0:
306,358,32971,1,0,0:0:0:0:
377,364,33153,2,0,L|409:366,2,30,8|8|8,0:0|0:0|0:0,0:0:0:0:
381,291,33517,2,0,L|413:293,2,30,8|8|8,0:0|0:0|0:0,0:0:0:0:
384,218,33880,6,0,L|379:155,1,60,8|0,0:0|0:0,0:0:0:0:
306,157,34244,2,0,L|301:94,1,60,8|0,0:0|0:0,0:0:0:0:
246,49,34608,2,0,L|221:29,2,30,8|8|8,0:0|0:0|0:0,0:0:0:0:
198,103,34971,2,0,L|173:83,2,30,8|8|8,0:0|0:0|0:0,0:0:0:0:
196,175,35335,6,0,L|191:234,1,60,8|0,0:0|0:0,0:0:0:0:
119,246,35699,2,0,L|114:305,1,60,8|0,0:0|0:0,0:0:0:0:
169,352,36062,2,0,L|194:372,2,30,8|8|8,0:0|0:0|0:0,0:0:0:0:
220,301,36426,2,0,L|245:321,2,30,8|8|8,0:0|0:0|0:0,0:0:0:0:
256,192,36790,12,0,38971,3:0:0:0:
49,346,39699,6,0,B|27:312|45:254|45:254|88:268|131:253,1,180,4|0,1:0|0:0,0:0:0:0:
195,227,40426,2,0,P|209:205|223:172,2,60,8|0|0,0:0|0:0|0:0,0:0:0:0:
138,182,40971,1,0,1:0:0:0:
113,114,41153,6,0,B|107:74|76:30|76:30|114:42|165:39,1,180,0|0,1:0|0:0,0:0:0:0:
233,30,41880,1,8,0:0:0:0:
304,20,42062,2,0,L|363:34,1,60,0|0,1:0|0:0,0:0:0:0:
432,52,42426,1,0,1:0:0:0:
462,117,42608,6,0,B|470:168|433:198|433:198|458:244|433:283,1,180,0|0,1:0|0:0,0:0:0:0:
373,241,43335,2,0,P|346:229|316:221,2,60,8|0|0,0:0|0:0|0:0,0:0:0:0:
368,312,43880,1,0,1:0:0:0:
362,383,44062,5,0,1:0:0:0:
256,285,44426,1,2,0:0:0:0:
303,148,44790,2,0,L|293:27,1,120,8|0,0:0|0:0,0:0:0:0:
154,66,45517,6,0,L|149:126,1,60,0|0,1:0|0:0,0:0:0:0:
77,113,45880,2,0,L|72:173,1,60,0|0,0:0|0:0,0:0:0:0:
68,245,46244,2,0,L|128:250,1,60,8|0,0:0|0:0,0:0:0:0:
115,322,46608,2,0,L|175:327,1,60,0|0,0:0|1:0,0:0:0:0:
247,329,46971,6,0,P|273:311|293:290,1,60,0|0,1:0|0:0,0:0:0:0:
359,317,47335,2,0,P|372:288|379:260,1,60,0|0,0:0|0:0,0:0:0:0:
357,191,47699,2,0,P|364:161|377:134,1,60,8|0,0:0|1:0,0:0:0:0:
444,161,48062,2,0,P|464:139|489:122,1,60,0|0,0:0|1:0,0:0:0:0:
495,50,48426,6,0,L|435:41,1,60,0|0,1:0|0:0,0:0:0:0:
366,64,48790,2,0,L|306:55,1,60,0|0,0:0|0:0,0:0:0:0:
235,43,49153,2,0,P|161:85|213:127,1,180,8|0,0:0|1:0,0:0:0:0:
287,127,49880,5,0,1:0:0:0:
287,127,50062,1,8,0:0:0:0:
257,265,50426,1,0,1:0:0:0:
257,265,50608,1,8,0:0:0:0:
257,265,50790,1,0,1:0:0:0:
396,298,51153,1,0,1:0:0:0:
396,298,51335,6,0,B|437:279|445:226|445:226|404:195|402:150,1,180,4|0,1:0|0:0,0:0:0:0:
430,85,52062,2,0,P|444:59|450:29,2,60,8|0|0,0:0|0:0|0:0,0:0:0:0:
358,93,52608,1,0,1:0:0:0:
286,100,52790,6,0,B|242:89|207:58|207:58|193:101|159:135,1,180,0|0,1:0|0:0,0:0:0:0:
104,179,53517,1,8,0:0:0:0:
35,201,53699,2,0,P|27:235|26:260,1,60,0|0,1:0|0:0,0:0:0:0:
36,331,54062,1,0,1:0:0:0:
105,313,54244,6,0,B|150:298|194:313|194:313|228:276|218:227,1,180,0|0,1:0|0:0,0:0:0:0:
200,160,54971,2,0,P|195:130|195:97,2,60,8|0|0,0:0|0:0|0:0,0:0:0:0:
269,180,55517,1,0,1:0:0:0:
338,197,55699,5,0,1:0:0:0:
465,130,56062,1,2,0:0:0:0:
344,51,56426,2,0,L|222:32,1,120,8|0,0:0|0:0,0:0:0:0:
132,142,57153,6,0,L|192:133,1,60,0|0,1:0|0:0,0:0:0:0:
227,195,57517,2,0,L|287:186,1,60,0|0,0:0|0:0,0:0:0:0:
358,178,57880,2,0,L|367:238,1,60,8|0,0:0|0:0,0:0:0:0:
305,273,58244,2,0,L|314:333,1,60,0|0,0:0|1:0,0:0:0:0:
246,359,58608,6,0,P|206:362|179:360,1,60,0|0,1:0|0:0,0:0:0:0:
141,304,58971,2,0,P|101:301|74:303,1,60,0|0,0:0|0:0,0:0:0:0:
9,310,59335,2,0,P|6:270|8:243,1,60,8|0,0:0|1:0,0:0:0:0:
64,205,59698,2,0,P|67:165|65:138,1,60,0|0,0:0|1:0,0:0:0:0:
256,192,60062,12,2,62244,0:0:0:0:
465,59,62971,6,0,B|420:52|383:30|383:30|336:46|292:30,1,180,4|0,1:0|0:0,0:0:0:0:
219,30,63699,2,0,B|175:46|128:30|128:30|91:52|46:59,1,180,8|0,1:2|0:0,0:0:0:0:
29,129,64426,6,0,B|78:155|115:193|115:193|134:149|155:131,1,180,0|0,1:0|0:0,0:0:0:0:
214,170,65153,2,0,B|186:200|174:239|174:239|216:280|196:330,1,180,8|0,1:2|0:0,0:0:0:0:
129,300,65880,6,0,B|244:340|244:340|278:333|307:343,1,180,0|0,1:0|0:0,0:0:0:0:
372,356,66608,2,0,B|405:309|460:290|460:290|443:253|450:219,1,180,8|0,1:2|0:0,0:0:0:0:
475,156,67335,6,0,B|461:114|416:104|416:104|403:68,1,120,0|0,1:0|0:0,0:0:0:0:
403,68,68062,2,0,B|359:72|319:40|319:40|282:72|232:69,1,180,8|0,1:2|0:0,0:0:0:0:
164,74,68790,6,0,B|157:136|180:193|180:193|159:220|157:251,1,180,0|0,1:0|0:0,0:0:0:0:
171,316,69517,2,0,B|217:326|256:297|256:297|294:270|344:279,1,180,8|0,1:2|0:0,0:0:0:0:
408,306,70244,6,0,B|438:346|433:388|433:388|516:346,1,180,0|0,1:0|0:0,0:0:0:0:
479,283,70971,2,0,B|456:240|477:192|477:192|426:184|406:150,1,180,8|0,1:2|0:0,0:0:0:0:
333,146,71699,6,0,B|298:172|292:225|292:225|311:269|292:311,1,180,0|0,1:0|0:0,0:0:0:0:
220,311,72426,2,0,B|201:269|220:225|220:225|214:172|179:146,1,180,8|0,1:2|0:0,0:0:0:0:
115,112,73153,6,0,P|99:86|91:57,1,60,0|8,1:0|0:0,0:0:0:0:
20,73,73517,2,0,P|26:102|23:132,1,60,0|0,0:0|1:0,0:0:0:0:
5,201,73880,1,8,0:0:0:0:
15,272,74062,1,0,1:0:0:0:
52,333,74244,1,8,1:2:0:0:
114,368,74426,1,0,1:0:0:0:
183,349,74608,6,0,B|218:322|211:266|211:266|200:214|224:174,1,180,4|2,1:0|0:0,0:0:0:0:
292,180,75335,2,0,B|312:213|301:265|301:265|294:321|329:348,1,180,10|2,1:2|0:0,0:0:0:0:
376,294,76062,6,0,B|426:266|473:294|473:294|480:254|471:214,1,180,0|0,1:0|0:0,0:0:0:0:
444,149,76790,2,0,B|437:98|376:99|376:99|326:103|291:84,1,180,8|0,1:2|0:0,0:0:0:0:
220,85,77517,6,0,B|186:103|136:99|136:99|75:98|68:149,1,180,2|2,1:2|0:0,0:0:0:0:
71,221,78244,2,0,B|168:232|168:232|173:278|222:287,1,180,10|2,1:2|0:0,0:0:0:0:
292,287,78971,6,0,B|339:278|344:232|344:232|384:227,1,120,0|0,1:0|0:0,0:0:0:0:
381,227,79699,2,0,B|422:165|422:165|393:113|410:62,1,180,8|0,1:2|0:0,0:0:0:0:
340,42,80426,6,0,B|292:46|256:66|256:66|216:46|168:42,1,180,2|2,1:2|0:0,0:0:0:0:
149,111,81153,2,0,B|207:114|237:139|237:139|218:183|236:222,1,180,10|2,1:2|0:0,0:0:0:0:
295,263,81880,6,0,P|356:317|294:364,1,180,0|0,1:0|0:0,0:0:0:0:
223,362,82608,2,0,B|165:359|135:334|135:334|154:290|136:251,1,180,8|0,1:2|0:0,0:0:0:0:
97,189,83335,6,0,B|123:158|127:122|127:122|186:115|221:77,1,180,2|2,1:2|0:0,0:0:0:0:
292,77,84062,2,0,B|326:114|385:121|385:121|389:157|415:188,1,180,10|2,1:2|0:0,0:0:0:0:
464,240,84790,6,0,L|458:306,1,60,0|8,1:2|0:0,0:0:0:0:
386,294,85153,2,0,L|380:360,1,60,0|0,0:0|1:0,0:0:0:0:
308,364,85517,1,8,1:2:0:0:
249,322,85699,1,0,1:0:0:0:
219,256,85880,1,0,1:0:0:0:
212,184,86062,1,0,1:0:0:0:
223,112,86244,6,0,L|103:96,1,120,6|2,1:2|0:0,0:0:0:0:
32,87,86790,1,0,0:0:0:0:
60,152,86971,1,10,1:2:0:0:
109,287,87335,1,0,0:0:0:0:
81,352,87517,1,0,0:0:0:0:
37,296,87699,6,0,L|31:237,1,60,2|0,1:2|0:0,0:0:0:0:
99,214,88062,1,2,0:0:0:0:
219,292,88426,1,10,1:2:0:0:
226,148,88790,1,2,0:0:0:0:
236,4,89153,6,0,L|359:22,1,120,2|0,1:2|0:0,0:0:0:0:
425,34,89699,1,0,0:0:0:0:
495,47,89880,2,0,P|497:80|496:111,1,60,10|0,1:2|0:0,0:0:0:0:
433,143,90244,2,0,P|431:176|432:207,1,60,2|0,0:0|0:0,0:0:0:0:
441,274,90608,5,2,1:2:0:0:
421,343,90790,1,0,0:0:0:0:
354,368,90971,2,0,P|325:369|289:361,1,60,2|0,0:0|0:0,0:0:0:0:
225,340,91335,1,10,1:2:0:0:
170,292,91517,1,0,0:0:0:0:
138,227,91699,1,2,0:0:0:0:
138,227,92062,6,0,L|147:103,1,120,2|0,1:2|0:0,0:0:0:0:
153,35,92608,1,0,0:0:0:0:
211,77,92790,1,10,1:2:0:0:
339,141,93153,1,0,0:0:0:0:
404,171,93335,1,0,0:0:0:0:
397,99,93517,6,0,L|394:37,1,60,2|0,1:2|0:0,0:0:0:0:
322,43,93880,1,2,0:0:0:0:
257,171,94244,1,10,1:2:0:0:
277,313,94608,1,2,2:0:0:0:
256,192,94971,12,0,97880,0:0:0:0:
