osu file format v14

[General]
AudioFilename: audio.mp3
AudioLeadIn: 0
PreviewTime: 60880
Countdown: 1
SampleSet: Normal
StackLeniency: 0.7
Mode: 1
LetterboxInBreaks: 0
WidescreenStoryboard: 1

[Editor]
DistanceSpacing: 1
BeatDivisor: 4
GridSize: 32
TimelineZoom: 1.7

[Metadata]
Title:Phantasy
TitleUnicode:Phantasy
Artist:Amidst
ArtistUnicode:Amidst
Creator:Marfuri
Version:muzukashii
Source:
Tags:
BeatmapID:1614332
BeatmapSetID:767973

[Difficulty]
HPDrainRate:5
CircleSize:2
OverallDifficulty:5
ApproachRate:10
SliderMultiplier:1.35
SliderTickRate:1

[Events]
//Background and Video events
0,0,"c9be87c1354ebdc69aa3b1c949602276.jpg",0,0
//Break Periods
//Storyboard Layer 0 (Background)
//Storyboard Layer 1 (Fail)
//Storyboard Layer 2 (Pass)
//Storyboard Layer 3 (Foreground)
//Storyboard Sound Samples

[TimingPoints]
4790,363.636363636364,4,1,0,60,1,0
62943,-90.9090909090909,4,1,0,60,0,1
86244,-100,4,1,0,65,0,0

[HitObjects]
256,192,4790,5,2,0:0:0:0:
256,192,5153,1,0,0:0:0:0:
256,192,5517,1,2,0:0:0:0:
256,192,5880,1,2,0:0:0:0:
256,192,6244,1,2,0:0:0:0:
256,192,6608,1,0,0:0:0:0:
256,192,6971,1,2,0:0:0:0:
256,192,7153,1,0,0:0:0:0:
256,192,7335,1,2,0:0:0:0:
256,192,7699,1,2,0:0:0:0:
256,192,8062,1,0,0:0:0:0:
256,192,8426,1,2,0:0:0:0:
256,192,8608,1,2,0:0:0:0:
256,192,8790,1,0,0:0:0:0:
256,192,8971,1,2,0:0:0:0:
256,192,9153,1,0,0:0:0:0:
256,192,9517,1,2,0:0:0:0:
256,192,9880,1,2,0:0:0:0:
256,192,10062,1,0,0:0:0:0:
256,192,10244,1,2,0:0:0:0:
256,192,10608,1,2,0:0:0:0:
256,192,10971,1,0,0:0:0:0:
256,192,11335,1,2,0:0:0:0:
256,192,11699,1,2,0:0:0:0:
256,192,12062,1,0,0:0:0:0:
256,192,12426,1,0,0:0:0:0:
256,192,12790,1,2,0:0:0:0:
256,192,13153,1,2,0:0:0:0:
256,192,13517,1,0,0:0:0:0:
256,192,13699,1,0,0:0:0:0:
256,192,13880,1,0,0:0:0:0:
256,192,14244,1,0,0:0:0:0:
256,192,14426,1,2,0:0:0:0:
256,192,14608,1,0,0:0:0:0:
256,192,14790,1,2,0:0:0:0:
256,192,14971,1,0,0:0:0:0:
256,192,15153,1,0,0:0:0:0:
256,192,15335,1,0,0:0:0:0:
256,192,15426,1,0,0:0:0:0:
256,192,15517,1,0,0:0:0:0:
256,192,15699,1,2,0:0:0:0:
256,192,16426,1,2,0:0:0:0:
256,192,16790,1,4,0:0:0:0:
256,192,17153,1,2,0:0:0:0:
256,192,17517,1,4,0:0:0:0:
256,192,17880,1,4,0:0:0:0:
256,192,18244,1,6,0:0:0:0:
256,192,18608,1,0,0:0:0:0:
256,192,18790,1,2,0:0:0:0:
256,192,18971,1,2,0:0:0:0:
256,192,19335,1,0,0:0:0:0:
256,192,19699,1,2,0:0:0:0:
256,192,19880,1,0,0:0:0:0:
256,192,20062,1,0,0:0:0:0:
256,192,20244,1,2,0:0:0:0:
256,192,20426,1,2,0:0:0:0:
256,192,20790,1,2,0:0:0:0:
256,192,20971,1,2,0:0:0:0:
256,192,21153,1,0,0:0:0:0:
256,192,21517,1,0,0:0:0:0:
256,192,21608,1,0,0:0:0:0:
256,192,21699,1,0,0:0:0:0:
256,192,21880,1,2,0:0:0:0:
256,192,22244,1,0,0:0:0:0:
256,192,22608,1,2,0:0:0:0:
256,192,22971,1,2,0:0:0:0:
256,192,23335,1,0,0:0:0:0:
256,192,23699,1,2,0:0:0:0:
256,192,24062,1,2,0:0:0:0:
256,192,24426,5,0,0:0:0:0:
256,192,24608,1,2,0:0:0:0:
256,192,24790,1,0,0:0:0:0:
256,192,25153,1,0,0:0:0:0:
256,192,25244,1,0,0:0:0:0:
256,192,25335,1,0,0:0:0:0:
256,192,25517,1,2,0:0:0:0:
256,192,25880,1,2,0:0:0:0:
256,192,26062,1,2,0:0:0:0:
256,192,26244,1,0,0:0:0:0:
256,192,26426,1,0,0:0:0:0:
256,192,26608,1,2,0:0:0:0:
256,192,26790,1,0,0:0:0:0:
256,192,26971,1,0,0:0:0:0:
256,192,27153,1,2,0:0:0:0:
256,192,27244,1,2,0:0:0:0:
256,192,27335,1,2,0:0:0:0:
256,192,27517,1,0,0:0:0:0:
256,192,27699,1,0,0:0:0:0:
256,192,28062,1,4,0:0:0:0:
256,192,28244,1,2,0:0:0:0:
256,192,28426,1,2,0:0:0:0:
256,192,28790,1,6,0:0:0:0:
256,192,28971,1,2,0:0:0:0:
256,192,29153,1,2,0:0:0:0:
