osu file format v14

[General]
AudioFilename: audio.mp3
AudioLeadIn: 0
PreviewTime: -1
Countdown: 0
SampleSet: None
StackLeniency: 0.7
Mode: 3
LetterboxInBreaks: 0
SpecialStyle: 0
WidescreenStoryboard: 0

[Editor]
DistanceSpacing: 0.8
BeatDivisor: 2
GridSize: 32
TimelineZoom: 1

[Metadata]
Title:Phantasy
TitleUnicode:Phantasy
Artist:Amidst
ArtistUnicode:Amidst
Creator:Janifer
Version:Fantasy WIP
Source:
Tags:
BeatmapID:2033229
BeatmapSetID:971010

[Difficulty]
HPDrainRate:5
CircleSize:4
OverallDifficulty:6
ApproachRate:5
SliderMultiplier:1.4
SliderTickRate:1

[Events]
//Background and Video events
0,0,"BG.jpg",0,0
//Break Periods
2,86444,107590
//Storyboard Layer 0 (Background)
//Storyboard Layer 1 (Fail)
//Storyboard Layer 2 (Pass)
//Storyboard Layer 3 (Foreground)
//Storyboard Sound Samples

[TimingPoints]
426,363.636364,4,1,0,100,1,0

[HitObjects]
64,192,4790,128,0,6244:0:0:0:0:
448,192,4790,1,0,0:0:0:0:
192,192,5153,1,0,0:0:0:0:
320,192,5335,1,0,0:0:0:0:
192,192,5517,1,0,0:0:0:0:
448,192,5517,1,0,0:0:0:0:
192,192,5881,1,0,0:0:0:0:
320,192,6062,1,0,0:0:0:0:
320,192,6244,1,0,0:0:0:0:
448,192,6244,128,0,7699:0:0:0:0:
192,192,6426,1,0,0:0:0:0:
320,192,6608,1,0,0:0:0:0:
192,192,6790,1,0,0:0:0:0:
64,192,6971,1,0,0:0:0:0:
320,192,6971,1,0,0:0:0:0:
64,192,7335,128,0,7699:0:0:0:0:
192,192,7335,128,0,7699:0:0:0:0:
320,192,7699,128,0,9153:0:0:0:0:
64,192,8062,1,0,0:0:0:0:
448,192,8062,1,0,0:0:0:0:
192,192,8426,1,0,0:0:0:0:
448,192,8426,1,0,0:0:0:0:
64,192,8608,1,0,0:0:0:0:
192,192,8608,1,0,0:0:0:0:
192,192,8790,1,0,0:0:0:0:
448,192,8790,1,0,0:0:0:0:
448,192,8971,1,0,0:0:0:0:
64,192,9153,1,0,0:0:0:0:
192,192,9153,128,0,10608:0:0:0:0:
320,192,9517,1,0,0:0:0:0:
448,192,9699,1,0,0:0:0:0:
64,192,9881,1,0,0:0:0:0:
320,192,9881,1,0,0:0:0:0:
448,192,10062,1,0,0:0:0:0:
320,192,10244,1,0,0:0:0:0:
64,192,10608,1,0,0:0:0:0:
448,192,10608,128,0,12062:0:0:0:0:
320,192,10971,1,0,0:0:0:0:
64,192,11153,1,0,0:0:0:0:
192,192,11335,1,0,0:0:0:0:
320,192,11335,1,0,0:0:0:0:
320,192,11699,1,0,0:0:0:0:
64,192,11881,1,0,0:0:0:0:
192,192,12062,1,0,0:0:0:0:
320,192,12062,128,0,13517:0:0:0:0:
64,192,12244,1,0,0:0:0:0:
448,192,12426,1,0,0:0:0:0:
64,192,12790,1,0,0:0:0:0:
192,192,12790,1,0,0:0:0:0:
64,192,13153,1,0,0:0:0:0:
448,192,13153,1,0,0:0:0:0:
192,192,13517,128,0,14971:0:0:0:0:
448,192,13517,1,0,0:0:0:0:
320,192,13699,1,0,0:0:0:0:
64,192,13881,1,0,0:0:0:0:
448,192,13881,1,0,0:0:0:0:
64,192,14244,1,0,0:0:0:0:
320,192,14244,1,0,0:0:0:0:
448,192,14426,1,0,0:0:0:0:
64,192,14608,1,0,0:0:0:0:
320,192,14608,1,0,0:0:0:0:
448,192,14790,1,0,0:0:0:0:
64,192,14971,128,0,16426:0:0:0:0:
320,192,14971,1,0,0:0:0:0:
192,192,15153,1,0,0:0:0:0:
320,192,15335,1,0,0:0:0:0:
448,192,15335,1,0,0:0:0:0:
192,192,15517,1,0,0:0:0:0:
320,192,15699,1,0,0:0:0:0:
448,192,15699,1,0,0:0:0:0:
192,192,16062,1,0,0:0:0:0:
448,192,16062,1,0,0:0:0:0:
320,192,16426,128,0,16608:0:0:0:0:
448,192,16426,1,0,0:0:0:0:
192,192,16790,1,0,0:0:0:0:
448,192,16790,128,0,16971:0:0:0:0:
320,192,16971,128,0,17153:0:0:0:0:
64,192,17153,1,0,0:0:0:0:
192,192,17153,128,0,17335:0:0:0:0:
64,192,17517,128,0,17699:0:0:0:0:
320,192,17517,1,0,0:0:0:0:
192,192,17699,128,0,17881:0:0:0:0:
320,192,17881,128,0,18062:0:0:0:0:
448,192,17881,1,0,0:0:0:0:
64,192,18062,128,0,18244:0:0:0:0:
192,192,18244,128,0,18426:0:0:0:0:
320,192,18244,1,0,0:0:0:0:
64,192,18426,1,0,0:0:0:0:
320,192,18608,128,0,18790:0:0:0:0:
448,192,18608,1,0,0:0:0:0:
192,192,18790,1,0,0:0:0:0:
448,192,18790,1,0,0:0:0:0:
192,192,18971,128,0,19335:0:0:0:0:
448,192,18971,128,0,19335:0:0:0:0:
64,192,19335,128,0,19517:0:0:0:0:
320,192,19335,1,0,0:0:0:0:
192,192,19699,1,0,0:0:0:0:
448,192,19699,128,0,19881:0:0:0:0:
64,192,19881,128,0,20062:0:0:0:0:
192,192,20062,1,0,0:0:0:0:
320,192,20062,128,0,20244:0:0:0:0:
192,192,20244,128,0,20426:0:0:0:0:
64,192,20426,128,0,20608:0:0:0:0:
448,192,20426,1,0,0:0:0:0:
192,192,20608,128,0,20790:0:0:0:0:
320,192,20790,1,0,0:0:0:0:
448,192,20790,128,0,20971:0:0:0:0:
64,192,20971,128,0,21153:0:0:0:0:
192,192,21153,1,0,0:0:0:0:
448,192,21153,128,0,21335:0:0:0:0:
192,192,21335,1,0,0:0:0:0:
320,192,21335,128,0,21517:0:0:0:0:
64,192,21517,128,0,21699:0:0:0:0:
448,192,21517,1,0,0:0:0:0:
192,192,21699,1,0,0:0:0:0:
448,192,21699,128,0,21881:0:0:0:0:
192,192,21881,128,0,22062:0:0:0:0:
320,192,21881,1,0,0:0:0:0:
320,192,22062,1,0,0:0:0:0:
448,192,22062,1,0,0:0:0:0:
64,192,22244,128,0,22608:0:0:0:0:
320,192,22244,128,0,22608:0:0:0:0:
192,192,22608,1,0,0:0:0:0:
448,192,22608,128,0,22790:0:0:0:0:
320,192,22790,128,0,22971:0:0:0:0:
64,192,22971,128,0,23153:0:0:0:0:
192,192,22971,1,0,0:0:0:0:
320,192,23153,1,0,0:0:0:0:
192,192,23335,128,0,23517:0:0:0:0:
448,192,23335,1,0,0:0:0:0:
64,192,23517,128,0,23699:0:0:0:0:
192,192,23699,128,0,23881:0:0:0:0:
320,192,23699,1,0,0:0:0:0:
320,192,23881,128,0,24062:0:0:0:0:
64,192,24062,1,0,0:0:0:0:
448,192,24062,128,0,24244:0:0:0:0:
64,192,24426,1,0,0:0:0:0:
320,192,24426,128,0,24608:0:0:0:0:
64,192,24608,128,0,24790:0:0:0:0:
192,192,24608,1,0,0:0:0:0:
192,192,24790,128,0,25153:0:0:0:0:
448,192,24790,128,0,25153:0:0:0:0:
64,192,25153,128,0,25244:0:0:0:0:
320,192,25153,1,0,0:0:0:0:
64,192,25335,1,0,0:0:0:0:
320,192,25335,128,0,25426:0:0:0:0:
192,192,25517,128,0,25608:0:0:0:0:
448,192,25517,1,0,0:0:0:0:
192,192,25699,1,0,0:0:0:0:
448,192,25699,1,0,0:0:0:0:
64,192,25881,128,0,26062:0:0:0:0:
192,192,25881,1,0,0:0:0:0:
448,192,26062,128,0,26244:0:0:0:0:
64,192,26244,1,0,0:0:0:0:
192,192,26244,128,0,26426:0:0:0:0:
320,192,26426,128,0,26608:0:0:0:0:
192,192,26608,1,0,0:0:0:0:
448,192,26608,128,0,26790:0:0:0:0:
64,192,26790,128,0,26971:0:0:0:0:
192,192,26971,1,0,0:0:0:0:
448,192,26971,128,0,27153:0:0:0:0:
320,192,27153,128,0,27335:0:0:0:0:
192,192,27335,128,0,27517:0:0:0:0:
448,192,27335,1,0,0:0:0:0:
64,192,27517,1,0,0:0:0:0:
320,192,27517,1,0,0:0:0:0:
64,192,27699,1,0,0:0:0:0:
320,192,27699,1,0,0:0:0:0:
64,192,28062,1,0,0:0:0:0:
448,192,28062,1,0,0:0:0:0:
192,192,28244,128,0,28426:0:0:0:0:
320,192,28426,128,0,28608:0:0:0:0:
192,192,28608,1,0,0:0:0:0:
448,192,28608,1,0,0:0:0:0:
192,192,28790,1,0,0:0:0:0:
448,192,28790,128,0,28971:0:0:0:0:
320,192,28971,128,0,29153:0:0:0:0:
64,192,29153,128,0,29335:0:0:0:0:
320,192,29335,1,0,0:0:0:0:
64,192,29517,1,0,0:0:0:0:
320,192,29517,128,0,29699:0:0:0:0:
448,192,29699,128,0,29881:0:0:0:0:
192,192,29881,128,0,30062:0:0:0:0:
320,192,30062,128,0,30244:0:0:0:0:
64,192,30244,128,0,30426:0:0:0:0:
192,192,30244,1,0,0:0:0:0:
192,192,30426,1,0,0:0:0:0:
320,192,30426,1,0,0:0:0:0:
192,192,30608,1,0,0:0:0:0:
320,192,30608,1,0,0:0:0:0:
192,192,30790,1,0,0:0:0:0:
448,192,30835,1,0,0:0:0:0:
320,192,30881,1,0,0:0:0:0:
192,192,30926,1,0,0:0:0:0:
64,192,30971,1,0,0:0:0:0:
192,192,31153,128,0,31335:0:0:0:0:
320,192,31335,128,0,31517:0:0:0:0:
192,192,31517,1,0,0:0:0:0:
448,192,31517,1,0,0:0:0:0:
64,192,31699,128,0,31881:0:0:0:0:
320,192,31699,1,0,0:0:0:0:
192,192,31881,128,0,32062:0:0:0:0:
448,192,32062,128,0,32153:0:0:0:0:
448,192,32244,128,0,32335:0:0:0:0:
192,192,32426,128,0,32608:0:0:0:0:
448,192,32426,1,0,0:0:0:0:
320,192,32608,128,0,32790:0:0:0:0:
448,192,32790,128,0,32971:0:0:0:0:
192,192,32971,128,0,33153:0:0:0:0:
64,192,33153,128,0,33335:0:0:0:0:
320,192,33153,1,0,0:0:0:0:
192,192,33244,1,0,0:0:0:0:
320,192,33335,1,0,0:0:0:0:
64,192,33517,128,0,33699:0:0:0:0:
320,192,33517,1,0,0:0:0:0:
192,192,33608,1,0,0:0:0:0:
320,192,33699,1,0,0:0:0:0:
64,192,33881,1,0,0:0:0:0:
192,192,33881,1,0,0:0:0:0:
448,192,34062,1,0,0:0:0:0:
320,192,34244,1,0,0:0:0:0:
64,192,34426,1,0,0:0:0:0:
192,192,34426,1,0,0:0:0:0:
192,192,34608,1,0,0:0:0:0:
320,192,34608,1,0,0:0:0:0:
448,192,34699,1,0,0:0:0:0:
192,192,34790,1,0,0:0:0:0:
320,192,34790,1,0,0:0:0:0:
192,192,34971,1,0,0:0:0:0:
320,192,34971,1,0,0:0:0:0:
448,192,35062,1,0,0:0:0:0:
192,192,35153,1,0,0:0:0:0:
320,192,35153,1,0,0:0:0:0:
64,192,35335,1,0,0:0:0:0:
448,192,35335,1,0,0:0:0:0:
320,192,35517,1,0,0:0:0:0:
192,192,35699,1,0,0:0:0:0:
320,192,35881,1,0,0:0:0:0:
64,192,36062,1,0,0:0:0:0:
448,192,36062,1,0,0:0:0:0:
192,192,36153,1,0,0:0:0:0:
64,192,36244,1,0,0:0:0:0:
448,192,36244,1,0,0:0:0:0:
64,192,36426,1,0,0:0:0:0:
448,192,36426,1,0,0:0:0:0:
192,192,36517,1,0,0:0:0:0:
64,192,36608,1,0,0:0:0:0:
448,192,36608,1,0,0:0:0:0:
320,192,36653,1,0,0:0:0:0:
192,192,36699,1,0,0:0:0:0:
64,192,36744,1,0,0:0:0:0:
320,192,36790,1,0,0:0:0:0:
192,192,36971,1,0,0:0:0:0:
448,192,37153,1,0,0:0:0:0:
192,192,37335,1,0,0:0:0:0:
320,192,37335,1,0,0:0:0:0:
64,192,37517,1,0,0:0:0:0:
192,192,37699,1,0,0:0:0:0:
320,192,37881,1,0,0:0:0:0:
448,192,37881,1,0,0:0:0:0:
64,192,38062,1,0,0:0:0:0:
192,192,38244,1,0,0:0:0:0:
320,192,38244,1,0,0:0:0:0:
448,192,38335,1,0,0:0:0:0:
320,192,38426,1,0,0:0:0:0:
64,192,38517,1,0,0:0:0:0:
192,192,38608,1,0,0:0:0:0:
320,192,38699,1,0,0:0:0:0:
64,192,38790,1,0,0:0:0:0:
192,192,38790,1,0,0:0:0:0:
448,192,38881,1,0,0:0:0:0:
320,192,38971,1,0,0:0:0:0:
192,192,39062,1,0,0:0:0:0:
448,192,39153,1,0,0:0:0:0:
64,192,39244,1,0,0:0:0:0:
192,192,39335,1,0,0:0:0:0:
320,192,39335,128,0,39517:0:0:0:0:
448,192,39335,1,0,0:0:0:0:
64,192,39699,128,0,40244:0:0:0:0:
192,192,39699,128,0,40244:0:0:0:0:
448,192,39699,128,0,40244:0:0:0:0:
64,192,40426,1,0,0:0:0:0:
192,192,40426,1,0,0:0:0:0:
448,192,40426,1,0,0:0:0:0:
320,192,40608,1,0,0:0:0:0:
192,192,40790,1,0,0:0:0:0:
64,192,40971,1,0,0:0:0:0:
192,192,41153,128,0,41699:0:0:0:0:
320,192,41153,128,0,41699:0:0:0:0:
448,192,41153,128,0,41699:0:0:0:0:
192,192,41881,1,0,0:0:0:0:
320,192,41881,1,0,0:0:0:0:
448,192,41881,1,0,0:0:0:0:
64,192,42062,1,0,0:0:0:0:
320,192,42244,1,0,0:0:0:0:
192,192,42426,1,0,0:0:0:0:
64,192,42608,128,0,43153:0:0:0:0:
320,192,42608,128,0,43153:0:0:0:0:
448,192,42608,128,0,43153:0:0:0:0:
64,192,43335,1,0,0:0:0:0:
320,192,43335,1,0,0:0:0:0:
448,192,43335,1,0,0:0:0:0:
192,192,43517,1,0,0:0:0:0:
64,192,43699,1,0,0:0:0:0:
320,192,43881,1,0,0:0:0:0:
192,192,44062,1,0,0:0:0:0:
448,192,44062,1,0,0:0:0:0:
320,192,44426,128,0,44517:0:0:0:0:
64,192,44790,128,0,45335:0:0:0:0:
192,192,44790,128,0,45335:0:0:0:0:
448,192,44790,128,0,45335:0:0:0:0:
64,192,45517,128,0,45881:0:0:0:0:
192,192,45517,128,0,45699:0:0:0:0:
448,192,45699,1,0,0:0:0:0:
192,192,45881,128,0,46062:0:0:0:0:
320,192,45881,128,0,46244:0:0:0:0:
448,192,46062,1,0,0:0:0:0:
64,192,46244,128,0,46608:0:0:0:0:
192,192,46244,128,0,46426:0:0:0:0:
448,192,46426,1,0,0:0:0:0:
192,192,46608,128,0,46971:0:0:0:0:
320,192,46608,128,0,46790:0:0:0:0:
64,192,46790,1,0,0:0:0:0:
320,192,46971,128,0,47335:0:0:0:0:
448,192,46971,128,0,47153:0:0:0:0:
192,192,47153,1,0,0:0:0:0:
64,192,47335,128,0,47517:0:0:0:0:
192,192,47335,128,0,47699:0:0:0:0:
320,192,47517,1,0,0:0:0:0:
64,192,47699,128,0,48062:0:0:0:0:
320,192,47699,128,0,47881:0:0:0:0:
448,192,47881,1,0,0:0:0:0:
192,192,48062,128,0,48244:0:0:0:0:
448,192,48062,128,0,48426:0:0:0:0:
320,192,48244,1,0,0:0:0:0:
64,192,48426,128,0,48790:0:0:0:0:
320,192,48426,128,0,48608:0:0:0:0:
192,192,48608,1,0,0:0:0:0:
320,192,48790,128,0,48971:0:0:0:0:
448,192,48790,128,0,49153:0:0:0:0:
192,192,48971,1,0,0:0:0:0:
64,192,49153,128,0,51153:0:0:0:0:
320,192,49153,128,0,49699:0:0:0:0:
192,192,49699,1,0,0:0:0:0:
320,192,49881,1,0,0:0:0:0:
448,192,49881,1,0,0:0:0:0:
192,192,50062,1,0,0:0:0:0:
192,192,50426,1,0,0:0:0:0:
320,192,50608,1,0,0:0:0:0:
448,192,50608,1,0,0:0:0:0:
192,192,50790,1,0,0:0:0:0:
192,192,51153,1,0,0:0:0:0:
64,192,51335,128,0,51881:0:0:0:0:
320,192,51335,128,0,51881:0:0:0:0:
448,192,51335,128,0,51881:0:0:0:0:
64,192,52062,1,0,0:0:0:0:
320,192,52062,1,0,0:0:0:0:
448,192,52062,1,0,0:0:0:0:
192,192,52244,1,0,0:0:0:0:
320,192,52426,1,0,0:0:0:0:
448,192,52608,1,0,0:0:0:0:
64,192,52790,128,0,53335:0:0:0:0:
192,192,52790,128,0,53335:0:0:0:0:
320,192,52790,128,0,53335:0:0:0:0:
64,192,53517,1,0,0:0:0:0:
192,192,53517,1,0,0:0:0:0:
320,192,53517,1,0,0:0:0:0:
448,192,53699,1,0,0:0:0:0:
320,192,53881,1,0,0:0:0:0:
192,192,54062,1,0,0:0:0:0:
64,192,54244,128,0,54790:0:0:0:0:
320,192,54244,128,0,54790:0:0:0:0:
448,192,54244,128,0,54790:0:0:0:0:
64,192,54971,1,0,0:0:0:0:
320,192,54971,1,0,0:0:0:0:
448,192,54971,1,0,0:0:0:0:
64,192,55153,1,0,0:0:0:0:
192,192,55335,1,0,0:0:0:0:
448,192,55517,1,0,0:0:0:0:
192,192,55699,1,0,0:0:0:0:
320,192,55699,1,0,0:0:0:0:
320,192,56062,128,0,56244:0:0:0:0:
64,192,56426,128,0,56971:0:0:0:0:
192,192,56426,128,0,56971:0:0:0:0:
448,192,56426,128,0,56971:0:0:0:0:
192,192,57153,128,0,57335:0:0:0:0:
320,192,57153,128,0,57517:0:0:0:0:
448,192,57335,1,0,0:0:0:0:
64,192,57517,128,0,57881:0:0:0:0:
192,192,57517,128,0,57699:0:0:0:0:
320,192,57699,1,0,0:0:0:0:
192,192,57881,128,0,58062:0:0:0:0:
448,192,57881,128,0,58244:0:0:0:0:
64,192,58062,1,0,0:0:0:0:
192,192,58244,128,0,58608:0:0:0:0:
320,192,58244,128,0,58426:0:0:0:0:
448,192,58426,1,0,0:0:0:0:
64,192,58608,128,0,58971:0:0:0:0:
320,192,58608,128,0,58790:0:0:0:0:
192,192,58790,1,0,0:0:0:0:
320,192,58971,128,0,59335:0:0:0:0:
448,192,58971,128,0,59153:0:0:0:0:
64,192,59153,1,0,0:0:0:0:
192,192,59335,128,0,59517:0:0:0:0:
448,192,59335,128,0,59699:0:0:0:0:
320,192,59517,1,0,0:0:0:0:
64,192,59699,128,0,59881:0:0:0:0:
192,192,59699,128,0,60062:0:0:0:0:
448,192,59881,1,0,0:0:0:0:
64,192,60062,128,0,60426:0:0:0:0:
320,192,60062,128,0,60244:0:0:0:0:
192,192,60244,1,0,0:0:0:0:
320,192,60426,128,0,60608:0:0:0:0:
448,192,60426,128,0,60790:0:0:0:0:
64,192,60608,1,0,0:0:0:0:
192,192,60790,128,0,61517:0:0:0:0:
320,192,60790,128,0,62971:0:0:0:0:
64,192,61517,128,0,62244:0:0:0:0:
448,192,62244,128,0,62971:0:0:0:0:
192,192,62426,1,0,0:0:0:0:
192,192,62608,1,0,0:0:0:0:
192,192,62790,1,0,0:0:0:0:
64,192,62971,128,0,63608:0:0:0:0:
192,192,62971,1,0,0:0:0:0:
320,192,63153,128,0,63244:0:0:0:0:
448,192,63153,1,0,0:0:0:0:
320,192,63335,1,0,0:0:0:0:
448,192,63335,128,0,63426:0:0:0:0:
320,192,63517,128,0,63608:0:0:0:0:
448,192,63517,1,0,0:0:0:0:
192,192,63699,128,0,64426:0:0:0:0:
448,192,63699,1,0,0:0:0:0:
64,192,63881,128,0,63971:0:0:0:0:
320,192,63881,1,0,0:0:0:0:
64,192,64062,1,0,0:0:0:0:
320,192,64062,128,0,64153:0:0:0:0:
64,192,64244,128,0,64335:0:0:0:0:
320,192,64244,1,0,0:0:0:0:
64,192,64426,1,0,0:0:0:0:
320,192,64426,128,0,65153:0:0:0:0:
192,192,64608,1,0,0:0:0:0:
448,192,64608,128,0,64699:0:0:0:0:
192,192,64790,128,0,64881:0:0:0:0:
448,192,64790,1,0,0:0:0:0:
192,192,64971,1,0,0:0:0:0:
448,192,64971,128,0,65062:0:0:0:0:
192,192,65153,128,0,65881:0:0:0:0:
448,192,65153,1,0,0:0:0:0:
64,192,65335,128,0,65426:0:0:0:0:
320,192,65335,1,0,0:0:0:0:
64,192,65517,1,0,0:0:0:0:
320,192,65517,128,0,65608:0:0:0:0:
64,192,65699,128,0,65790:0:0:0:0:
320,192,65699,1,0,0:0:0:0:
64,192,65881,1,0,0:0:0:0:
448,192,65881,128,0,66608:0:0:0:0:
192,192,66062,1,0,0:0:0:0:
320,192,66062,128,0,66153:0:0:0:0:
192,192,66244,128,0,66335:0:0:0:0:
320,192,66244,1,0,0:0:0:0:
192,192,66426,1,0,0:0:0:0:
320,192,66426,128,0,66517:0:0:0:0:
192,192,66608,128,0,67335:0:0:0:0:
320,192,66608,1,0,0:0:0:0:
448,192,67335,128,0,68062:0:0:0:0:
192,192,68062,128,0,68790:0:0:0:0:
320,192,68790,128,0,69517:0:0:0:0:
192,192,69517,128,0,70244:0:0:0:0:
448,192,70244,128,0,70971:0:0:0:0:
320,192,70971,128,0,71699:0:0:0:0:
448,192,71699,128,0,72426:0:0:0:0:
192,192,72426,128,0,73153:0:0:0:0:
320,192,73153,128,0,73881:0:0:0:0:
64,192,73881,128,0,74517:0:0:0:0:
64,192,74608,128,0,75335:0:0:0:0:
192,192,75335,128,0,76062:0:0:0:0:
320,192,76062,128,0,76790:0:0:0:0:
448,192,76790,128,0,77517:0:0:0:0:
192,192,77517,128,0,78244:0:0:0:0:
320,192,78244,128,0,78971:0:0:0:0:
448,192,78971,128,0,79699:0:0:0:0:
192,192,79699,128,0,80426:0:0:0:0:
64,192,80426,128,0,81153:0:0:0:0:
192,192,81153,128,0,81881:0:0:0:0:
320,192,81881,128,0,82608:0:0:0:0:
448,192,82608,128,0,83244:0:0:0:0:
448,192,83335,128,0,84062:0:0:0:0:
320,192,84062,128,0,84790:0:0:0:0:
448,192,84790,128,0,85517:0:0:0:0:
64,192,85517,128,0,86244:0:0:0:0:
64,192,108790,5,0,0:0:0:0:
192,192,108790,1,0,0:0:0:0:
320,192,108790,1,0,0:0:0:0:
448,192,108790,1,0,0:0:0:0:
