osu file format v14

[General]
AudioFilename: audio.mp3
AudioLeadIn: 0
PreviewTime: 62244
Countdown: 0
SampleSet: Soft
StackLeniency: 0.7
Mode: 2
LetterboxInBreaks: 0
WidescreenStoryboard: 0

[Editor]
Bookmarks: 96244
DistanceSpacing: 1
BeatDivisor: 8
GridSize: 4
TimelineZoom: 2.5

[Metadata]
Title:Phantasy
TitleUnicode:Phantasy
Artist:Amidst
ArtistUnicode:Amidst
Creator:-Ken
Version:Platter
Source:
Tags:Future Bass Fantasy
BeatmapID:1583423
BeatmapSetID:752204

[Difficulty]
HPDrainRate:5
CircleSize:3.4
OverallDifficulty:8
ApproachRate:8
SliderMultiplier:1.6
SliderTickRate:2

[Events]
//Background and Video events
0,0,"fanta sea.jpg",0,0
//Break Periods
//Storyboard Layer 0 (Background)
//Storyboard Layer 1 (Fail)
//Storyboard Layer 2 (Pass)
//Storyboard Layer 3 (Foreground)
//Storyboard Sound Samples

[TimingPoints]
4790,363.636363636364,4,2,1,40,1,0
4790,-133.333333333333,4,2,1,40,0,0
15699,-200,4,2,1,40,0,0
16426,-125,4,2,1,50,0,0
28062,-100,4,2,1,50,0,0
30244,-83.3333333333333,4,2,1,50,0,0
30608,-100,4,2,1,50,0,0
38244,-100,4,2,1,40,0,0
38790,-66.6666666666667,4,2,1,40,0,0
39335,-100,4,2,1,40,0,0
39699,-66.6666666666667,4,2,1,60,0,0
41880,-100,4,2,1,60,0,0
42608,-66.6666666666667,4,2,1,60,0,0
43335,-100,4,2,1,60,0,0
45517,-76.9230769230769,4,2,1,60,0,0
51153,-66.6666666666667,4,2,1,60,0,0
54971,-100,4,2,1,60,0,0
56426,-125,4,2,1,60,0,0
57153,-76.9230769230769,4,2,1,60,0,0
60790,-142.857142857143,4,2,1,60,0,0
61335,-142.857142857143,4,2,1,20,0,0
61517,-100,4,2,1,5,0,0
61699,-100,4,2,1,10,0,0
61880,-100,4,2,1,15,0,0
62062,-100,4,2,1,25,0,0
62244,-100,4,2,1,25,0,0
62608,-100,4,2,1,30,0,0
62790,-100,4,2,1,40,0,0
62971,-66.6666666666667,4,2,1,70,0,1
74517,-100,4,2,1,50,0,0
74608,-66.6666666666667,4,2,1,70,0,1
86244,-125,4,2,1,50,0,0
97880,-133.333333333333,4,2,1,50,0,0

[Colours]
Combo1 : 193,193,0
Combo2 : 0,0,64

[HitObjects]
292,236,4790,5,2,0:0:0:0:
112,232,5153,5,0,0:0:0:0:
49,208,5334,1,0,0:0:0:0:
53,142,5516,1,2,0:0:0:0:
280,164,5880,5,0,0:0:0:0:
346,145,6061,1,0,0:0:0:0:
372,82,6243,1,2,0:0:0:0:
338,22,6425,1,0,0:0:0:0:
269,13,6607,1,2,0:0:0:0:
28,48,6971,6,0,L|28:176,1,120.000004577637,2|2,0:0|0:0,0:0:0:0:
340,184,7699,5,2,0:0:0:0:
80,192,8062,1,0,0:0:0:0:
220,192,8244,1,0,0:0:0:0:
288,185,8425,1,2,0:0:0:0:
324,127,8607,1,0,0:0:0:0:
298,63,8789,1,2,0:0:0:0:
232,45,8971,1,0,0:0:0:0:
112,44,9153,6,0,L|48:44,1,60.0000022888184,2|0,0:0|0:0,0:0:0:0:
224,44,9517,2,0,L|292:44,1,60.0000022888184,2|0,0:0|0:0,0:0:0:0:
180,116,9880,1,2,0:0:0:0:
316,116,10062,1,0,0:0:0:0:
180,116,10244,1,2,0:0:0:0:
416,248,10608,5,2,0:0:0:0:
236,244,10971,2,0,L|168:244,2,60.0000022888184,0|0|2,0:0|0:0|0:0,0:0:0:0:
464,240,11699,5,0,0:0:0:0:
504,179,11880,1,0,0:0:0:0:
490,109,12062,1,2,0:0:0:0:
430,69,12244,1,0,0:0:0:0:
357,83,12426,1,2,0:0:0:0:
93,174,12790,2,0,L|93:302,1,120.000004577637,2|2,0:0|0:0,0:0:0:0:
407,281,13517,5,2,0:0:0:0:
295,277,13699,1,0,0:0:0:0:
184,277,13880,1,2,0:0:0:0:
408,240,14244,1,2,0:0:0:0:
476,209,14425,1,0,0:0:0:0:
478,135,14607,1,2,0:0:0:0:
411,101,14789,1,0,0:0:0:0:
274,196,14971,5,2,0:0:0:0:
192,159,15152,1,0,0:0:0:0:
190,72,15334,1,2,0:0:0:0:
268,32,15516,1,0,0:0:0:0:
388,40,15699,1,2,0:0:0:0:
179,308,16426,6,0,P|144:287|188:227,1,128,10|8,0:0|0:0,0:0:0:0:
301,225,16971,1,0,0:0:0:0:
422,225,17153,6,0,P|457:204|413:144,1,128,10|10,0:0|0:0,0:0:0:0:
270,148,17699,1,0,0:0:0:0:
200,168,17880,1,10,0:0:0:0:
145,121,18062,1,0,0:0:0:0:
155,49,18244,1,10,0:0:0:0:
221,18,18426,1,0,0:0:0:0:
309,15,18608,5,10,0:0:0:0:
276,68,18790,1,8,0:0:0:0:
244,116,18971,1,10,0:0:0:0:
440,124,19335,6,0,P|476:160|436:216,1,128,10|8,0:0|0:0,0:0:0:0:
308,80,19880,5,0,0:0:0:0:
205,69,20061,1,10,0:0:0:0:
124,127,20243,1,0,0:0:0:0:
101,227,20425,1,10,0:0:0:0:
153,315,20607,1,0,0:0:0:0:
248,284,20790,6,0,L|312:284,1,60.0000022888184,10|0,0:0|0:0,0:0:0:0:
136,284,21154,2,0,L|68:284,1,60.0000022888184,10|0,0:0|0:0,0:0:0:0:
180,356,21517,1,10,0:0:0:0:
44,356,21699,1,8,0:0:0:0:
180,356,21881,1,10,0:0:0:0:
44,356,22062,1,8,0:0:0:0:
324,348,22244,6,0,P|368:304|336:256,1,128,10|8,0:0|0:0,0:0:0:0:
208,252,22790,1,0,0:0:0:0:
80,244,22971,2,0,P|36:200|68:152,1,128,10|10,0:0|0:0,0:0:0:0:
208,252,23517,1,0,0:0:0:0:
392,252,23699,5,10,0:0:0:0:
472,252,23880,1,0,0:0:0:0:
392,252,24062,1,10,0:0:0:0:
196,288,24426,5,10,0:0:0:0:
232,240,24608,1,8,0:0:0:0:
264,188,24790,1,10,0:0:0:0:
105,281,25153,5,10,0:0:0:0:
217,277,25335,1,0,0:0:0:0:
328,277,25516,1,10,0:0:0:0:
104,240,25880,1,10,0:0:0:0:
36,209,26061,1,0,0:0:0:0:
34,135,26243,1,10,0:0:0:0:
101,101,26425,1,0,0:0:0:0:
238,196,26607,5,10,0:0:0:0:
320,159,26788,1,0,0:0:0:0:
322,72,26970,1,0,0:0:0:0:
244,32,27152,1,0,0:0:0:0:
124,40,27335,5,10,0:0:0:0:
124,40,27517,1,8,0:0:0:0:
124,40,27699,1,8,0:0:0:0:
356,208,28062,5,12,1:2:0:0:
200,208,28244,2,0,L|200:120,1,80,0|8,0:0|0:0,0:0:0:0:
356,208,28608,1,0,0:0:0:0:
288,208,28790,5,8,0:0:0:0:
444,208,28972,2,0,L|444:120,1,80,0|8,0:0|0:0,0:0:0:0:
288,208,29336,1,0,0:0:0:0:
360,208,29517,5,8,0:0:0:0:
204,208,29699,2,0,L|204:120,1,80,0|8,0:0|0:0,0:0:0:0:
360,208,30063,1,0,0:0:0:0:
512,199,30244,6,0,L|298:199,1,191.999994140625,8|8,0:0|0:0,0:0:0:0:
156,258,30790,5,8,0:0:0:0:
153,232,30880,1,0,0:0:0:0:
156,208,30971,1,8,0:0:0:0:
312,208,31153,2,0,L|312:120,1,80,0|8,0:0|0:0,0:0:0:0:
156,208,31517,1,0,0:0:0:0:
224,208,31699,5,8,0:0:0:0:
68,208,31881,2,0,L|68:120,1,80,0|8,0:0|0:0,0:0:0:0:
224,208,32245,1,0,0:0:0:0:
152,208,32426,5,8,0:0:0:0:
308,208,32608,2,0,L|308:120,1,80,0|8,0:0|0:0,0:0:0:0:
152,208,32972,1,0,0:0:0:0:
305,123,33153,6,0,L|350:123,2,40,8|8|8,0:0|0:0|0:0,0:0:0:0:
158,123,33517,2,0,L|113:123,2,40,8|8|8,0:0|0:0|0:0,0:0:0:0:
340,314,33880,5,8,0:0:0:0:
415,303,34061,1,0,0:0:0:0:
441,231,34243,1,8,0:0:0:0:
390,175,34425,1,0,0:0:0:0:
288,143,34608,5,8,0:0:0:0:
255,129,34698,1,8,0:0:0:0:
288,143,34789,1,8,0:0:0:0:
414,74,34971,1,8,0:0:0:0:
446,60,35061,1,8,0:0:0:0:
414,74,35152,1,8,0:0:0:0:
161,316,35335,5,8,0:0:0:0:
86,305,35516,1,0,0:0:0:0:
60,233,35698,1,8,0:0:0:0:
111,177,35880,1,0,0:0:0:0:
213,145,36063,5,8,0:0:0:0:
245,131,36153,1,8,0:0:0:0:
213,145,36244,1,8,0:0:0:0:
87,76,36426,1,8,0:0:0:0:
55,62,36516,1,8,0:0:0:0:
87,76,36607,1,8,0:0:0:0:
337,288,36790,5,8,0:0:0:0:
446,266,36971,1,0,0:0:0:0:
455,154,37153,1,8,0:0:0:0:
299,164,37335,1,0,0:0:0:0:
142,267,37517,5,8,0:0:0:0:
33,245,37698,1,0,0:0:0:0:
23,133,37880,1,8,0:0:0:0:
178,158,38062,1,0,0:0:0:0:
334,177,38244,5,4,3:0:0:0:
359,206,38334,1,0,0:0:0:0:
365,245,38425,1,0,0:0:0:0:
350,281,38516,1,0,0:0:0:0:
317,304,38607,1,0,0:0:0:0:
208,163,38790,6,0,L|147:126,1,60.0000022888184,4|0,3:0|0:0,0:0:0:0:
208,163,38971,2,0,L|457:163,1,240.000009155274,0|0,1:0|3:0,0:0:0:0:
143,330,39699,6,0,P|39:234|32:17,1,360.000013732911,4|0,1:0|0:0,0:0:0:0:
148,104,40426,5,8,0:0:0:0:
267,103,40607,1,2,0:0:0:0:
390,102,40789,1,2,0:0:0:0:
267,103,40971,1,2,1:2:0:0:
79,290,41153,6,0,P|34:194|187:18,1,360.000013732911,0|0,1:0|0:0,0:0:0:0:
341,166,41880,6,0,L|348:84,1,80,10|2,0:0|1:2,0:0:0:0:
440,122,42244,2,0,L|459:29,1,80,2|2,0:0|1:2,0:0:0:0:
210,86,42608,2,0,P|145:102|253:264,1,360.000013732911,0|0,1:0|0:0,0:0:0:0:
405,265,43335,5,10,0:0:0:0:
480,247,43516,1,2,0:0:0:0:
511,176,43698,1,2,0:0:0:0:
475,108,43880,1,2,1:2:0:0:
387,98,44062,1,0,1:0:0:0:
136,88,44426,1,2,0:0:0:0:
399,96,44790,6,0,B|487:333,1,240,8|0,0:0|0:0,0:0:0:0:
336,305,45517,5,0,1:0:0:0:
316,220,45699,1,0,0:0:0:0:
472,296,45880,5,0,0:0:0:0:
480,196,46062,1,0,0:0:0:0:
231,263,46244,5,8,0:0:0:0:
231,176,46426,1,0,0:0:0:0:
96,285,46607,5,0,0:0:0:0:
66,189,46789,1,0,1:0:0:0:
264,240,46971,5,0,1:0:0:0:
388,232,47153,1,0,0:0:0:0:
264,240,47335,1,0,0:0:0:0:
388,232,47517,1,0,0:0:0:0:
200,232,47699,5,8,0:0:0:0:
76,224,47881,1,0,1:0:0:0:
200,232,48062,1,0,0:0:0:0:
76,224,48244,1,0,1:0:0:0:
240,232,48426,5,0,1:0:0:0:
240,145,48608,1,0,0:0:0:0:
375,254,48789,5,0,0:0:0:0:
405,158,48971,1,0,0:0:0:0:
128,280,49153,2,0,P|56:272|184:132,1,415.999980957032,8|0,0:0|1:0,0:0:0:0:
344,112,50062,2,0,L|344:228,1,103.999995239258,8|0,0:0|0:0,0:0:0:0:
174,120,50426,5,0,1:0:0:0:
344,112,50608,1,8,0:0:0:0:
216,112,50790,1,0,1:0:0:0:
344,216,51153,1,0,1:0:0:0:
152,296,51335,6,0,P|124:240|308:68,1,360.000013732911,4|0,1:0|0:0,0:0:0:0:
152,296,52062,1,10,0:0:0:0:
121,183,52243,1,2,0:0:0:0:
184,85,52425,1,2,0:0:0:0:
299,66,52607,1,2,1:2:0:0:
488,232,52790,6,0,B|488:92|488:92|488:320,1,360.000013732911,0|0,1:0|0:0,0:0:0:0:
300,308,53517,6,0,L|160:308,1,120.000004577637,10|2,0:0|1:2,0:0:0:0:
320,288,53880,2,0,L|448:224,1,120.000004577637,2|2,0:0|1:2,0:0:0:0:
108,292,54244,2,0,P|64:276|172:96,1,360.000013732911,0|0,1:0|0:0,0:0:0:0:
336,104,54971,5,10,0:0:0:0:
409,167,55152,1,2,0:0:0:0:
413,264,55334,1,2,0:0:0:0:
345,333,55516,1,2,1:2:0:0:
160,300,55699,1,0,1:0:0:0:
412,188,56062,1,2,0:0:0:0:
164,228,56426,6,0,B|32:228|32:228|164:228,1,256,8|0,0:0|1:0,0:0:0:0:
268,224,57335,1,0,0:0:0:0:
428,160,57517,1,0,0:0:0:0:
320,160,57699,1,0,0:0:0:0:
64,340,57880,5,8,0:0:0:0:
1,262,58061,1,0,0:0:0:0:
39,171,58243,1,0,0:0:0:0:
138,160,58425,1,0,1:0:0:0:
300,196,58608,5,0,1:0:0:0:
362,118,58789,1,0,0:0:0:0:
324,27,58971,1,0,0:0:0:0:
225,16,59153,1,0,0:0:0:0:
60,244,59335,6,0,L|36:136,1,103.999995239258,8|0,0:0|1:0,0:0:0:0:
192,240,59699,2,0,L|224:124,1,103.999995239258,0|0,0:0|1:0,0:0:0:0:
384,164,60062,2,0,L|436:64,1,103.999995239258,0|0,1:0|0:0,0:0:0:0:
268,164,60426,2,0,L|148:164,1,103.999995239258,0|0,0:0|0:0,0:0:0:0:
452,312,60790,6,0,P|472:300|344:88,1,391.99998803711,8|0,0:0|1:0,0:0:0:0:
224,100,62244,5,0,1:0:0:0:
316,208,62425,1,0,1:0:0:0:
216,208,62607,1,0,1:0:0:0:
116,208,62789,1,0,1:0:0:0:
376,280,62971,6,0,P|448:264|352:204,1,240.000009155274,4|0,1:0|0:0,0:0:0:0:
272,188,63517,1,0,0:0:0:0:
104,256,63699,6,0,P|32:240|128:180,1,240.000009155274,8|0,1:2|0:0,0:0:0:0:
208,164,64245,1,0,0:0:0:0:
376,280,64426,6,0,P|448:264|424:120,1,240.000009155274,0|0,1:0|0:0,0:0:0:0:
336,120,64972,1,0,0:0:0:0:
168,200,65154,6,0,P|96:184|192:124,1,240.000009155274,8|0,1:2|0:0,0:0:0:0:
272,104,65700,1,0,0:0:0:0:
448,108,65880,6,0,P|500:160|344:332,1,360.000013732911,0|0,1:0|0:0,0:0:0:0:
112,324,66608,6,0,P|56:292|148:196,1,240.000009155274,8|0,1:2|0:0,0:0:0:0:
240,188,67153,1,0,0:0:0:0:
408,192,67335,6,0,B|408:72|408:72|408:208,1,240.000009155274,0|0,1:0|0:0,0:0:0:0:
408,192,68062,5,8,1:2:0:0:
303,192,68243,1,0,0:0:0:0:
198,192,68425,1,0,0:0:0:0:
93,192,68607,1,0,0:0:0:0:
424,208,68790,6,0,P|452:192|372:56,1,240.000009155274,0|0,1:0|0:0,0:0:0:0:
288,56,69335,1,0,0:0:0:0:
120,244,69517,6,0,P|92:228|172:92,1,240.000009155274,8|0,1:2|0:0,0:0:0:0:
256,92,70062,1,0,0:0:0:0:
424,212,70244,6,0,L|184:164,1,240.000009155274,0|0,1:0|0:0,0:0:0:0:
88,132,70790,1,0,0:0:0:0:
260,148,70971,6,0,P|324:148|376:-4,1,240.000009155274,8|0,1:2|0:0,0:0:0:0:
284,12,71517,1,0,0:0:0:0:
116,272,71699,6,0,P|0:256|120:132,1,360.000013732911,0|0,1:0|0:0,0:0:0:0:
388,216,72426,6,0,P|448:204|396:76,1,240.000009155274,8|0,1:2|0:0,0:0:0:0:
308,76,72971,1,0,0:0:0:0:
140,80,73153,1,0,1:0:0:0:
296,72,73335,2,0,L|328:208,1,120.000004577637,8|0,0:0|0:0,0:0:0:0:
160,80,73699,1,0,1:0:0:0:
40,80,73880,1,8,0:0:0:0:
2,187,74061,1,0,1:0:0:0:
81,270,74243,1,8,1:2:0:0:
191,237,74425,1,0,1:0:0:0:
480,176,74608,6,0,P|488:96|336:44,1,240.000009155274,4|2,1:0|0:0,0:0:0:0:
264,40,75153,1,2,0:0:0:0:
96,256,75335,6,0,P|24:240|120:180,1,240.000009155274,10|2,1:2|0:0,0:0:0:0:
200,164,75881,1,2,0:0:0:0:
368,160,76062,6,0,L|152:44,1,240.000009155274,0|0,1:0|0:0,0:0:0:0:
56,48,76608,1,0,0:0:0:0:
224,88,76790,6,0,L|440:204,1,240.000009155274,8|0,1:2|0:0,0:0:0:0:
336,212,77335,1,0,0:0:0:0:
168,224,77517,6,0,P|108:220|184:44,1,360.000013732911,2|2,1:2|0:0,0:0:0:0:
464,188,78244,6,0,P|488:144|384:12,1,240.000009155274,10|2,1:2|0:0,0:0:0:0:
292,12,78790,1,2,0:0:0:0:
124,168,78971,6,0,B|124:48|124:48|124:184,1,240.000009155274,0|0,1:0|0:0,0:0:0:0:
124,168,79699,5,8,1:2:0:0:
229,168,79880,1,0,0:0:0:0:
334,168,80062,1,0,0:0:0:0:
439,168,80244,1,0,0:0:0:0:
116,296,80426,6,0,P|76:260|184:144,1,240.000009155274,2|2,1:2|0:0,0:0:0:0:
260,136,80971,1,2,0:0:0:0:
428,176,81153,6,0,P|440:296|344:304,1,240.000009155274,10|2,1:2|0:0,0:0:0:0:
248,280,81699,1,2,0:0:0:0:
80,264,81880,6,0,L|320:264,1,240.000009155274,0|0,1:0|0:0,0:0:0:0:
420,256,82426,1,0,0:0:0:0:
252,228,82608,6,0,P|152:216|232:136,1,240.000009155274,8|0,1:2|0:0,0:0:0:0:
304,132,83153,1,0,0:0:0:0:
136,328,83335,6,0,P|0:256|120:132,1,360.000013732911,2|2,1:2|0:0,0:0:0:0:
376,232,84062,6,0,P|432:160|352:40,1,240.000009155274,10|2,1:2|0:0,0:0:0:0:
268,48,84608,1,2,0:0:0:0:
100,128,84790,5,0,1:2:0:0:
256,136,84971,2,0,L|256:264,1,120.000004577637,8|0,0:0|0:0,0:0:0:0:
96,152,85335,5,0,1:0:0:0:
256,145,85517,5,8,1:2:0:0:
341,145,85698,1,0,1:0:0:0:
426,145,85880,1,0,1:0:0:0:
511,145,86062,1,0,1:0:0:0:
328,232,86244,5,6,1:2:0:0:
128,240,86608,6,0,L|56:240,2,64,2|0|10,0:0|0:0|1:2,0:0:0:0:
332,244,87335,5,0,0:0:0:0:
393,232,87516,1,0,0:0:0:0:
430,182,87698,1,2,1:2:0:0:
421,120,87880,1,0,0:0:0:0:
371,81,88062,1,2,0:0:0:0:
76,108,88426,6,0,L|76:248,1,128,10|2,1:2|0:0,0:0:0:0:
384,212,89153,5,2,1:2:0:0:
184,216,89517,6,0,L|108:216,1,64,0|0,0:0|0:0,0:0:0:0:
248,160,89880,2,0,L|316:160,1,64,10|0,1:2|0:0,0:0:0:0:
128,120,90244,2,0,L|60:120,1,64,2|0,0:0|0:0,0:0:0:0:
296,128,90608,5,2,1:2:0:0:
385,181,90789,1,0,0:0:0:0:
390,285,90971,1,2,0:0:0:0:
306,346,91153,1,0,0:0:0:0:
156,340,91335,1,10,1:2:0:0:
48,344,91517,1,0,0:0:0:0:
156,340,91699,1,2,0:0:0:0:
352,264,92062,6,0,P|380:240|352:164,1,128,2|0,1:2|0:0,0:0:0:0:
252,160,92608,1,0,0:0:0:0:
400,152,92790,1,10,1:2:0:0:
208,332,93153,5,0,0:0:0:0:
111,327,93334,1,0,0:0:0:0:
52,250,93516,1,2,1:2:0:0:
73,156,93698,1,0,0:0:0:0:
159,112,93880,1,2,0:0:0:0:
392,112,94244,5,10,1:2:0:0:
160,184,94608,1,2,2:0:0:0:
392,244,94971,5,2,1:2:0:0:
411,182,95152,1,0,0:0:0:0:
430,121,95334,1,2,0:0:0:0:
180,192,95699,6,0,L|136:128,1,64,10|0,1:2|0:0,0:0:0:0:
296,184,96062,2,0,L|332:128,1,64,2|0,0:0|0:0,0:0:0:0:
160,108,96426,1,2,1:2:0:0:
90,141,96607,1,0,0:0:0:0:
69,216,96789,1,2,0:0:0:0:
112,280,96971,1,0,1:0:0:0:
189,290,97153,5,8,1:2:0:0:
308,292,97335,2,0,P|340:268|328:180,1,128,0|0,1:0|1:0,0:0:0:0:
208,180,97880,1,0,0:0:0:0:
