osu file format v14

[General]
AudioFilename: audio.mp3
AudioLeadIn: 0
PreviewTime: 131166
Countdown: 0
SampleSet: Soft
StackLeniency: 0.3
Mode: 0
LetterboxInBreaks: 0
EpilepsyWarning: 1
WidescreenStoryboard: 1

[Editor]
Bookmarks: 90,14859,29628,44397,59166,73936,88705,103474,118243,133013,147782,162551,177320
DistanceSpacing: 0.7
BeatDivisor: 4
GridSize: 4
TimelineZoom: 1

[Metadata]
Title:Digital
TitleUnicode:Digital
Artist:Amidst
ArtistUnicode:Amidst
Creator:Daycore
Version:Insane
Source:
Tags:instrumental edm electro dance music electrohouse electronic
BeatmapID:2735563
BeatmapSetID:1320499

[Difficulty]
HPDrainRate:5
CircleSize:4.5
OverallDifficulty:7.8
ApproachRate:8.7
SliderMultiplier:1.95
SliderTickRate:1

[Events]
//Background and Video events
0,0,"amidst.jpg",0,0
//Break Periods
2,29828,42829
2,103474,116397
//Storyboard Layer 0 (Background)
Sprite,Background,Centre,"sb/highlight.png",0,0 S,2,133013,133328,1,0.2 F,2,133013,133328,1,0 P,0,133013,133328,A C,0,133013,,207,101,168 M,0,133013,133070,215,352,188.8369,357.34 M,0,133070,133128,188.8369,357.34,165.1081,369.5206
Sprite,Background,Centre,"sb/highlight.png",0,0 S,2,133243,133673,1,0.2 F,2,133243,133673,1,0 P,0,133243,133673,A C,0,133243,,207,101,168 M,0,133243,133300,95,384,118.2923,371.2532 M,0,133300,133358,118.2923,371.2532,134.4234,350.2548 M,0,133358,133416,134.4234,350.2548,140.7042,324.5775 M,0,133416,133473,140.7042,324.5775,136.473,298.4269
Sprite,Background,Centre,"sb/highlight.png",0,0 S,2,133705,134251,1,0.2 F,2,133705,134251,1,0 P,0,133705,134251,A C,0,133705,,207,101,168 M,0,133705,133762,92,142,118.0325,148.164 M,0,133762,133820,118.0325,148.164,144.7447,147.4281 M,0,133820,133878,144.7447,147.4281,170.1675,139.1868 M,0,133878,133935,170.1675,139.1868,192.747,124.8309 M,0,133935,133993,192.747,124.8309,171.9878,129.1101 M,0,133993,134051,171.9878,129.1101,145.3057,127.7536
Sprite,Background,Centre,"sb/highlight.png",163,59 S,2,134167,134367,1,0.2 F,2,134167,134367,1,0 P,0,134167,134367,A C,0,134167,,207,101,168
Sprite,Background,Centre,"sb/highlight.png",0,0 S,2,134397,134827,1,0.2 F,2,134397,134827,1,0 P,0,134397,134827,A C,0,134397,,207,101,168 M,0,134397,134454,253,201,267.8951,178.7892 M,0,134454,134512,267.8951,178.7892,287.2179,160.3284 M,0,134512,134570,287.2179,160.3284,310.0577,146.4787 M,0,134570,134627,310.0577,146.4787,335.3411,137.8863
Sprite,Background,Centre,"sb/highlight.png",0,0 S,2,134859,135405,1,0.2 F,2,134859,135405,1,0 P,0,134859,135405,A C,0,134859,,128,0,255 M,0,134859,134916,385,277,391.9489,246.1448 M,0,134916,134974,391.9489,246.1448,404.1432,216.9803 M,0,134974,135032,404.1432,216.9803,421.3719,190.4758 M,0,135032,135089,421.3719,190.4758,443.0763,167.4909 M,0,135089,135147,443.0763,167.4909,468.5531,148.7714 M,0,135147,135205,468.5531,148.7714,496.9764,134.9249
Sprite,Background,Centre,"sb/highlight.png",0,0 S,2,135320,135635,1,0.2 F,2,135320,135635,1,0 P,0,135320,135635,A C,0,135320,,255,128,255 M,0,135320,135377,575,169,558.0507,192.5664 M,0,135377,135435,558.0507,192.5664,550.5412,220.5417
Sprite,Background,Centre,"sb/highlight.png",0,0 S,2,135551,135866,1,0.2 F,2,135551,135866,1,0 P,0,135551,135866,A C,0,135551,,255,128,255 M,0,135551,135608,495,318,487.5905,289.9858 M,0,135608,135666,487.5905,289.9858,471,267
Sprite,Background,Centre,"sb/highlight.png",0,0 S,2,135782,136097,1,0.2 F,2,135782,136097,1,0 P,0,135782,136097,A C,0,135782,,92,84,190 M,0,135782,135839,496,134,473.3149,152.0931 M,0,135839,135897,473.3149,152.0931,458.7577,177.1177
Sprite,Background,Centre,"sb/highlight.png",0,0 S,2,136013,136328,1,0.2 F,2,136013,136328,1,0 P,0,136013,136328,A C,0,136013,,92,84,190 M,0,136013,136070,385,277,383.9022,247.9456 M,0,136070,136128,383.9022,247.9456,374.253,220.503
Sprite,Background,Centre,"sb/highlight.png",0,0 S,2,136243,136558,1,0.2 F,2,136243,136558,1,0 P,0,136243,136558,A C,0,136243,,207,101,168 M,0,136243,136300,451,62,424.2809,73.28691 M,0,136300,136358,424.2809,73.28691,403.7244,93.65172
Sprite,Background,Centre,"sb/highlight.png",0,0 S,2,136474,136789,1,0.2 F,2,136474,136789,1,0 P,0,136474,136789,A C,0,136474,,207,101,168 M,0,136474,136531,292,204,298.6613,175.7177 M,0,136531,136589,298.6613,175.7177,296.1705,146.7534
Sprite,Background,Centre,"sb/highlight.png",0,0 S,2,136705,137135,1,0.2 F,2,136705,137135,1,0 P,0,136705,137135,A C,0,136705,,128,0,255 M,0,136705,136762,180,78,197.1718,98.54558 M,0,136762,136820,197.1718,98.54558,210.9413,121.4994 M,0,136820,136878,210.9413,121.4994,220.9781,146.3062 M,0,136878,136935,220.9781,146.3062,227.0414,172.3666
Sprite,Background,Centre,"sb/highlight.png",141,241 S,2,137167,137367,1,0.2 F,2,137167,137367,1,0 P,0,137167,137367,A C,0,137167,,128,0,255
Sprite,Background,Centre,"sb/highlight.png",292,204 S,2,137398,137598,1,0.2 F,2,137398,137598,1,0 P,0,137398,137598,A C,0,137398,,128,0,255
Sprite,Background,Centre,"sb/highlight.png",0,0 S,2,137628,137943,1,0.2 F,2,137628,137943,1,0 P,0,137628,137943,A C,0,137628,,255,128,255 M,0,137628,137685,141,241,127.3617,264.0384 M,0,137685,137743,127.3617,264.0384,117.7242,289.005
Sprite,Background,Centre,"sb/highlight.png",0,0 S,2,137859,138174,1,0.2 F,2,137859,138174,1,0 P,0,137859,138174,A C,0,137859,,255,128,255 M,0,137859,137916,198,293,211.2719,316.2499 M,0,137916,137974,211.2719,316.2499,228.2127,336.9648
Sprite,Background,Centre,"sb/highlight.png",307,311 S,2,138090,138290,1,0.2 F,2,138090,138290,1,0 P,0,138090,138290,A C,0,138090,,255,128,255
Sprite,Background,Centre,"sb/highlight.png",0,0 S,2,138321,138982,1,0.2 F,2,138321,138982,1,0 P,0,138321,138982,A C,0,138321,,92,84,190 M,0,138321,138378,168,388,194.523,384.0707 M,0,138378,138436,194.523,384.0707,221.046,380.1413 M,0,138436,138494,221.046,380.1413,247.5691,376.212 M,0,138494,138551,247.5691,376.212,273.1651,383.7122 M,0,138551,138609,273.1651,383.7122,298.8294,390.724 M,0,138609,138667,298.8294,390.724,325.5152,388.1205 M,0,138667,138724,325.5152,388.1205,352.201,385.517 M,0,138724,138782,352.201,385.517,378,383
Sprite,Background,Centre,"sb/highlight.png",0,0 S,2,139013,139443,1,0.2 F,2,139013,139443,1,0 P,0,139013,139443,A C,0,139013,,207,101,168 M,0,139013,139070,539,380,564.4502,371.0776 M,0,139070,139128,564.4502,371.0776,560.9661,344.9081 M,0,139128,139186,560.9661,344.9081,533.6393,344.3358 M,0,139186,139243,533.6393,344.3358,530.7114,371.0417
Sprite,Background,Centre,"sb/highlight.png",0,0 S,2,139474,139904,1,0.2 F,2,139474,139904,1,0 P,0,139474,139904,A C,0,139474,,207,101,168 M,0,139474,139531,366,396,390.0536,384.3098 M,0,139531,139589,390.0536,384.3098,382.3311,359.5212 M,0,139589,139647,382.3311,359.5212,356.3079,364.7686 M,0,139647,139704,356.3079,364.7686,359,392
Sprite,Background,Centre,"sb/highlight.png",0,0 S,2,139936,140366,1,0.2 F,2,139936,140366,1,0 P,0,139936,140366,A C,0,139936,,207,101,168 M,0,139936,139993,168,388,193.0466,397.5079 M,0,139993,140051,193.0466,397.5079,187.6348,422.8642 M,0,140051,140109,187.6348,422.8642,161.4884,420.19 M,0,140109,140166,161.4884,420.19,161.2295,393.1046
Sprite,Background,Centre,"sb/highlight.png",0,0 S,2,140397,140712,1,0.2 F,2,140397,140712,1,0 P,0,140397,140712,A C,0,140397,,128,0,255 M,0,140397,140454,286,76,266.4928,94.15787 M,0,140454,140512,266.4928,94.15787,254.4718,117.9097
Sprite,Background,Centre,"sb/highlight.png",0,0 S,2,140628,141058,1,0.2 F,2,140628,141058,1,0 P,0,140628,141058,A C,0,140628,,128,0,255 M,0,140628,140685,292,179,268.4614,166.2124 M,0,140685,140743,268.4614,166.2124,243.4664,156.5951 M,0,140743,140801,243.4664,156.5951,217.4381,150.3092 M,0,140801,140858,217.4381,150.3092,190.8165,147.4602
Sprite,Background,Centre,"sb/highlight.png",0,0 S,2,141090,141636,1,0.2 F,2,141090,141636,1,0 P,0,141090,141636,A C,0,141090,,128,0,255 M,0,141090,141147,170,299,160.213,274.0432 M,0,141147,141205,160.213,274.0432,148.6144,249.877 M,0,141205,141263,148.6144,249.877,135.0252,226.7737 M,0,141263,141320,135.0252,226.7737,119.3007,205.0703 M,0,141320,141378,119.3007,205.0703,110.6521,201.1499 M,0,141378,141436,110.6521,201.1499,114.3917,227.6697
Sprite,Background,Centre,"sb/highlight.png",74,291 S,2,141551,141751,1,0.2 F,2,141551,141751,1,0 P,0,141551,141751,A C,0,141551,,128,0,255
Sprite,Background,Centre,"sb/highlight.png",0,0 S,2,141782,142212,1,0.2 F,2,141782,142212,1,0 P,0,141782,142212,A C,0,141782,,128,0,255 M,0,141782,141839,255,312,281.3219,310.3234 M,0,141839,141897,281.3219,310.3234,304.4306,322.8149 M,0,141897,141955,304.4306,322.8149,317.3469,345.5921 M,0,141955,142012,317.3469,345.5921,316.2059,371.6903
Sprite,Background,Centre,"sb/highlight.png",243,389 S,2,142244,142444,1,0.2 F,2,142244,142444,1,0 P,0,142244,142444,A C,0,142244,,255,128,255
Sprite,Background,Centre,"sb/highlight.png",0,0 S,2,142705,143020,1,0.2 F,2,142705,143020,1,0 P,0,142705,143020,A C,0,142705,,92,84,190 M,0,142705,142762,382,260,358.1847,247.6817 M,0,142762,142820,358.1847,247.6817,334.3693,235.3634
Sprite,Background,Centre,"sb/highlight.png",0,0 S,2,142936,143251,1,0.2 F,2,142936,143251,1,0 P,0,142936,143251,A C,0,142936,,92,84,190 M,0,142936,142993,377,94,353.1847,106.3183 M,0,142993,143051,353.1847,106.3183,329.3693,118.6366
Sprite,Background,Centre,"sb/highlight.png",0,0 S,2,143166,143481,1,0.2 F,2,143166,143481,1,0 P,0,143166,143481,A C,0,143166,,207,101,168 M,0,143166,143223,487,256,469.5955,235.6041 M,0,143223,143281,469.5955,235.6041,452.191,215.2082
Sprite,Background,Centre,"sb/highlight.png",0,0 S,2,143397,143712,1,0.2 F,2,143397,143712,1,0 P,0,143397,143712,A C,0,143397,,207,101,168 M,0,143397,143454,482,90,464.4605,110.28 M,0,143454,143512,464.4605,110.28,446.9211,130.56
Sprite,Background,Centre,"sb/highlight.png",0,0 S,2,143628,143943,1,0.2 F,2,143628,143943,1,0 P,0,143628,143943,A C,0,143628,,128,0,255 M,0,143628,143685,576,270,567.2762,244.6464 M,0,143685,143743,567.2762,244.6464,558.5524,219.2928
Sprite,Background,Centre,"sb/highlight.png",0,0 S,2,143859,144174,1,0.2 F,2,143859,144174,1,0 P,0,143859,144174,A C,0,143859,,128,0,255 M,0,143859,143916,571,73,562.1915,98.32432 M,0,143916,143974,562.1915,98.32432,553.3831,123.6486
Sprite,Background,Centre,"sb/highlight.png",0,0 S,2,144090,144520,1,0.2 F,2,144090,144520,1,0 P,0,144090,144520,A C,0,144090,,255,128,255 M,0,144090,144147,487,256,485.8833,282.6485 M,0,144147,144205,485.8833,282.6485,492.8977,308.3419 M,0,144205,144263,492.8977,308.3419,507.3667,330.6713 M,0,144263,144320,507.3667,330.6713,527.9211,347.545
Sprite,Background,Centre,"sb/highlight.png",576,270 S,2,144551,144751,1,0.2 F,2,144551,144751,1,0 P,0,144551,144751,A C,0,144551,,255,128,255
Sprite,Background,Centre,"sb/highlight.png",521,428 S,2,144782,144982,1,0.2 F,2,144782,144982,1,0 P,0,144782,144982,A C,0,144782,,255,128,255
Sprite,Background,Centre,"sb/highlight.png",0,0 S,2,145013,145328,1,0.2 F,2,145013,145328,1,0 P,0,145013,145328,A C,0,145013,,92,84,190 M,0,145013,145070,427,373,404.3654,358.7364 M,0,145070,145128,404.3654,358.7364,379.2158,349.6364
Sprite,Background,Centre,"sb/highlight.png",0,0 S,2,145243,145558,1,0.2 F,2,145243,145558,1,0 P,0,145243,145558,A C,0,145243,,92,84,190 M,0,145243,145300,355,270,331.0728,281.9512 M,0,145300,145358,331.0728,281.9512,310.4924,299.0167
Sprite,Background,Centre,"sb/highlight.png",300,383 S,2,145474,145674,1,0.2 F,2,145474,145674,1,0 P,0,145474,145674,A C,0,145474,,92,84,190
Sprite,Background,Centre,"sb/highlight.png",0,0 S,2,145705,146251,1,0.2 F,2,145705,146251,1,0 P,0,145705,146251,A C,0,145705,,207,101,168 M,0,145705,145762,126,332,147.2336,315.816 M,0,145762,145820,147.2336,315.816,160.8371,292.9766 M,0,145820,145878,160.8371,292.9766,160.5635,266.6399 M,0,145878,145935,160.5635,266.6399,142.3881,248.1149 M,0,145935,145993,142.3881,248.1149,117.046,252.2686 M,0,145993,146051,117.046,252.2686,104.4428,275.2159
Sprite,Background,Centre,"sb/highlight.png",0,0 S,2,146167,146482,1,0.2 F,2,146167,146482,1,0 P,0,146167,146482,A C,0,146167,,128,0,255 M,0,146167,146224,172,181,187.5711,165.095 M,0,146224,146282,187.5711,165.095,174.0178,182.4114
Sprite,Background,Centre,"sb/highlight.png",99,180 S,2,146397,146597,1,0.2 F,2,146397,146597,1,0 P,0,146397,146597,A C,0,146397,,255,128,255
Sprite,Background,Centre,"sb/highlight.png",230,240 S,2,146628,146828,1,0.2 F,2,146628,146828,1,0 P,0,146628,146828,A C,0,146628,,255,128,255
Sprite,Background,Centre,"sb/highlight.png",137,120 S,2,146859,147059,1,0.2 F,2,146859,147059,1,0 P,0,146859,147059,A C,0,146859,,92,84,190
Sprite,Background,Centre,"sb/highlight.png",104,275 S,2,147090,147290,1,0.2 F,2,147090,147290,1,0 P,0,147090,147290,A C,0,147090,,92,84,190
Sprite,Background,Centre,"sb/highlight.png",267,336 S,2,147320,147520,1,0.2 F,2,147320,147520,1,0 P,0,147320,147520,A C,0,147320,,92,84,190
Sprite,Background,Centre,"sb/highlight.png",288,166 S,2,147551,147751,1,0.2 F,2,147551,147751,1,0 P,0,147551,147751,A C,0,147551,,92,84,190
Sprite,Background,Centre,"sb/highlight.png",230,240 S,2,147782,147982,1,0.2 F,2,147782,147982,1,0 P,0,147782,147982,A C,0,147782,,207,101,168
Sprite,Background,Centre,"sb/highlight.png",329,263 S,2,148013,148213,1,0.2 F,2,148013,148213,1,0 P,0,148013,148213,A C,0,148013,,207,101,168
Sprite,Background,Centre,"sb/highlight.png",288,166 S,2,148243,148443,1,0.2 F,2,148243,148443,1,0 P,0,148243,148443,A C,0,148243,,207,101,168
Sprite,Background,Centre,"sb/highlight.png",0,0 S,2,148474,149020,1,0.2 F,2,148474,149020,1,0 P,0,148474,149020,A C,0,148474,,207,101,168 M,0,148474,148531,267,336,286.7487,318.0701 M,0,148531,148589,286.7487,318.0701,310.9118,306.8643 M,0,148589,148647,310.9118,306.8643,337.2939,303.3817 M,0,148647,148704,337.2939,303.3817,363.5959,307.6349 M,0,148704,148762,363.5959,307.6349,387.2121,320.002 M,0,148762,148820,387.2121,320.002,406.242,338.6882
Sprite,Background,Centre,"sb/highlight.png",336,394 S,2,148936,149136,1,0.2 F,2,148936,149136,1,0 P,0,148936,149136,A C,0,148936,,207,101,168
Sprite,Background,Centre,"sb/highlight.png",0,0 S,2,149166,149596,1,0.2 F,2,149166,149596,1,0 P,0,149166,149596,A C,0,149166,,207,101,168 M,0,149166,149223,521,383,507.035,360.1285 M,0,149223,149281,507.035,360.1285,495.369,336.0077 M,0,149281,149339,495.369,336.0077,486.1121,310.8664 M,0,149339,149396,486.1121,310.8664,479.2726,284.9603
Sprite,Background,Centre,"sb/highlight.png",561,195 S,2,149628,149828,1,0.2 F,2,149628,149828,1,0 P,0,149628,149828,A C,0,149628,,128,0,255
Sprite,Background,Centre,"sb/highlight.png",0,0 S,2,150090,150405,1,0.2 F,2,150090,150405,1,0 P,0,150090,150405,A C,0,150090,,255,128,255 M,0,150090,150147,454,207,427.3235,204.3024 M,0,150147,150205,427.3235,204.3024,400.6471,201.6048
Sprite,Background,Centre,"sb/highlight.png",392,320 S,2,150320,150520,1,0.2 F,2,150320,150520,1,0 P,0,150320,150520,A C,0,150320,,255,128,255
Sprite,Background,Centre,"sb/highlight.png",0,0 S,2,150551,150866,1,0.2 F,2,150551,150866,1,0 P,0,150551,150866,A C,0,150551,,92,84,190 M,0,150551,150608,334,168,307.3515,165.0391 M,0,150608,150666,307.3515,165.0391,280.703,162.0781
Sprite,Background,Centre,"sb/highlight.png",269,349 S,2,150782,150982,1,0.2 F,2,150782,150982,1,0 P,0,150782,150982,A C,0,150782,,92,84,190
Sprite,Background,Centre,"sb/highlight.png",0,0 S,2,151013,151328,1,0.2 F,2,151013,151328,1,0 P,0,151013,151328,A C,0,151013,,207,101,168 M,0,151013,151070,204,150,205.4757,176.5167 M,0,151070,151128,205.4757,176.5167,215.4693,201.1175
Sprite,Background,Centre,"sb/highlight.png",139,366 S,2,151243,151443,1,0.2 F,2,151243,151443,1,0 P,0,151243,151443,A C,0,151243,,207,101,168
Sprite,Background,Centre,"sb/highlight.png",0,0 S,2,151474,151904,1,0.2 F,2,151474,151904,1,0 P,0,151474,151904,A C,0,151474,,128,0,255 M,0,151474,151531,247,263,221.8432,271.6055 M,0,151531,151589,221.8432,271.6055,195.3755,269.7499 M,0,151589,151647,195.3755,269.7499,171.7543,257.7614 M,0,151647,151704,171.7543,257.7614,154.681,237.5493
Sprite,Background,Centre,"sb/highlight.png",280,162 S,2,151936,152136,1,0.2 F,2,151936,152136,1,0 P,0,151936,152136,A C,0,151936,,128,0,255
Sprite,Background,Centre,"sb/highlight.png",139,366 S,2,152167,152367,1,0.2 F,2,152167,152367,1,0 P,0,152167,152367,A C,0,152167,,128,0,255
Sprite,Background,Centre,"sb/highlight.png",0,0 S,2,152397,152712,1,0.2 F,2,152397,152712,1,0 P,0,152397,152712,A C,0,152397,,255,128,255 M,0,152397,152454,89,218,90.3819,191.3919 M,0,152454,152512,90.3819,191.3919,83.07555,165.8189
Sprite,Background,Centre,"sb/highlight.png",0,0 S,2,152628,152943,1,0.2 F,2,152628,152943,1,0 P,0,152628,152943,A C,0,152628,,255,128,255 M,0,152628,152685,198,130,196.6181,103.3919 M,0,152685,152743,196.6181,103.3919,203.9244,77.81886
Sprite,Background,Centre,"sb/highlight.png",163,193 S,2,152859,153059,1,0.2 F,2,152859,153059,1,0 P,0,152859,153059,A C,0,152859,,255,128,255
Sprite,Background,Centre,"sb/highlight.png",0,0 S,2,153090,153751,1,0.2 F,2,153090,153751,1,0 P,0,153090,153751,A C,0,153090,,92,84,190 M,0,153090,153147,94,94,111.4942,73.75746 M,0,153147,153205,111.4942,73.75746,132.6119,57.35598 M,0,153205,153263,132.6119,57.35598,156.5308,45.42802 M,0,153263,153320,156.5308,45.42802,182.3214,38.43367 M,0,153320,153378,182.3214,38.43367,208.9827,36.49111 M,0,153378,153436,208.9827,36.49111,235.4798,40.09558 M,0,153436,153493,235.4798,40.09558,260.7412,48.83189 M,0,153493,153551,260.7412,48.83189,283.7881,62.3579
Sprite,Background,Centre,"sb/highlight.png",0,0 S,2,153782,154212,1,0.2 F,2,153782,154212,1,0 P,0,153782,154212,A C,0,153782,,207,101,168 M,0,153782,153839,469,222,460.5991,194.0153 M,0,153839,153897,460.5991,194.0153,448.5663,167.3987 M,0,153897,153955,448.5663,167.3987,433.1581,142.5841 M,0,153955,154012,433.1581,142.5841,414.4395,120.1581
Sprite,Background,Centre,"sb/highlight.png",0,0 S,2,154243,154673,1,0.2 F,2,154243,154673,1,0 P,0,154243,154673,A C,0,154243,,207,101,168 M,0,154243,154300,305,288,333.5432,294.2567 M,0,154300,154358,333.5432,294.2567,362.6425,296.834 M,0,154358,154416,362.6425,296.834,391.8329,295.7242 M,0,154416,154473,391.8329,295.7242,420.6179,290.7361
Sprite,Background,Centre,"sb/highlight.png",0,0 S,2,154705,155135,1,0.2 F,2,154705,155135,1,0 P,0,154705,155135,A C,0,154705,,207,101,168 M,0,154705,154762,338,112,317.9452,133.25 M,0,154762,154820,317.9452,133.25,300.8525,156.938 M,0,154820,154878,300.8525,156.938,286.9691,182.6376 M,0,154878,154935,286.9691,182.6376,276.7556,210.0061
Sprite,Background,Centre,"sb/highlight.png",0,0 S,2,155166,155481,1,0.2 F,2,155166,155481,1,0 P,0,155166,155481,A C,0,155166,,128,0,255 M,0,155166,155223,133,257,115.315,256.4678 M,0,155223,155281,115.315,256.4678,132.0199,260.6533
Sprite,Background,Centre,"sb/highlight.png",0,0 S,2,155397,155827,1,0.2 F,2,155397,155827,1,0 P,0,155397,155827,A C,0,155397,,128,0,255 M,0,155397,155454,68,318,75.31614,289.7532 M,0,155454,155512,75.31614,289.7532,77.11711,260.6358 M,0,155512,155570,77.11711,260.6358,72.80544,231.7851 M,0,155570,155627,72.80544,231.7851,63.07528,204.281
Sprite,Background,Centre,"sb/highlight.png",0,0 S,2,155859,156405,1,0.2 F,2,155859,156405,1,0 P,0,155859,156405,A C,0,155859,,128,0,255 M,0,155859,155916,223,234,194.5472,227.3972 M,0,155916,155974,194.5472,227.3972,168.2948,214.6924 M,0,155974,156032,168.2948,214.6924,146.9951,194.8368 M,0,156032,156089,146.9951,194.8368,133.0862,169.2348 M,0,156089,156147,133.0862,169.2348,154.3379,188.4096 M,0,156147,156205,154.3379,188.4096,180.6704,200.9948
Sprite,Background,Centre,"sb/highlight.png",199,119 S,2,156321,156521,1,0.2 F,2,156321,156521,1,0 P,0,156321,156521,A C,0,156321,,128,0,255
Sprite,Background,Centre,"sb/highlight.png",0,0 S,2,156551,156981,1,0.2 F,2,156551,156981,1,0 P,0,156551,156981,A C,0,156551,,128,0,255 M,0,156551,156608,259,306,251.3684,277.7631 M,0,156608,156666,251.3684,277.7631,259.931,252.0459 M,0,156666,156724,259.931,252.0459,275.7808,227.4624 M,0,156724,156781,275.7808,227.4624,291.6306,202.879
Sprite,Background,Centre,"sb/highlight.png",340,287 S,2,157013,157213,1,0.2 F,2,157013,157213,1,0 P,0,157013,157213,A C,0,157013,,255,128,255
Sprite,Background,Centre,"sb/highlight.png",0,0 S,2,157474,157789,1,0.2 F,2,157474,157789,1,0 P,0,157474,157789,A C,0,157474,,92,84,190 M,0,157474,157531,293,82,318.2162,96.5215 M,0,157531,157589,318.2162,96.5215,346.4535,103.5863
Sprite,Background,Centre,"sb/highlight.png",470,122 S,2,157705,157905,1,0.2 F,2,157705,157905,1,0 P,0,157705,157905,A C,0,157705,,92,84,190
Sprite,Background,Centre,"sb/highlight.png",0,0 S,2,157936,158251,1,0.2 F,2,157936,158251,1,0 P,0,157936,158251,A C,0,157936,,207,101,168 M,0,157936,157993,275,151,295.7302,171.4347 M,0,157993,158051,295.7302,171.4347,321.1368,185.6543
Sprite,Background,Centre,"sb/highlight.png",435,235 S,2,158166,158366,1,0.2 F,2,158166,158366,1,0 P,0,158166,158366,A C,0,158166,,207,101,168
Sprite,Background,Centre,"sb/highlight.png",0,0 S,2,158397,158712,1,0.2 F,2,158397,158712,1,0 P,0,158397,158712,A C,0,158397,,128,0,255 M,0,158397,158454,241,214,255.4697,239.2359 M,0,158454,158512,255.4697,239.2359,276.4612,259.3801
Sprite,Background,Centre,"sb/highlight.png",373,336 S,2,158628,158828,1,0.2 F,2,158628,158828,1,0 P,0,158628,158828,A C,0,158628,,128,0,255
Sprite,Background,Centre,"sb/highlight.png",0,0 S,2,158859,159289,1,0.2 F,2,158859,159289,1,0 P,0,158859,159289,A C,0,158859,,255,128,255 M,0,158859,158916,186,408,208.4011,389.5823 M,0,158916,158974,208.4011,389.5823,222.4956,364.3126 M,0,158974,159032,222.4956,364.3126,226.4828,335.6674 M,0,159032,159089,226.4828,335.6674,219.2236,307.6515
Sprite,Background,Centre,"sb/highlight.png",275,151 S,2,159321,159521,1,0.2 F,2,159321,159521,1,0 P,0,159321,159521,A C,0,159321,,255,128,255
Sprite,Background,Centre,"sb/highlight.png",170,248 S,2,159551,159751,1,0.2 F,2,159551,159751,1,0 P,0,159551,159751,A C,0,159551,,255,128,255
Sprite,Background,Centre,"sb/highlight.png",0,0 S,2,159782,160097,1,0.2 F,2,159782,160097,1,0 P,0,159782,160097,A C,0,159782,,92,84,190 M,0,159782,159839,315,327,344.0901,327.1195 M,0,159839,159897,344.0901,327.1195,371.9496,335.5302
Sprite,Background,Centre,"sb/highlight.png",0,0 S,2,160013,160328,1,0.2 F,2,160013,160328,1,0 P,0,160013,160328,A C,0,160013,,92,84,190 M,0,160013,160070,406,271,427.2592,290.7285 M,0,160070,160128,427.2592,290.7285,440.3443,316.6358
Sprite,Background,Centre,"sb/highlight.png",506,339 S,2,160244,160444,1,0.2 F,2,160244,160444,1,0 P,0,160244,160444,A C,0,160244,,92,84,190
Sprite,Background,Centre,"sb/highlight.png",0,0 S,2,160474,161135,1,0.2 F,2,160474,161135,1,0 P,0,160474,161135,A C,0,160474,,207,101,168 M,0,160474,160531,337,409,339.1467,379.8347 M,0,160531,160589,339.1467,379.8347,339.1661,350.5919 M,0,160589,160647,339.1661,350.5919,336.8054,321.4464 M,0,160647,160704,336.8054,321.4464,331.8344,292.6329 M,0,160704,160762,331.8344,292.6329,324.0789,264.4427 M,0,160762,160820,324.0789,264.4427,309.6712,243.0124 M,0,160820,160877,309.6712,243.0124,280.859,247.4692 M,0,160877,160935,280.859,247.4692,255.3334,261.341
Sprite,Background,Centre,"sb/highlight.png",337,409 S,2,161167,161367,1,0.2 F,2,161167,161367,1,0 P,0,161167,161367,A C,0,161167,,207,101,168
Sprite,Background,Centre,"sb/highlight.png",506,339 S,2,161398,161598,1,0.2 F,2,161398,161598,1,0 P,0,161398,161598,A C,0,161398,,207,101,168
Sprite,Background,Centre,"sb/highlight.png",318,421 S,2,161628,161828,1,0.2 F,2,161628,161828,1,0 P,0,161628,161828,A C,0,161628,,207,101,168
Sprite,Background,Centre,"sb/highlight.png",446,281 S,2,161859,162059,1,0.2 F,2,161859,162059,1,0 P,0,161859,162059,A C,0,161859,,207,101,168
Sprite,Background,Centre,"sb/highlight.png",507,430 S,2,162090,162290,1,0.2 F,2,162090,162290,1,0 P,0,162090,162290,A C,0,162090,,207,101,168
Sprite,Background,Centre,"sb/highlight.png",338,325 S,2,162321,162521,1,0.2 F,2,162321,162521,1,0 P,0,162321,162521,A C,0,162321,,207,101,168
Sprite,Background,Centre,"sb/highlight.png",0,0 S,2,59166,59481,1,0.2 F,2,59166,59481,1,0 P,0,59166,59481,A C,0,59166,,128,0,255 M,0,59166,59223,363,404,353.3688,379.0735 M,0,59223,59281,353.3688,379.0735,350.5602,352.5153
Sprite,Background,Centre,"sb/highlight.png",0,0 S,2,59397,59827,1,0.2 F,2,59397,59827,1,0 P,0,59397,59827,A C,0,59397,,128,0,255 M,0,59397,59454,398,300,373.2794,310.3827 M,0,59454,59512,373.2794,310.3827,348.5587,320.7654 M,0,59512,59570,348.5587,320.7654,327.6129,304.5335 M,0,59570,59627,327.6129,304.5335,306.7543,287.6862
Sprite,Background,Centre,"sb/highlight.png",0,0 S,2,59859,60405,1,0.2 F,2,59859,60405,1,0 P,0,59859,60405,A C,0,59859,,128,0,255 M,0,59859,59916,166,204,190.3988,213.793 M,0,59916,59974,190.3988,213.793,194.8154,237.8813 M,0,59974,60032,194.8154,237.8813,191.3742,264.472 M,0,60032,60089,191.3742,264.472,187.933,291.0628 M,0,60089,60147,187.933,291.0628,175.1465,310.429 M,0,60147,60205,175.1465,310.429,148.5742,311.0083
Sprite,Background,Centre,"sb/highlight.png",102,250 S,2,60320,60520,1,0.2 F,2,60320,60520,1,0 P,0,60320,60520,A C,0,60320,,128,0,255
Sprite,Background,Centre,"sb/highlight.png",0,0 S,2,60551,60981,1,0.2 F,2,60551,60981,1,0 P,0,60551,60981,A C,0,60551,,128,0,255 M,0,60551,60608,217,126,233.5764,146.8773 M,0,60608,60666,233.5764,146.8773,255.9368,161.3159 M,0,60666,60724,255.9368,161.3159,281.7175,167.8149 M,0,60724,60781,281.7175,167.8149,308.2025,165.7047
Sprite,Background,Centre,"sb/highlight.png",0,0 S,2,61013,61559,1,0.2 F,2,61013,61559,1,0 P,0,61013,61559,A C,0,61013,,255,128,255 M,0,61013,61070,431,141,402.9064,149.0396 M,0,61070,61128,402.9064,149.0396,375.9856,160.4073 M,0,61128,61186,375.9856,160.4073,350.847,175.3026 M,0,61186,61243,350.847,175.3026,327.6975,193.1334 M,0,61243,61301,327.6975,193.1334,307.1544,213.9117 M,0,61301,61359,307.1544,213.9117,289.2935,237.0358
Sprite,Background,Centre,"sb/highlight.png",0,0 S,2,61474,61789,1,0.2 F,2,61474,61789,1,0 P,0,61474,61789,A C,0,61474,,92,84,190 M,0,61474,61531,191,302,198.7464,276.7036 M,0,61531,61589,198.7464,276.7036,217.6089,258.2831
Sprite,Background,Centre,"sb/highlight.png",0,0 S,2,61705,62020,1,0.2 F,2,61705,62020,1,0 P,0,61705,62020,A C,0,61705,,92,84,190 M,0,61705,61762,299,309,288.7291,335.8654 M,0,61762,61820,288.7291,335.8654,266.7988,354.5298
Sprite,Background,Centre,"sb/highlight.png",0,0 S,2,61936,62251,1,0.2 F,2,61936,62251,1,0 P,0,61936,62251,A C,0,61936,,207,101,168 M,0,61936,61993,70,284,93.42867,271.741 M,0,61993,62051,93.42867,271.741,119.766,272.4314
Sprite,Background,Centre,"sb/highlight.png",0,0 S,2,62166,62481,1,0.2 F,2,62166,62481,1,0 P,0,62166,62481,A C,0,62166,,207,101,168 M,0,62166,62223,141,365,117.2389,376.6813 M,0,62223,62281,117.2389,376.6813,90.8572,375.8303
Sprite,Background,Centre,"sb/highlight.png",0,0 S,2,62397,62712,1,0.2 F,2,62397,62712,1,0 P,0,62397,62712,A C,0,62397,,128,0,255 M,0,62397,62454,191,302,195.6944,275.7042 M,0,62454,62512,195.6944,275.7042,207.2659,251.6542
Sprite,Background,Centre,"sb/highlight.png",0,0 S,2,62628,62943,1,0.2 F,2,62628,62943,1,0 P,0,62628,62943,A C,0,62628,,128,0,255 M,0,62628,62685,253,198,274.5735,182.2616 M,0,62685,62743,274.5735,182.2616,299.6451,173.1392
Sprite,Background,Centre,"sb/highlight.png",0,0 S,2,62859,63289,1,0.2 F,2,62859,63289,1,0 P,0,62859,63289,A C,0,62859,,255,128,255 M,0,62859,62916,363,203,388.6522,210.4449 M,0,62916,62974,388.6522,210.4449,415.3392,210.6928 M,0,62974,63032,415.3392,210.6928,441.0852,203.736 M,0,63032,63089,441.0852,203.736,464.1244,190.2591
Sprite,Background,Centre,"sb/highlight.png",402,122 S,2,63320,63520,1,0.2 F,2,63320,63520,1,0 P,0,63320,63520,A C,0,63320,,255,128,255
Sprite,Background,Centre,"sb/highlight.png",478,272 S,2,63551,63751,1,0.2 F,2,63551,63751,1,0 P,0,63551,63751,A C,0,63551,,255,128,255
Sprite,Background,Centre,"sb/highlight.png",0,0 S,2,63782,64097,1,0.2 F,2,63782,64097,1,0 P,0,63782,64097,A C,0,63782,,255,128,255 M,0,63782,63839,561,166,547.3617,189.0384 M,0,63839,63897,547.3617,189.0384,537.7242,214.005
Sprite,Background,Centre,"sb/highlight.png",0,0 S,2,64013,64328,1,0.2 F,2,64013,64328,1,0 P,0,64013,64328,A C,0,64013,,255,128,255 M,0,64013,64070,478,272,491.2719,295.2499 M,0,64070,64128,491.2719,295.2499,508.2127,315.9648
Sprite,Background,Centre,"sb/highlight.png",573,275 S,2,64243,64443,1,0.2 F,2,64243,64443,1,0 P,0,64243,64443,A C,0,64243,,255,128,255
Sprite,Background,Centre,"sb/highlight.png",0,0 S,2,64474,65135,1,0.2 F,2,64474,65135,1,0 P,0,64474,65135,A C,0,64474,,92,84,190 M,0,64474,64531,438,403,411.3476,400.0747 M,0,64531,64589,411.3476,400.0747,384.6951,397.1495 M,0,64589,64647,384.6951,397.1495,358.0427,394.2242 M,0,64647,64704,358.0427,394.2242,332.5129,401.829 M,0,64704,64762,332.5129,401.829,307.0361,409.8623 M,0,64762,64820,307.0361,409.8623,280.4931,406.0704 M,0,64820,64877,280.4931,406.0704,253.9501,402.2786 M,0,64877,64935,253.9501,402.2786,227.4071,398.4867
Sprite,Background,Centre,"sb/highlight.png",0,0 S,2,65166,65596,1,0.2 F,2,65166,65596,1,0 P,0,65166,65596,A C,0,65166,,207,101,168 M,0,65166,65223,138,141,138.7342,171.4238 M,0,65223,65281,138.7342,171.4238,135.3223,201.6555 M,0,65281,65339,135.3223,201.6555,127.6819,231.1082 M,0,65339,65396,127.6819,231.1082,115.9639,259.1953
Sprite,Background,Centre,"sb/highlight.png",0,0 S,2,65628,66058,1,0.2 F,2,65628,66058,1,0 P,0,65628,66058,A C,0,65628,,207,101,168 M,0,65628,65685,227,398,218.4509,368.7724 M,0,65685,65743,218.4509,368.7724,212.623,338.887 M,0,65743,65801,212.623,338.887,209.6659,308.5804 M,0,65801,65858,209.6659,308.5804,209.5949,278.126
Sprite,Background,Centre,"sb/highlight.png",0,0 S,2,66090,66520,1,0.2 F,2,66090,66520,1,0 P,0,66090,66520,A C,0,66090,,207,101,168 M,0,66090,66147,222,104,249.9258,116.1858 M,0,66147,66205,249.9258,116.1858,277.7772,127.4908 M,0,66205,66263,277.7772,127.4908,303.2631,110.7931 M,0,66263,66320,303.2631,110.7931,328.7491,94.09544
Sprite,Background,Centre,"sb/highlight.png",0,0 S,2,66551,66866,1,0.2 F,2,66551,66866,1,0 P,0,66551,66866,A C,0,66551,,128,0,255 M,0,66551,66608,441,250,434.4,224.0125 M,0,66608,66666,434.4,224.0125,427.8,198.025
Sprite,Background,Centre,"sb/highlight.png",0,0 S,2,66782,67212,1,0.2 F,2,66782,67212,1,0 P,0,66782,67212,A C,0,66782,,128,0,255 M,0,66782,66839,362,171,387.9213,164.1448 M,0,66839,66897,387.9213,164.1448,413.8427,157.2895 M,0,66897,66955,413.8427,157.2895,439.764,150.4343 M,0,66955,67012,439.764,150.4343,465.6854,143.5791
Sprite,Background,Centre,"sb/highlight.png",0,0 S,2,67243,67789,1,0.2 F,2,67243,67789,1,0 P,0,67243,67789,A C,0,67243,,128,0,255 M,0,67243,67300,447,327,452.2594,300.7396 M,0,67300,67358,452.2594,300.7396,461.2321,275.5143 M,0,67358,67416,461.2321,275.5143,473.731,251.8439 M,0,67416,67473,473.731,251.8439,489.4973,230.2159 M,0,67473,67531,489.4973,230.2159,508.1233,210.9874 M,0,67531,67589,508.1233,210.9874,529.4473,194.7943
Sprite,Background,Centre,"sb/highlight.png",574,253 S,2,67705,67905,1,0.2 F,2,67705,67905,1,0 P,0,67705,67905,A C,0,67705,,128,0,255
Sprite,Background,Centre,"sb/highlight.png",0,0 S,2,67936,68366,1,0.2 F,2,67936,68366,1,0 P,0,67936,68366,A C,0,67936,,128,0,255 M,0,67936,67993,475,403,448.754,407.7122 M,0,67993,68051,448.754,407.7122,422.4219,403.7212 M,0,68051,68109,422.4219,403.7212,398.8047,391.4701 M,0,68109,68166,398.8047,391.4701,380.4108,372.2773
Sprite,Background,Centre,"sb/highlight.png",447,327 S,2,68397,68597,1,0.2 F,2,68397,68597,1,0 P,0,68397,68597,A C,0,68397,,255,128,255
Sprite,Background,Centre,"sb/highlight.png",0,0 S,2,68859,69174,1,0.2 F,2,68859,69174,1,0 P,0,68859,69174,A C,0,68859,,92,84,190 M,0,68859,68916,127,426,131.2694,399.5296 M,0,68916,68974,131.2694,399.5296,135.5388,373.0592
Sprite,Background,Centre,"sb/highlight.png",0,0 S,2,69090,69405,1,0.2 F,2,69090,69405,1,0 P,0,69090,69405,A C,0,69090,,92,84,190 M,0,69090,69147,202,406,206.2694,379.5296 M,0,69147,69205,206.2694,379.5296,210.5388,353.0592
Sprite,Background,Centre,"sb/highlight.png",0,0 S,2,69320,69635,1,0.2 F,2,69320,69635,1,0 P,0,69320,69635,A C,0,69320,,207,101,168 M,0,69320,69377,109,286,129.62,302.5272 M,0,69377,69435,129.62,302.5272,155.6187,306.6594
Sprite,Background,Centre,"sb/highlight.png",0,0 S,2,69551,69866,1,0.2 F,2,69551,69866,1,0 P,0,69551,69866,A C,0,69551,,207,101,168 M,0,69551,69608,253,274,232.38,257.4728 M,0,69608,69666,232.38,257.4728,206.3813,253.3406
Sprite,Background,Centre,"sb/highlight.png",0,0 S,2,69782,70097,1,0.2 F,2,69782,70097,1,0 P,0,69782,70097,A C,0,69782,,128,0,255 M,0,69782,69839,91,167,83.71721,192.7629 M,0,69839,69897,83.71721,192.7629,80.67683,219.3509
Sprite,Background,Centre,"sb/highlight.png",0,0 S,2,70013,70328,1,0.2 F,2,70013,70328,1,0 P,0,70013,70328,A C,0,70013,,128,0,255 M,0,70013,70070,239,182,234.9302,155.5227 M,0,70070,70128,234.9302,155.5227,228.1857,129.5977
Sprite,Background,Centre,"sb/highlight.png",0,0 S,2,70243,70673,1,0.2 F,2,70243,70673,1,0 P,0,70243,70673,A C,0,70243,,255,128,255 M,0,70243,70300,182,61,202.5642,77.96823 M,0,70300,70358,202.5642,77.96823,227.3407,87.69778 M,0,70358,70416,227.3407,87.69778,253.888,89.25089 M,0,70416,70473,253.888,89.25089,279.7034,82.74882
Sprite,Background,Centre,"sb/highlight.png",379,120 S,2,70705,70905,1,0.2 F,2,70705,70905,1,0 P,0,70705,70905,A C,0,70705,,255,128,255
Sprite,Background,Centre,"sb/highlight.png",239,182 S,2,70936,71136,1,0.2 F,2,70936,71136,1,0 P,0,70936,71136,A C,0,70936,,255,128,255
Sprite,Background,Centre,"sb/highlight.png",0,0 S,2,71166,71481,1,0.2 F,2,71166,71481,1,0 P,0,71166,71481,A C,0,71166,,92,84,190 M,0,71166,71223,379,120,367.7485,144.2946 M,0,71223,71281,367.7485,144.2946,360.9626,170.1887
Sprite,Background,Centre,"sb/highlight.png",0,0 S,2,71397,71712,1,0.2 F,2,71397,71712,1,0 P,0,71397,71712,A C,0,71397,,92,84,190 M,0,71397,71454,441,169,456.5511,190.7953 M,0,71454,71512,456.5511,190.7953,475.5945,209.6067
Sprite,Background,Centre,"sb/highlight.png",550,184 S,2,71628,71828,1,0.2 F,2,71628,71828,1,0 P,0,71628,71828,A C,0,71628,,92,84,190
Sprite,Background,Centre,"sb/highlight.png",0,0 S,2,71859,72405,1,0.2 F,2,71859,72405,1,0 P,0,71859,72405,A C,0,71859,,207,101,168 M,0,71859,71916,379,120,363.8034,141.8363 M,0,71916,71974,363.8034,141.8363,360.4731,168.1706 M,0,71974,72032,360.4731,168.1706,368.884,193.5495 M,0,72032,72089,368.884,193.5495,376.626,219.0678 M,0,72089,72147,376.626,219.0678,374.6696,245.7231 M,0,72147,72205,374.6696,245.7231,366.3028,271.1442
Sprite,Background,Centre,"sb/highlight.png",0,0 S,2,72320,72635,1,0.2 F,2,72320,72635,1,0 P,0,72320,72635,A C,0,72320,,128,0,255 M,0,72320,72377,321,358,336.5711,342.095 M,0,72377,72435,336.5711,342.095,323.0178,359.4114
Sprite,Background,Centre,"sb/highlight.png",289,276 S,2,72551,72751,1,0.2 F,2,72551,72751,1,0 P,0,72551,72751,A C,0,72551,,255,128,255
Sprite,Background,Centre,"sb/highlight.png",413,335 S,2,72782,72982,1,0.2 F,2,72782,72982,1,0 P,0,72782,72982,A C,0,72782,,255,128,255
Sprite,Background,Centre,"sb/highlight.png",321,358 S,2,73012,73212,1,0.2 F,2,73012,73212,1,0 P,0,73012,73212,A C,0,73012,,92,84,190
Sprite,Background,Centre,"sb/highlight.png",366,272 S,2,73243,73443,1,0.2 F,2,73243,73443,1,0 P,0,73243,73443,A C,0,73243,,92,84,190
Sprite,Background,Centre,"sb/highlight.png",456,400 S,2,73474,73674,1,0.2 F,2,73474,73674,1,0 P,0,73474,73674,A C,0,73474,,207,101,168
Sprite,Background,Centre,"sb/highlight.png",321,358 S,2,73705,73905,1,0.2 F,2,73705,73905,1,0 P,0,73705,73905,A C,0,73705,,207,101,168
Sprite,Background,Centre,"sb/highlight.png",511,339 S,2,73936,74136,1,0.2 F,2,73936,74136,1,0 P,0,73936,74136,A C,0,73936,,128,0,255
Sprite,Background,Centre,"sb/highlight.png",456,400 S,2,74166,74366,1,0.2 F,2,74166,74366,1,0 P,0,74166,74366,A C,0,74166,,128,0,255
Sprite,Background,Centre,"sb/highlight.png",467,276 S,2,74397,74597,1,0.2 F,2,74397,74597,1,0 P,0,74397,74597,A C,0,74397,,128,0,255
Sprite,Background,Centre,"sb/highlight.png",0,0 S,2,74628,75174,1,0.2 F,2,74628,75174,1,0 P,0,74628,75174,A C,0,74628,,128,0,255 M,0,74628,74685,547,401,552.9209,374.8494 M,0,74685,74743,552.9209,374.8494,558.8418,348.6988 M,0,74743,74801,558.8418,348.6988,564.7627,322.5482 M,0,74801,74858,564.7627,322.5482,570.6836,296.3976 M,0,74858,74916,570.6836,296.3976,557.8947,273.3996 M,0,74916,74974,557.8947,273.3996,551.5817,247.4286
Sprite,Background,Centre,"sb/highlight.png",570,175 S,2,75090,75290,1,0.2 F,2,75090,75290,1,0 P,0,75090,75290,A C,0,75090,,128,0,255
Sprite,Background,Centre,"sb/highlight.png",0,0 S,2,75320,75750,1,0.2 F,2,75320,75750,1,0 P,0,75320,75750,A C,0,75320,,128,0,255 M,0,75320,75377,415,195,441.4928,192.4213 M,0,75377,75435,441.4928,192.4213,465.425,180.8953 M,0,75435,75493,465.425,180.8953,484.2132,162.0613 M,0,75493,75550,484.2132,162.0613,494.9215,137.6595
Sprite,Background,Centre,"sb/highlight.png",459,59 S,2,75782,75982,1,0.2 F,2,75782,75982,1,0 P,0,75782,75982,A C,0,75782,,255,128,255
Sprite,Background,Centre,"sb/highlight.png",0,0 S,2,76243,76558,1,0.2 F,2,76243,76558,1,0 P,0,76243,76558,A C,0,76243,,92,84,190 M,0,76243,76300,298,292,311.6871,269.0913 M,0,76300,76358,311.6871,269.0913,318.0344,243.2039
Sprite,Background,Centre,"sb/highlight.png",296,141 S,2,76474,76674,1,0.2 F,2,76474,76674,1,0 P,0,76474,76674,A C,0,76474,,92,84,190
Sprite,Background,Centre,"sb/highlight.png",0,0 S,2,76705,77020,1,0.2 F,2,76705,77020,1,0 P,0,76705,77020,A C,0,76705,,207,101,168 M,0,76705,76762,197,269,183.3129,246.0913 M,0,76762,76820,183.3129,246.0913,176.9656,220.2039
Sprite,Background,Centre,"sb/highlight.png",199,118 S,2,76936,77136,1,0.2 F,2,76936,77136,1,0 P,0,76936,77136,A C,0,76936,,207,101,168
Sprite,Background,Centre,"sb/highlight.png",0,0 S,2,77166,77481,1,0.2 F,2,77166,77481,1,0 P,0,77166,77481,A C,0,77166,,128,0,255 M,0,77166,77223,306,289,319.6871,266.0913 M,0,77223,77281,319.6871,266.0913,326.0344,240.2039
Sprite,Background,Centre,"sb/highlight.png",304,138 S,2,77397,77597,1,0.2 F,2,77397,77597,1,0 P,0,77397,77597,A C,0,77397,,128,0,255
Sprite,Background,Centre,"sb/highlight.png",0,0 S,2,77628,78174,1,0.2 F,2,77628,78174,1,0 P,0,77628,78174,A C,0,77628,,255,128,255 M,0,77628,77685,451,306,473.5236,291.4536 M,0,77685,77743,473.5236,291.4536,496.0471,276.9071 M,0,77743,77801,496.0471,276.9071,493.3496,297.6017 M,0,77801,77858,493.3496,297.6017,486.8466,323.6137 M,0,77858,77916,486.8466,323.6137,480.3436,349.6256 M,0,77916,77974,480.3436,349.6256,473.8406,375.6376
Sprite,Background,Centre,"sb/highlight.png",421,428 S,2,78090,78290,1,0.2 F,2,78090,78290,1,0 P,0,78090,78290,A C,0,78090,,255,128,255
Sprite,Background,Centre,"sb/highlight.png",534,424 S,2,78320,78520,1,0.2 F,2,78320,78520,1,0 P,0,78320,78520,A C,0,78320,,255,128,255
Sprite,Background,Centre,"sb/highlight.png",0,0 S,2,78551,78866,1,0.2 F,2,78551,78866,1,0 P,0,78551,78866,A C,0,78551,,92,84,190 M,0,78551,78608,367,367,342.0299,357.6466 M,0,78608,78666,342.0299,357.6466,315.4078,356.9094
Sprite,Background,Centre,"sb/highlight.png",0,0 S,2,78782,79097,1,0.2 F,2,78782,79097,1,0 P,0,78782,79097,A C,0,78782,,92,84,190 M,0,78782,78839,279,291,257.8248,307.1765 M,0,78839,78897,257.8248,307.1765,243.5545,329.6406
Sprite,Background,Centre,"sb/highlight.png",212,396 S,2,79013,79213,1,0.2 F,2,79013,79213,1,0 P,0,79013,79213,A C,0,79013,,92,84,190
Sprite,Background,Centre,"sb/highlight.png",0,0 S,2,79243,79904,1,0.2 F,2,79243,79904,1,0 P,0,79243,79904,A C,0,79243,,207,101,168 M,0,79243,79300,132,268,153.6827,252.3215 M,0,79300,79358,153.6827,252.3215,171.6951,232.5182 M,0,79358,79416,171.6951,232.5182,185.6263,209.6557 M,0,79416,79473,185.6263,209.6557,194.9783,184.5719 M,0,79473,79531,194.9783,184.5719,199.2311,158.1451 M,0,79531,79589,199.2311,158.1451,198.0595,131.4051 M,0,79589,79646,198.0595,131.4051,187.6668,155.2691 M,0,79646,79704,187.6668,155.2691,172.8891,177.5799
Sprite,Background,Centre,"sb/highlight.png",0,0 S,2,79936,80366,1,0.2 F,2,79936,80366,1,0 P,0,79936,80366,A C,0,79936,,128,0,255 M,0,79936,79993,72,94,95.2213,74.41795 M,0,79993,80051,95.2213,74.41795,122.083,60.26133 M,0,80051,80109,122.083,60.26133,151.4938,52.71468 M,0,80109,80166,151.4938,52.71468,181.8273,51.78014
Sprite,Background,Centre,"sb/highlight.png",0,0 S,2,80397,80827,1,0.2 F,2,80397,80827,1,0 P,0,80397,80827,A C,0,80397,,128,0,255 M,0,80397,80454,313,160,282.757,162.8161 M,0,80454,80512,282.757,162.8161,252.645,158.9843 M,0,80512,80570,252.645,158.9843,224.1553,148.4466 M,0,80570,80627,224.1553,148.4466,198.8183,131.6593
Sprite,Background,Centre,"sb/highlight.png",0,0 S,2,80859,81289,1,0.2 F,2,80859,81289,1,0 P,0,80859,81289,A C,0,80859,,128,0,255 M,0,80859,80916,132,268,158.6688,253.754 M,0,80916,80974,158.6688,253.754,188.8655,252.7253 M,0,80974,81032,188.8655,252.7253,210.4505,262.6921 M,0,81032,81089,210.4505,262.6921,186.1559,280.8253
Sprite,Background,Centre,"sb/highlight.png",0,0 S,2,81320,81635,1,0.2 F,2,81320,81635,1,0 P,0,81320,81635,A C,0,81320,,255,128,255 M,0,81320,81377,109,375,134.4766,366.7091 M,0,81377,81435,134.4766,366.7091,160.73,361.3952
Sprite,Background,Centre,"sb/highlight.png",0,0 S,2,81551,81981,1,0.2 F,2,81551,81981,1,0 P,0,81551,81981,A C,0,81551,,255,128,255 M,0,81551,81608,205,419,204.5499,392.2865 M,0,81608,81666,204.5499,392.2865,211.0447,366.3935 M,0,81666,81724,211.0447,366.3935,224.0303,343.0901 M,0,81724,81781,224.0303,343.0901,242.6112,323.9675
Sprite,Background,Centre,"sb/highlight.png",0,0 S,2,82013,82559,1,0.2 F,2,82013,82559,1,0 P,0,82013,82559,A C,0,82013,,255,128,255 M,0,82013,82070,355,419,344.4258,394.427 M,0,82070,82128,344.4258,394.427,338.9492,368.2596 M,0,82128,82186,338.9492,368.2596,338.7825,341.5361 M,0,82186,82243,338.7825,341.5361,343.7575,315.2675 M,0,82243,82301,343.7575,315.2675,354.1517,290.6281 M,0,82301,82359,354.1517,290.6281,369.2275,268.5572
Sprite,Background,Centre,"sb/highlight.png",434,309 S,2,82474,82674,1,0.2 F,2,82474,82674,1,0 P,0,82474,82674,A C,0,82474,,255,128,255
Sprite,Background,Centre,"sb/highlight.png",0,0 S,2,82705,83135,1,0.2 F,2,82705,83135,1,0 P,0,82705,83135,A C,0,82705,,255,128,255 M,0,82705,82762,526,121,514.9258,145.3972 M,0,82762,82820,514.9258,145.3972,506.6765,170.8827 M,0,82820,82878,506.6765,170.8827,501.356,197.1331 M,0,82878,82935,501.356,197.1331,498.9395,223.8112
Sprite,Background,Centre,"sb/highlight.png",517,340 S,2,83166,83366,1,0.2 F,2,83166,83366,1,0 P,0,83166,83366,A C,0,83166,,92,84,190
Sprite,Background,Centre,"sb/highlight.png",0,0 S,2,83628,83943,1,0.2 F,2,83628,83943,1,0 P,0,83628,83943,A C,0,83628,,207,101,168 M,0,83628,83685,333,72,315.6731,92.32489 M,0,83685,83743,315.6731,92.32489,304.3464,116.4815
Sprite,Background,Centre,"sb/highlight.png",248,225 S,2,83859,84059,1,0.2 F,2,83859,84059,1,0 P,0,83859,84059,A C,0,83859,,207,101,168
Sprite,Background,Centre,"sb/highlight.png",0,0 S,2,84090,84405,1,0.2 F,2,84090,84405,1,0 P,0,84090,84405,A C,0,84090,,128,0,255 M,0,84090,84147,382,123,370.5617,147.1498 M,0,84147,84205,370.5617,147.1498,365.4086,173.3449
Sprite,Background,Centre,"sb/highlight.png",339,292 S,2,84320,84520,1,0.2 F,2,84320,84520,1,0 P,0,84320,84520,A C,0,84320,,128,0,255
Sprite,Background,Centre,"sb/highlight.png",0,0 S,2,84551,84866,1,0.2 F,2,84551,84866,1,0 P,0,84551,84866,A C,0,84551,,255,128,255 M,0,84551,84608,444,172,439.1246,198.2665 M,0,84608,84666,439.1246,198.2665,441.0593,224.8849
Sprite,Background,Centre,"sb/highlight.png",446,346 S,2,84782,84982,1,0.2 F,2,84782,84982,1,0 P,0,84782,84982,A C,0,84782,,255,128,255
Sprite,Background,Centre,"sb/highlight.png",0,0 S,2,85013,85443,1,0.2 F,2,85013,85443,1,0 P,0,85013,85443,A C,0,85013,,92,84,190 M,0,85013,85070,510,378,483.4303,376.1326 M,0,85070,85128,483.4303,376.1326,457.9352,383.6991 M,0,85128,85186,457.9352,383.6991,436.7461,399.7145 M,0,85186,85243,436.7461,399.7145,422.2607,422.0268
Sprite,Background,Centre,"sb/highlight.png",446,346 S,2,85474,85674,1,0.2 F,2,85474,85674,1,0 P,0,85474,85674,A C,0,85474,,92,84,190
Sprite,Background,Centre,"sb/highlight.png",363,366 S,2,85705,85905,1,0.2 F,2,85705,85905,1,0 P,0,85705,85905,A C,0,85705,,92,84,190
Sprite,Background,Centre,"sb/highlight.png",0,0 S,2,85936,86251,1,0.2 F,2,85936,86251,1,0 P,0,85936,86251,A C,0,85936,,207,101,168 M,0,85936,85993,211,283,237.5684,281.036 M,0,85993,86051,237.5684,281.036,263.1429,288.3546
Sprite,Background,Centre,"sb/highlight.png",0,0 S,2,86166,86481,1,0.2 F,2,86166,86481,1,0 P,0,86166,86481,A C,0,86166,,207,101,168 M,0,86166,86223,329,325,348.9018,342.7096 M,0,86223,86281,348.9018,342.7096,361.6283,366.0622
Sprite,Background,Centre,"sb/highlight.png",308,429 S,2,86397,86597,1,0.2 F,2,86397,86597,1,0 P,0,86397,86597,A C,0,86397,,207,101,168
Sprite,Background,Centre,"sb/highlight.png",0,0 S,2,86628,87289,1,0.2 F,2,86628,87289,1,0 P,0,86628,87289,A C,0,86628,,128,0,255 M,0,86628,86685,332,249,313.1836,229.9771 M,0,86685,86743,313.1836,229.9771,299.4585,207.0279 M,0,86743,86801,299.4585,207.0279,291.8547,181.3843 M,0,86801,86858,291.8547,181.3843,288.8609,156.6729 M,0,86858,86916,288.8609,156.6729,264.6362,168.0731 M,0,86916,86974,264.6362,168.0731,238.5956,174.2119 M,0,86974,87031,238.5956,174.2119,211.8486,174.0701 M,0,87031,87089,211.8486,174.0701,185.8316,167.8077
Sprite,Background,Centre,"sb/highlight.png",95,309 S,2,87320,87520,1,0.2 F,2,87320,87520,1,0 P,0,87320,87520,A C,0,87320,,128,0,255
Sprite,Background,Centre,"sb/highlight.png",263,223 S,2,87551,87751,1,0.2 F,2,87551,87751,1,0 P,0,87551,87751,A C,0,87551,,128,0,255
Sprite,Background,Centre,"sb/highlight.png",173,365 S,2,87782,87982,1,0.2 F,2,87782,87982,1,0 P,0,87782,87982,A C,0,87782,,128,0,255
Sprite,Background,Centre,"sb/highlight.png",185,167 S,2,88013,88213,1,0.2 F,2,88013,88213,1,0 P,0,88013,88213,A C,0,88013,,128,0,255
Sprite,Background,Centre,"sb/highlight.png",257,321 S,2,88243,88443,1,0.2 F,2,88243,88443,1,0 P,0,88243,88443,A C,0,88243,,128,0,255
Sprite,Background,Centre,"sb/highlight.png",101,211 S,2,88474,88674,1,0.2 F,2,88474,88674,1,0 P,0,88474,88674,A C,0,88474,,128,0,255
//Storyboard Layer 1 (Fail)
//Storyboard Layer 2 (Pass)
//Storyboard Layer 3 (Foreground)
//Storyboard Sound Samples

[TimingPoints]
90,461.538461538462,4,2,1,65,1,0
1013,-111.111111111111,4,2,1,65,0,0
1474,-125,4,2,1,65,0,0
1936,-100,4,2,1,65,0,0
2859,-83.3333333333333,4,2,1,65,0,0
3782,-95.2380952380952,4,2,1,65,0,0
4243,-100,4,2,1,65,0,0
4705,-111.111111111111,4,2,1,65,0,0
5397,-100,4,2,1,65,0,0
6897,-100,4,2,1,5,0,0
7013,-100,4,2,1,65,0,0
7359,-100,4,2,1,5,0,0
7474,-100,4,2,1,65,0,0
7820,-100,4,2,1,5,0,0
7936,-100,4,2,1,65,0,0
10243,-83.3333333333333,4,2,1,65,0,0
11166,-100,4,2,1,65,0,0
12090,-111.111111111111,4,2,1,65,0,0
12551,-125,4,2,1,65,0,0
12782,-100,4,2,1,65,0,0
14282,-100,4,2,1,5,0,0
14397,-100,4,2,1,65,0,0
14513,-100,4,2,1,5,0,0
14628,-100,4,2,1,65,0,0
14743,-100,4,2,1,5,0,0
14859,-100,4,2,1,75,0,0
15205,-100,4,2,1,75,0,0
15320,-100,4,2,1,75,0,0
16820,-100,4,2,1,5,0,0
16936,-100,4,2,1,75,0,0
18897,-100,4,2,1,5,0,0
19013,-100,4,2,1,75,0,0
22590,-100,4,2,1,5,0,0
22705,-100,4,2,1,75,0,0
26282,-100,4,2,1,5,0,0
26397,-100,4,2,1,75,0,0
27897,-100,4,2,1,5,0,0
28013,-100,4,2,1,75,0,0
29513,-100,4,2,1,5,0,0
29628,-100,4,2,1,75,0,0
36090,-200,4,2,1,75,0,0
43474,-200,4,2,1,70,0,0
44397,-125,4,2,2,80,0,0
57320,-166.666666666667,4,2,2,70,0,0
59166,-90.9090909090909,4,2,3,95,0,1
59282,-90.9090909090909,4,2,3,5,0,1
59397,-90.9090909090909,4,2,4,95,0,1
59859,-90.9090909090909,4,2,5,95,0,1
60205,-90.9090909090909,4,2,5,5,0,1
60320,-90.9090909090909,4,2,6,95,0,1
60551,-90.9090909090909,4,2,5,95,0,1
60782,-90.9090909090909,4,2,3,95,0,1
61013,-83.3333333333333,4,2,1,95,0,1
61359,-83.3333333333333,4,2,1,5,0,1
61474,-90.9090909090909,4,2,7,95,0,1
61551,-90.9090909090909,4,2,1,95,0,1
61590,-83.3333333333333,4,2,1,95,0,1
61936,-90.9090909090909,4,2,4,95,0,1
62013,-90.9090909090909,4,2,1,95,0,1
62051,-90.9090909090909,4,2,1,95,0,1
62397,-90.9090909090909,4,2,3,95,0,1
62474,-90.9090909090909,4,2,1,95,0,1
62513,-90.9090909090909,4,2,1,95,0,1
62859,-90.9090909090909,4,2,3,95,0,1
63551,-90.9090909090909,4,2,5,95,0,1
63897,-90.9090909090909,4,2,5,5,0,1
64013,-90.9090909090909,4,2,6,95,0,1
64128,-90.9090909090909,4,2,6,5,0,1
64243,-90.9090909090909,4,2,5,95,0,1
64474,-90.9090909090909,4,2,3,95,0,1
64936,-90.9090909090909,4,2,1,95,0,1
65166,-80,4,2,7,95,0,1
65628,-80,4,2,4,95,0,1
66090,-80,4,2,3,95,0,1
66551,-90.9090909090909,4,2,3,95,0,1
66666,-90.9090909090909,4,2,3,5,0,1
66782,-90.9090909090909,4,2,4,95,0,1
67244,-90.9090909090909,4,2,5,95,0,1
67590,-90.9090909090909,4,2,5,5,0,1
67705,-90.9090909090909,4,2,6,95,0,1
67936,-90.9090909090909,4,2,5,95,0,1
68167,-90.9090909090909,4,2,3,95,0,1
68398,-90.9090909090909,4,2,1,95,0,1
68859,-90.9090909090909,4,2,7,95,0,1
68936,-90.9090909090909,4,2,1,95,0,1
68974,-90.9090909090909,4,2,1,95,0,1
69321,-90.9090909090909,4,2,4,95,0,1
69398,-90.9090909090909,4,2,1,95,0,1
69436,-90.9090909090909,4,2,1,95,0,1
69782,-90.9090909090909,4,2,3,95,0,1
69859,-90.9090909090909,4,2,1,95,0,1
69897,-90.9090909090909,4,2,1,95,0,1
70244,-90.9090909090909,4,2,3,95,0,1
70936,-90.9090909090909,4,2,5,95,0,1
71282,-90.9090909090909,4,2,5,5,0,1
71398,-90.9090909090909,4,2,6,95,0,1
71513,-90.9090909090909,4,2,6,5,0,1
71628,-90.9090909090909,4,2,5,95,0,1
71859,-90.9090909090909,4,2,3,95,0,1
72205,-90.9090909090909,4,2,3,5,0,1
72320,-66.6666666666667,4,2,1,95,0,1
72551,-90.9090909090909,4,2,5,95,0,1
72782,-90.9090909090909,4,2,6,95,0,1
73013,-90.9090909090909,4,2,5,95,0,1
73243,-90.9090909090909,4,2,3,95,0,1
73474,-90.9090909090909,4,2,4,95,0,1
73936,-90.9090909090909,4,2,3,95,0,1
74167,-90.9090909090909,4,2,4,95,0,1
74629,-90.9090909090909,4,2,5,95,0,1
74974,-90.9090909090909,4,2,5,5,0,1
75090,-90.9090909090909,4,2,6,95,0,1
75321,-90.9090909090909,4,2,5,95,0,1
75552,-90.9090909090909,4,2,3,95,0,1
75783,-90.9090909090909,4,2,1,95,0,1
76244,-90.9090909090909,4,2,7,95,0,1
76706,-90.9090909090909,4,2,4,95,0,1
77167,-90.9090909090909,4,2,3,95,0,1
77974,-90.9090909090909,4,2,3,5,0,1
78090,-90.9090909090909,4,2,3,95,0,1
78321,-90.9090909090909,4,2,5,95,0,1
78666,-90.9090909090909,4,2,5,5,0,1
78783,-90.9090909090909,4,2,6,95,0,1
78897,-90.9090909090909,4,2,6,5,0,1
79013,-90.9090909090909,4,2,5,95,0,1
79244,-90.9090909090909,4,2,3,95,0,1
79706,-90.9090909090909,4,2,1,95,0,1
79936,-80,4,2,7,95,0,1
80398,-80,4,2,4,95,0,1
80860,-80,4,2,3,95,0,1
81320,-90.9090909090909,4,2,3,95,0,1
81436,-90.9090909090909,4,2,3,5,0,1
81552,-90.9090909090909,4,2,4,95,0,1
82014,-90.9090909090909,4,2,5,95,0,1
82359,-90.9090909090909,4,2,5,5,0,1
82475,-90.9090909090909,4,2,6,95,0,1
82706,-90.9090909090909,4,2,5,95,0,1
82937,-90.9090909090909,4,2,3,95,0,1
83168,-90.9090909090909,4,2,1,95,0,1
83629,-90.9090909090909,4,2,7,95,0,1
84091,-90.9090909090909,4,2,4,95,0,1
84552,-90.9090909090909,4,2,3,95,0,1
85706,-90.9090909090909,4,2,5,95,0,1
86051,-90.9090909090909,4,2,5,5,0,1
86168,-90.9090909090909,4,2,6,95,0,1
86282,-90.9090909090909,4,2,6,5,0,1
86398,-90.9090909090909,4,2,5,95,0,1
86629,-90.9090909090909,4,2,3,95,0,1
87091,-90.9090909090909,4,2,1,95,0,1
87321,-90.9090909090909,4,2,5,95,0,1
87552,-90.9090909090909,4,2,6,95,0,1
87783,-90.9090909090909,4,2,5,95,0,1
88013,-90.9090909090909,4,2,3,95,0,1
88244,-90.9090909090909,4,2,4,95,0,1
88705,-125,4,2,1,70,0,0
103474,-125,4,2,3,60,0,0
118243,-125,4,2,2,80,0,0
131166,-166.666666666667,4,2,2,70,0,0
133013,-90.9090909090909,4,2,3,95,0,1
133128,-90.9090909090909,4,2,3,5,0,1
133243,-90.9090909090909,4,2,4,95,0,1
133705,-90.9090909090909,4,2,7,95,0,1
134051,-90.9090909090909,4,2,7,5,0,1
134166,-90.9090909090909,4,2,6,95,0,1
134397,-90.9090909090909,4,2,5,95,0,1
134628,-90.9090909090909,4,2,3,95,0,1
134859,-76.9230769230769,4,2,3,95,0,1
135205,-76.9230769230769,4,2,3,5,0,1
135320,-83.3333333333333,4,2,7,95,0,1
135397,-83.3333333333333,4,2,1,95,0,1
135436,-83.3333333333333,4,2,1,95,0,1
135782,-83.3333333333333,4,2,4,95,0,1
135859,-83.3333333333333,4,2,1,95,0,1
135897,-83.3333333333333,4,2,1,95,0,1
136243,-83.3333333333333,4,2,3,95,0,1
136320,-83.3333333333333,4,2,1,95,0,1
136358,-83.3333333333333,4,2,1,95,0,1
136705,-90.9090909090909,4,2,3,95,0,1
137397,-90.9090909090909,4,2,5,95,0,1
137743,-90.9090909090909,4,2,5,5,0,1
137859,-90.9090909090909,4,2,6,95,0,1
137974,-90.9090909090909,4,2,6,5,0,1
138090,-90.9090909090909,4,2,5,95,0,1
138320,-90.9090909090909,4,2,3,95,0,1
138782,-90.9090909090909,4,2,1,95,0,1
139013,-80,4,2,7,95,0,1
139474,-80,4,2,4,95,0,1
139936,-80,4,2,3,95,0,1
140397,-90.9090909090909,4,2,3,95,0,1
140513,-90.9090909090909,4,2,3,5,0,1
140628,-90.9090909090909,4,2,4,95,0,1
141090,-90.9090909090909,4,2,7,95,0,1
141436,-90.9090909090909,4,2,7,5,0,1
141551,-90.9090909090909,4,2,6,95,0,1
141782,-90.9090909090909,4,2,5,95,0,1
142013,-90.9090909090909,4,2,3,95,0,1
142705,-90.9090909090909,4,2,7,95,0,1
142782,-90.9090909090909,4,2,1,95,0,1
142820,-90.9090909090909,4,2,1,95,0,1
143167,-90.9090909090909,4,2,4,95,0,1
143244,-90.9090909090909,4,2,1,95,0,1
143282,-90.9090909090909,4,2,1,95,0,1
143628,-90.9090909090909,4,2,3,95,0,1
143705,-90.9090909090909,4,2,1,95,0,1
143743,-90.9090909090909,4,2,1,95,0,1
144090,-90.9090909090909,4,2,3,95,0,1
144782,-90.9090909090909,4,2,5,95,0,1
145128,-90.9090909090909,4,2,5,5,0,1
145244,-90.9090909090909,4,2,6,95,0,1
145359,-90.9090909090909,4,2,6,5,0,1
145475,-90.9090909090909,4,2,5,95,0,1
145705,-90.9090909090909,4,2,3,95,0,1
146051,-90.9090909090909,4,2,3,5,0,1
146166,-66.6666666666667,4,2,1,95,0,1
146282,-66.6666666666667,4,2,1,5,0,1
146398,-66.6666666666667,4,2,5,95,0,1
146628,-66.6666666666667,4,2,6,95,0,1
146859,-66.6666666666667,4,2,5,95,0,1
147090,-66.6666666666667,4,2,3,95,0,1
147320,-66.6666666666667,4,2,4,95,0,1
147783,-66.6666666666667,4,2,3,95,0,1
148013,-66.6666666666667,4,2,4,95,0,1
148474,-90.9090909090909,4,2,7,95,0,1
148820,-90.9090909090909,4,2,7,5,0,1
148936,-90.9090909090909,4,2,6,95,0,1
149167,-90.9090909090909,4,2,5,95,0,1
149398,-90.9090909090909,4,2,3,95,0,1
150090,-90.9090909090909,4,2,7,95,0,1
150552,-90.9090909090909,4,2,4,95,0,1
151013,-90.9090909090909,4,2,3,95,0,1
152167,-90.9090909090909,4,2,5,95,0,1
152513,-90.9090909090909,4,2,5,5,0,1
152629,-90.9090909090909,4,2,6,95,0,1
152743,-90.9090909090909,4,2,6,5,0,1
152860,-90.9090909090909,4,2,5,95,0,1
153090,-90.9090909090909,4,2,3,95,0,1
153552,-90.9090909090909,4,2,1,95,0,1
153782,-83.3333333333333,4,2,7,95,0,1
154244,-83.3333333333333,4,2,4,95,0,1
154706,-83.3333333333333,4,2,3,95,0,1
155282,-83.3333333333333,4,2,3,5,0,1
155398,-83.3333333333333,4,2,4,95,0,1
155860,-83.3333333333333,4,2,7,95,0,1
156205,-83.3333333333333,4,2,7,5,0,1
156321,-83.3333333333333,4,2,6,95,0,1
156552,-83.3333333333333,4,2,5,95,0,1
156783,-83.3333333333333,4,2,3,95,0,1
157475,-83.3333333333333,4,2,7,95,0,1
157937,-83.3333333333333,4,2,4,95,0,1
158398,-83.3333333333333,4,2,3,95,0,1
159552,-83.3333333333333,4,2,5,95,0,1
159897,-83.3333333333333,4,2,5,5,0,1
160014,-83.3333333333333,4,2,6,95,0,1
160128,-83.3333333333333,4,2,6,5,0,1
160245,-83.3333333333333,4,2,5,95,0,1
160475,-83.3333333333333,4,2,3,95,0,1
160937,-83.3333333333333,4,2,1,95,0,1
161168,-83.3333333333333,4,2,5,95,0,1
161398,-83.3333333333333,4,2,6,95,0,1
161629,-83.3333333333333,4,2,5,95,0,1
161860,-83.3333333333333,4,2,3,95,0,1
162090,-83.3333333333333,4,2,4,95,0,1
162551,-166.666666666667,4,2,1,50,0,0
166128,-166.666666666667,4,2,1,50,0,0
166243,-166.666666666667,4,2,1,50,0,0
177090,-250.000000000001,4,2,1,50,0,0
178013,-250.000000000001,4,2,1,5,0,0

[Colours]
Combo1 : 128,0,255
Combo2 : 255,128,255
Combo3 : 92,84,190
Combo4 : 207,101,168

[HitObjects]
195,137,90,6,0,P|231:169|233:245,1,97.5,4|0,3:2|0:0,0:0:0:0:
151,305,551,2,0,L|166:190,1,97.5,10|0,0:2|0:0,0:0:0:0:
317,212,1013,2,0,P|307:259|242:298,1,87.7499973220826,2|0,3:2|0:0,0:0:0:0:
151,305,1474,2,0,L|61:297,1,78,10|0,0:2|0:0,0:0:0:0:
54,157,1936,6,0,P|28:99|35:51,1,97.5,0|0,3:0|0:0,0:0:0:0:
101,23,2282,1,0,0:0:0:0:
105,34,2397,2,0,P|156:44|218:22,1,97.5,8|0,0:0|0:0,0:0:0:0:
380,117,2859,6,0,B|299:105|299:105|241:128|241:128|127:114,1,233.999992858887,0|10,3:0|0:0,0:0:0:0:
330,194,3782,6,0,P|299:189|331:204,1,102.374996875763,2|0,3:0|0:0,0:0:0:0:
367,304,4243,6,0,P|383:259|436:210,1,97.5,10|0,0:2|0:0,0:0:0:0:
206,208,4705,2,0,P|238:244|254:289,1,87.7499973220826,2|0,3:2|0:0,0:0:0:0:
367,304,5166,1,10,0:2:0:0:
192,360,5397,6,0,B|172:383|109:393|66:357|71:278|164:291|135:340,1,195,2|0,0:0|0:0,0:0:0:0:
31,304,5974,1,0,0:0:0:0:
31,304,6090,2,0,P|54:252|62:201,1,97.5,8|0,0:0|0:0,0:0:0:0:
40,111,6551,1,0,3:0:0:0:
132,219,6782,6,0,P|136:186|163:153,1,48.75,2|0,0:0|0:0,0:0:0:0:
200,126,7013,1,8,0:0:0:0:
114,98,7243,6,0,P|101:67|66:42,1,48.75,2|0,0:0|0:0,0:0:0:0:
24,25,7474,6,0,L|192:36,1,146.25,4|0,3:2|0:0,0:0:0:0:
260,61,7936,2,0,P|214:84|202:145,1,97.5,10|0,0:2|0:0,0:0:0:0:
296,213,8397,2,0,P|297:161|252:120,1,97.5,2|0,3:2|0:0,0:0:0:0:
145,167,8859,2,0,P|187:195|246:175,1,97.5,10|0,0:2|0:0,0:0:0:0:
404,171,9320,6,0,P|373:221|370:282,1,97.5,0|0,3:0|0:0,0:0:0:0:
389,330,9667,1,0,0:0:0:0:
391,342,9782,2,0,P|455:310|493:283,1,97.5,8|0,0:0|0:0,0:0:0:0:
317,374,10243,6,0,B|231:389|189:294|189:294|213:323|269:339,1,233.999992858887,0|10,3:0|0:0,0:0:0:0:
39,342,11166,6,0,P|73:287|68:242,1,97.5,2|0,3:3|0:0,0:0:0:0:
203,198,11628,2,0,L|188:303,1,97.5,10|0,0:2|0:0,0:0:0:0:
118,177,12090,2,0,P|105:135|73:90,1,87.7499973220826,2|0,3:2|0:0,0:0:0:0:
172,104,12551,1,10,0:2:0:0:
50,231,12782,6,0,P|129:264|204:189,1,195
297,140,13359,1,0,0:0:0:0:
292,160,13474,2,0,P|286:183|278:264,1,97.5,8|0,0:0|0:0,0:0:0:0:
421,322,13936,1,0,3:0:0:0:
326,367,14166,6,0,L|351:314,1,48.75,8|0,0:1|0:0,0:0:0:0:
469,318,14397,2,0,L|410:322,1,48.75,8|0,0:0|0:0,0:0:0:0:
352,219,14628,2,0,L|384:268,1,48.75,4|0,0:3|0:0,0:0:0:0:
326,367,14859,6,0,P|283:304|196:288,1,146.25,4|0,3:2|0:0,0:0:0:0:
148,313,15320,1,10,0:2:0:0:
148,313,15551,2,0,P|144:270|186:216,1,97.5,0|2,0:0|3:2,0:0:0:0:
306,261,16013,2,0,P|270:285|202:276,1,97.5,0|10,0:0|0:2,0:0:0:0:
200,139,16474,6,0,L|221:313,1,146.25
148,313,16936,1,0,0:0:0:0:
282,330,17166,2,0,B|331:323|331:323|334:321|334:321|380:316,1,97.5,8|0,0:0|0:0,0:0:0:0:
425,185,17628,1,0,3:0:0:0:
378,316,17859,1,0,0:0:0:0:
453,267,18090,1,8,0:0:0:0:
342,183,18320,1,0,0:0:0:0:
500,202,18551,6,0,P|493:145|413:110,1,146.25,2|0,3:0|0:0,0:0:0:0:
332,107,19013,2,0,P|358:65|372:2,1,97.5,10|0,0:2|0:0,0:0:0:0:
419,108,19474,1,2,3:2:0:0:
264,51,19705,1,0,0:0:0:0:
332,107,19936,1,10,0:2:0:0:
489,51,20166,6,0,P|461:94|399:226,1,195,2|0,0:0|0:0,0:0:0:0:
435,359,20859,2,0,P|456:299|444:245,1,97.5,8|0,0:0|0:0,0:0:0:0:
286,304,21320,2,0,P|296:256|326:218,1,97.5,0|4,3:0|0:3,0:0:0:0:
435,359,21782,1,8,0:0:0:0:
286,304,22013,1,0,0:0:0:0:
231,358,22243,6,0,B|246:303|220:248|175:259|149:283|193:317|219:281,1,146.25,4|0,3:2|0:0,0:0:0:0:
242,212,22705,1,10,0:2:0:0:
242,212,22936,2,0,B|259:165|259:165|240:116,1,97.5,0|2,0:0|3:2,0:0:0:0:
133,215,23397,2,0,B|116:171|116:171|133:124,1,97.5,0|10,0:0|0:2,0:0:0:0:
267,53,23859,1,0,0:0:0:0:
241,120,24090,6,0,P|206:93|203:21,2,97.5,0|0|8,3:0|0:0|0:0,0:0:0:0:
267,53,24782,1,0,0:0:0:0:
410,163,25013,2,0,P|375:220|381:259,1,97.5,0|0,3:0|0:0,0:0:0:0:
470,327,25474,2,0,P|455:260|458:218,1,97.5,8|0,0:0|0:0,0:0:0:0:
380,98,25936,6,0,B|416:104|445:133|445:133|471:100|531:99,1,146.25,2|0,3:0|0:0,0:0:0:0:
445,43,26397,1,10,0:2:0:0:
370,191,26628,2,0,L|380:299,1,97.5,0|2,0:0|3:2,0:0:0:0:
222,364,27090,2,0,L|230:266,1,97.5,0|10,0:0|0:2,0:0:0:0:
370,191,27551,6,0,P|354:145|255:91,1,146.25
218,143,28013,1,0,0:0:0:0:
107,64,28243,2,0,P|129:132|125:189,1,97.5,8|0,0:0|0:0,0:0:0:0:
59,318,28705,2,0,P|63:269|81:224,1,97.5,0|0,3:0|0:0,0:0:0:0:
208,295,29166,6,0,B|223:289|239:270|239:270|227:375,1,146.25,8|0,0:0|0:0,0:0:0:0:
148,351,29628,5,6,0:2:0:0:
335,56,43474,5,8,0:3:0:0:
335,56,43936,1,8,0:3:0:0:
335,56,44397,6,0,P|328:105|342:151,1,78,12|0,3:2|0:0,0:0:0:0:
392,177,44743,1,8,0:1:0:0:
392,177,44859,2,0,P|382:217|376:264,1,78,8|8,0:0|0:1,0:0:0:0:
310,338,45320,2,0,P|304:299|294:261,1,78,8|2,0:0|0:0,0:0:0:0:
153,225,45782,2,0,P|215:235|242:212,1,78,10|2,0:0|0:0,0:0:0:0:
106,112,46243,6,0,P|89:173|93:222,1,78,10|0,0:2|0:0,0:0:0:0:
150,224,46590,1,8,0:1:0:0:
152,235,46705,2,0,P|147:279|153:311,1,78,8|8,0:0|0:1,0:0:0:0:
75,311,47166,1,8,0:0:0:0:
201,366,47397,1,2,0:0:0:0:
75,311,47628,1,10,0:0:0:0:
235,295,47859,1,2,0:0:0:0:
286,360,48090,6,0,P|318:301|306:260,1,78,10|0,3:2|0:0,0:0:0:0:
304,196,48436,1,8,0:1:0:0:
304,196,48551,2,0,B|320:199|334:215|334:215|353:204|384:209,1,78,8|8,0:0|0:1,0:0:0:0:
304,196,49013,1,8,0:0:0:0:
361,132,49243,1,2,0:0:0:0:
439,167,49474,1,10,0:0:0:0:
435,252,49705,1,2,0:0:0:0:
361,132,49936,6,0,P|364:80|409:48,1,78,10|0,3:2|0:0,0:0:0:0:
450,23,50282,1,8,0:1:0:0:
450,31,50397,2,0,P|460:81|486:123,1,78,8|8,0:0|0:1,0:0:0:0:
361,132,50859,1,8,0:0:0:0:
238,112,51090,1,2,0:0:0:0:
312,191,51320,1,10,0:0:0:0:
256,234,51551,1,2,0:0:0:0:
312,308,51782,6,0,P|275:312|238:341,1,78,8|8,3:2|0:2,0:0:0:0:
166,346,52128,1,0,0:0:0:0:
166,346,52243,2,0,P|126:315|106:280,1,78,8|8,3:2|0:2,0:0:0:0:
25,253,52705,2,0,P|65:222|85:187,1,78,8|8,3:2|0:2,0:0:0:0:
78,119,53051,1,0,0:0:0:0:
78,119,53166,2,0,P|59:92|41:80,2,39,8|0|8,3:2|0:0|0:2,0:0:0:0:
131,17,53628,6,0,B|166:36|166:36|204:19,1,78,8|8,3:2|0:2,0:0:0:0:
271,24,53974,1,0,0:0:0:0:
274,35,54090,2,0,P|263:75|263:128,1,78,8|8,3:2|0:2,0:0:0:0:
366,168,54551,2,0,P|418:149|446:154,1,78,8|8,3:2|0:2,0:0:0:0:
476,217,54897,1,0,0:0:0:0:
476,217,55013,2,0,P|480:247|480:266,2,39,8|0|8,3:2|0:0|0:0,0:0:0:0:
370,303,55474,5,8,3:2:0:0:
343,314,55589,1,8,0:0:0:0:
314,316,55704,1,8,3:2:0:0:
287,305,55820,1,8,0:0:0:0:
266,285,55935,1,8,3:2:0:0:
244,265,56051,1,8,0:0:0:0:
217,254,56167,1,8,3:2:0:0:
188,255,56282,1,8,0:0:0:0:
162,267,56397,6,0,P|130:270|101:255,1,39,8|8,3:2|0:0,0:0:0:0:
60,231,56628,2,0,P|41:204|39:172,1,39,8|8,3:2|0:0,0:0:0:0:
82,91,56859,6,0,L|136:96,1,39,8|8,3:2|0:0,0:0:0:0:
190,102,57090,2,0,L|244:107,1,39,8|8,3:2|0:0,0:0:0:0:
307,55,57320,6,0,B|312:20|349:17|349:17|380:36|371:72,2,116.999996429443,8|8|8,0:3|0:3|0:3,0:0:0:0:
307,55,58705,1,8,0:3:0:0:
299,348,59166,6,0,P|287:310|288:281,1,53.6250016365052,6|0,3:2|0:0,0:0:0:0:
334,244,59397,2,0,B|284:265|284:265|232:223,1,107.25000327301,2|10,0:0|0:0,0:0:0:0:
102,148,59859,2,0,B|121:149|133:165|133:165|122:250|122:250|104:260|80:254,1,160.875004909516,2|0,0:0|0:0,0:0:0:0:
38,194,60320,1,2,0:0:0:0:
153,70,60551,2,0,P|198:108|261:104,1,107.25000327301,10|2,0:0|0:0,0:0:0:0:
367,85,61013,6,0,P|319:101|206:216,1,175.499994644165,0|0,3:0|0:0,0:0:0:0:
127,246,61474,6,0,P|157:200|174:195,1,53.6250016365052,10|0,0:0|0:0,0:0:0:0:
235,253,61705,2,0,P|204:298|187:303,1,58.4999982147217,2|0,0:0|0:0,0:0:0:0:
6,228,61936,6,0,P|59:217|75:226,1,53.6250016365052,2|0,3:2|0:0,0:0:0:0:
77,309,62166,2,0,P|23:319|7:310,1,53.6250016365052,2|0,0:0|0:0,0:0:0:0:
127,246,62397,6,0,P|134:213|152:184,1,53.6250016365052,10|0,0:0|0:0,0:0:0:0:
189,142,62628,2,0,P|217:123|250:115,1,53.6250016365052,2|0,0:0|0:0,0:0:0:0:
299,147,62859,6,0,P|357:154|403:132,1,107.25000327301,2|0,3:2|0:0,0:0:0:0:
338,66,63320,1,10,0:2:0:0:
414,216,63551,1,2,0:0:0:0:
497,110,63782,2,0,P|473:160|467:204,1,53.6250016365052,0|0,3:0|0:0,0:0:0:0:
414,216,64013,2,0,P|445:261|480:288,1,53.6250016365052,2|0,0:0|0:0,0:0:0:0:
509,219,64243,1,10,0:0:0:0:
374,347,64474,6,0,B|292:338|292:338|244:354|244:354|125:337,1,214.500006546021,2|2,0:0|0:0,0:0:0:0:
74,85,65166,6,0,P|71:148|45:216,1,121.875,10|0,0:0|0:0,0:0:0:0:
163,342,65628,2,0,P|148:279|146:215,1,121.875,2|0,3:2|0:0,0:0:0:0:
158,48,66090,2,0,B|213:72|213:72|271:34,1,121.875,10|0,0:2|0:0,0:0:0:0:
377,194,66551,6,0,L|361:131,1,53.6250016365052,2|0,3:2|0:0,0:0:0:0:
298,115,66782,2,0,L|419:83,1,107.25000327301,2|10,0:0|0:0,0:0:0:0:
383,271,67243,2,0,P|414:189|484:128,1,160.875004909516,2|0,0:0|0:0,0:0:0:0:
510,197,67705,1,2,0:0:0:0:
411,347,67936,2,0,P|353:346|310:306,1,107.25000327301,10|2,0:0|0:0,0:0:0:0:
383,271,68397,5,0,3:0:0:0:
63,370,68859,6,0,L|73:308,1,53.6250016365052,10|0,0:0|0:0,0:0:0:0:
138,350,69090,2,0,L|148:288,1,53.6250016365052,2|0,0:0|0:0,0:0:0:0:
45,230,69320,6,0,P|105:248|119:240,1,53.6250016365052,2|0,3:2|0:0,0:0:0:0:
189,218,69551,2,0,P|129:200|115:208,1,53.6250016365052,2|0,0:0|0:0,0:0:0:0:
27,111,69782,6,0,P|19:140|17:183,1,53.6250016365052,10|0,0:0|0:0,0:0:0:0:
175,126,70013,2,0,P|171:99|164:73,1,53.6250016365052,2|0,0:0|0:0,0:0:0:0:
118,5,70243,6,0,P|179:34|247:3,1,107.25000327301,2|0,3:2|0:0,0:0:0:0:
315,64,70705,1,10,0:2:0:0:
175,126,70936,1,2,0:0:0:0:
315,64,71166,6,0,P|299:104|295:148,1,53.6250016365052,0|0,3:0|0:0,0:0:0:0:
377,113,71397,2,0,P|403:146|439:172,1,53.6250016365052,2|0,0:0|0:0,0:0:0:0:
486,128,71628,1,10,0:0:0:0:
315,64,71859,6,0,B|292:86|297:116|297:116|312:157|312:157|316:186|301:218,1,160.875004909516,2|0,0:0|0:0,0:0:0:0:
257,302,72320,6,0,P|265:282|258:303,1,73.1250027894975,2|0,0:0|0:0,0:0:0:0:
225,220,72551,5,10,0:0:0:0:
349,279,72782,1,2,0:0:0:0:
257,302,73012,5,2,3:2:0:0:
302,216,73243,1,2,1:2:0:0:
392,344,73474,5,10,0:2:0:0:
257,302,73705,1,2,0:0:0:0:
447,283,73936,5,2,3:2:0:0:
392,344,74166,1,2,0:0:0:0:
403,220,74397,1,14,0:0:0:0:
483,345,74628,2,0,B|507:239|507:239|482:210|488:158,1,160.875004909516,2|0,0:0|0:0,0:0:0:0:
506,119,75090,1,2,0:0:0:0:
351,139,75320,2,0,P|407:121|432:77,1,107.25000327301,10|2,0:0|0:0,0:0:0:0:
395,3,75782,5,0,3:0:0:0:
234,236,76243,6,0,P|253:196|252:157,1,53.6250016365052,10|0,0:0|0:0,0:0:0:0:
232,85,76474,1,0,0:0:0:0:
133,213,76705,6,0,P|114:173|115:134,1,53.6250016365052,2|0,3:2|0:0,0:0:0:0:
135,62,76936,1,0,0:0:0:0:
242,233,77166,6,0,P|261:193|260:154,1,53.6250016365052,10|0,0:0|0:0,0:0:0:0:
240,82,77397,1,0,0:0:0:0:
387,250,77628,6,0,B|435:219|435:219|407:331,1,160.875004909516,2|0,3:2|0:0,0:0:0:0:
357,372,78090,1,10,0:2:0:0:
470,368,78320,1,2,0:0:0:0:
303,311,78551,6,0,P|260:300|237:304,1,53.6250016365052,0|0,3:0|0:0,0:0:0:0:
215,235,78782,2,0,P|183:266|175:288,1,53.6250016365052,2|0,0:0|0:0,0:0:0:0:
148,340,79013,1,10,0:0:0:0:
68,212,79243,6,0,B|109:189|143:135|134:75|134:75|122:110|101:130,1,214.500006546021,2|2,0:0|0:0,0:0:0:0:
8,38,79936,6,0,P|64:2|146:1,1,121.875,10|0,0:0|0:0,0:0:0:0:
249,104,80397,2,0,P|188:103|134:75,1,121.875,2|0,3:2|0:0,0:0:0:0:
68,212,80859,2,0,B|103:183|150:205|150:205|130:214|116:232,1,121.875,10|0,0:2|0:0,0:0:0:0:
45,319,81320,6,0,P|92:306|123:303,1,53.6250016365052,2|0,3:2|0:0,0:0:0:0:
141,363,81551,2,0,P|147:310|188:261,1,107.25000327301,2|10,0:0|0:0,0:0:0:0:
291,363,82013,2,0,P|274:301|318:199,1,160.875004909516,2|0,0:0|0:0,0:0:0:0:
370,253,82474,1,2,0:0:0:0:
462,65,82705,2,0,P|436:151|437:207,1,107.25000327301,10|2,0:0|0:0,0:0:0:0:
453,284,83166,5,0,3:0:0:0:
269,16,83628,6,0,P|245:48|237:73,1,53.6250016365052,10|0,0:0|0:0,0:0:0:0:
184,169,83859,1,0,0:0:0:0:
318,67,84090,6,0,P|303:104|301:130,1,53.6250016365052,2|0,3:2|0:0,0:0:0:0:
275,236,84320,1,0,0:0:0:0:
380,116,84551,6,0,P|375:155|380:181,1,53.6250016365052,10|0,0:0|0:0,0:0:0:0:
382,290,84782,1,0,0:0:0:0:
446,322,85013,6,0,P|386:332|357:369,1,107.25000327301,2|0,3:2|0:0,0:0:0:0:
382,290,85474,1,10,0:2:0:0:
299,310,85705,1,2,0:0:0:0:
147,227,85936,6,0,P|181:226|218:245,1,53.6250016365052,0|0,3:0|0:0,0:0:0:0:
265,269,86166,2,0,P|289:292|302:331,1,53.6250016365052,2|0,0:0|0:0,0:0:0:0:
244,373,86397,1,10,0:0:0:0:
268,193,86628,6,0,B|225:158|226:100|226:100|169:134|110:107,1,214.500006546021,2|2,0:0|0:0,0:0:0:0:
31,253,87320,1,10,0:0:0:0:
199,167,87551,1,2,0:0:0:0:
109,309,87782,1,2,3:2:0:0:
121,111,88013,1,2,0:0:0:0:
193,265,88243,1,10,0:0:0:0:
37,155,88474,1,2,0:0:0:0:
188,350,88705,5,4,3:1:0:0:
188,350,88936,2,0,P|243:333|296:341,1,78,2|2,0:0|3:2,0:0:0:0:
400,313,89397,2,0,P|322:315|273:240,1,156,2|2,0:0|0:0,0:0:0:0:
399,172,90090,2,0,P|371:208|359:252,1,78,2|2,3:2|0:0,0:0:0:0:
312,384,90551,5,0,3:0:0:0:
41,41,92397,6,0,P|93:49|128:37,1,78,2|2,3:2|0:0,0:0:0:0:
243,110,92859,1,2,3:2:0:0:
188,11,93090,2,0,P|152:49|142:154,1,156,2|2,0:0|0:0,0:0:0:0:
241,262,93782,2,0,P|257:218|283:187,1,78,2|2,3:2|0:0,0:0:0:0:
154,268,94243,5,0,3:2:0:0:
440,76,95628,1,0,3:0:0:0:
465,163,95859,1,0,3:0:0:0:
383,18,96090,6,0,P|361:69|374:123,1,78,2|2,3:2|0:0,0:0:0:0:
465,163,96551,1,2,3:2:0:0:
290,132,96782,2,0,B|305:85|375:108|369:167|326:219,1,156,2|2,0:0|0:0,0:0:0:0:
226,298,97474,1,2,3:2:0:0:
263,233,97704,1,2,0:0:0:0:
326,347,97936,5,0,3:2:0:0:
20,366,99782,6,0,P|37:332|39:282,1,78,2|2,3:2|0:0,0:0:0:0:
137,365,100243,1,2,3:2:0:0:
70,211,100474,2,0,B|107:229|123:267|123:267|153:229|210:214,1,156,2|2,0:0|0:0,0:0:0:0:
146,82,101166,1,2,3:2:0:0:
137,159,101396,1,2,0:0:0:0:
215,31,101628,5,0,3:2:0:0:
63,58,118243,6,0,P|123:71|152:59,1,78,12|0,3:2|0:0,0:0:0:0:
223,19,118590,1,8,0:1:0:0:
223,19,118705,2,0,P|193:87|190:123,1,78,8|8,0:0|0:1,0:0:0:0:
63,193,119166,2,0,P|102:163|159:141,1,78,8|2,0:0|0:0,0:0:0:0:
272,180,119628,2,0,P|315:175|372:141,1,78,10|2,0:0|0:0,0:0:0:0:
461,38,120090,6,0,P|440:85|437:133,1,78,10|0,3:2|0:0,0:0:0:0:
443,189,120436,1,8,0:1:0:0:
443,189,120551,2,0,P|435:239|431:277,1,78,8|8,0:0|0:1,0:0:0:0:
501,349,121013,1,8,0:0:0:0:
512,249,121244,1,2,0:0:0:0:
420,366,121474,1,10,0:0:0:0:
431,266,121705,1,2,0:0:0:0:
266,350,121936,6,0,P|211:348|182:319,1,78,10|0,3:2|0:0,0:0:0:0:
160,260,122282,1,8,0:1:0:0:
160,260,122397,2,0,P|108:261|76:237,1,78,8|8,0:0|0:1,0:0:0:0:
77,133,122859,1,8,0:0:0:0:
4,257,123090,1,2,0:0:0:0:
134,198,123321,1,10,0:0:0:0:
0,141,123551,1,2,0:0:0:0:
130,82,123782,6,0,P|175:54|213:59,1,78,10|0,3:2|0:0,0:0:0:0:
258,113,124128,1,8,0:1:0:0:
258,113,124243,2,0,P|266:73|290:34,1,78,8|8,0:0|0:1,0:0:0:0:
385,114,124705,1,8,0:0:0:0:
355,12,124936,1,2,0:0:0:0:
323,156,125166,1,10,0:0:0:0:
456,77,125397,1,2,0:0:0:0:
474,195,125628,6,0,P|479:243|477:296,1,78,8|8,3:2|0:2,0:0:0:0:
443,361,125975,1,0,0:0:0:0:
443,361,126090,2,0,P|403:330|383:295,1,78,8|8,3:2|0:2,0:0:0:0:
246,346,126551,2,0,P|286:315|306:280,1,78,8|8,3:2|0:2,0:0:0:0:
215,255,126898,1,0,0:0:0:0:
215,255,127013,2,0,P|196:228|178:216,2,39,8|0|8,3:2|0:0|0:2,0:0:0:0:
76,134,127474,6,0,P|62:201|79:230,1,78,8|8,3:2|0:2,0:0:0:0:
104,293,127820,1,0,0:0:0:0:
105,280,127936,2,0,P|121:225|145:179,1,78,8|8,3:2|0:2,0:0:0:0:
76,134,128397,2,0,P|60:79|36:33,1,78,8|8,3:2|0:2,0:0:0:0:
126,38,128744,1,0,0:0:0:0:
126,38,128859,2,0,P|130:8|130:-11,2,39,8|0|8,3:2|0:0|0:0,0:0:0:0:
177,93,129320,5,8,3:2:0:0:
212,109,129435,1,8,0:0:0:0:
250,107,129550,1,8,3:2:0:0:
284,87,129666,1,8,0:0:0:0:
304,54,129781,1,8,3:2:0:0:
337,34,129898,1,8,0:0:0:0:
375,32,130013,1,8,3:2:0:0:
411,48,130128,1,8,0:0:0:0:
426,84,130243,6,0,P|420:131|421:160,1,39,8|8,3:2|0:0,0:0:0:0:
356,174,130474,2,0,P|393:202|419:216,1,39,8|8,3:2|0:0,0:0:0:0:
463,226,130705,6,0,P|434:263|412:283,1,39,8|8,3:2|0:0,0:0:0:0:
448,339,130936,2,0,P|401:332|373:324,1,39,8|8,3:2|0:0,0:0:0:0:
325,356,131166,6,0,P|280:340|257:262,2,116.999996429443,8|8|8,0:3|0:3|0:3,0:0:0:0:
325,356,132551,1,8,0:3:0:0:
151,296,133013,6,0,P|96:317|75:340,1,53.6250016365052,6|0,3:2|0:0,0:0:0:0:
31,328,133243,2,0,P|76:279|54:217,1,107.25000327301,2|8,0:0|0:0,0:0:0:0:
28,86,133705,2,0,B|84:106|131:67|131:67|104:79|70:69,1,160.875004909516,2|0,0:0|0:0,0:0:0:0:
99,3,134167,1,2,0:0:0:0:
189,145,134397,2,0,P|226:102|280:80,1,107.25000327301,10|2,0:0|0:0,0:0:0:0:
321,221,134859,6,0,P|341:159|444:75,1,190.124991296769,0|0,3:0|0:0,0:0:0:0:
511,113,135320,6,0,P|489:149|487:185,1,58.4999982147217,10|0,0:0|0:0,0:0:0:0:
431,262,135551,2,0,P|424:234|407:211,1,58.4999982147217,2|0,0:0|0:0,0:0:0:0:
432,78,135782,6,0,P|401:107|390:141,1,58.4999982147217,2|0,3:2|0:0,0:0:0:0:
321,221,136013,2,0,P|320:191|310:164,1,58.4999982147217,2|0,0:0|0:0,0:0:0:0:
387,6,136243,6,0,P|349:26|330:56,1,58.4999982147217,10|0,0:0|0:0,0:0:0:0:
228,148,136474,2,0,P|235:119|232:90,1,58.4999982147217,2|0,0:0|0:0,0:0:0:0:
116,22,136705,6,0,P|158:93|165:150,1,107.25000327301,2|0,3:2|0:0,0:0:0:0:
77,185,137167,1,10,0:2:0:0:
228,148,137398,1,2,0:0:0:0:
77,185,137628,6,0,P|53:235|47:279,1,53.6250016365052,0|0,3:0|0:0,0:0:0:0:
134,237,137859,2,0,P|165:282|200:309,1,53.6250016365052,2|0,0:0|0:0,0:0:0:0:
243,255,138090,1,10,0:0:0:0:
104,332,138321,6,0,B|185:320|185:320|232:335|232:335|314:327,1,214.500006546021,2|2,0:0|0:0,0:0:0:0:
475,324,139013,6,0,P|477:284|473:323,1,121.875,10|0,0:0|0:0,0:0:0:0:
302,340,139474,2,0,P|318:302|295:336,1,121.875,2|0,3:2|0:0,0:0:0:0:
104,332,139936,2,0,P|131:360|102:333,1,121.875,10|0,0:2|0:0,0:0:0:0:
222,20,140397,6,0,P|199:43|192:111,1,53.6250016365052,2|0,3:2|0:0,0:0:0:0:
228,123,140628,2,0,P|167:97|84:94,1,107.25000327301,2|8,0:0|0:0,0:0:0:0:
106,243,141090,2,0,B|83:178|44:136|44:136|51:156|51:191,1,160.875004909516,2|0,0:0|0:0,0:0:0:0:
10,235,141551,1,2,0:0:0:0:
191,256,141782,2,0,P|224:256|230:343,1,107.25000327301,10|2,0:0|0:0,0:0:0:0:
179,333,142244,5,0,3:0:0:0:
318,204,142705,6,0,L|231:159,1,53.6250016365052,10|0,0:0|0:0,0:0:0:0:
313,38,142936,2,0,L|226:83,1,53.6250016365052,2|0,0:0|0:0,0:0:0:0:
423,200,143166,6,0,L|359:125,1,53.6250016365052,2|0,3:2|0:0,0:0:0:0:
418,34,143397,2,0,L|354:108,1,53.6250016365052,2|0,0:0|0:0,0:0:0:0:
512,214,143628,6,0,L|480:121,1,53.6250016365052,10|0,0:0|0:0,0:0:0:0:
507,17,143859,2,0,L|475:109,1,53.6250016365052,2|0,0:0|0:0,0:0:0:0:
423,200,144090,6,0,P|433:261|479:299,1,107.25000327301,2|0,3:2|0:0,0:0:0:0:
512,214,144551,1,10,0:2:0:0:
457,372,144782,1,2,0:0:0:0:
363,317,145013,6,0,P|308:292|282:290,1,53.6250016365052,0|0,3:0|0:0,0:0:0:0:
291,214,145243,2,0,P|241:249|227:270,1,53.6250016365052,2|0,0:0|0:0,0:0:0:0:
236,327,145474,1,10,0:0:0:0:
62,276,145705,6,0,B|128:240|109:163|28:172|41:241,1,160.875004909516,2|0,0:0|0:0,0:0:0:0:
108,125,146167,6,0,P|116:105|109:126,1,73.1250027894975,2|0,0:0|0:0,0:0:0:0:
35,124,146397,5,10,0:0:0:0:
166,184,146628,1,2,0:0:0:0:
73,64,146859,5,2,3:2:0:0:
40,219,147090,1,2,1:2:0:0:
203,280,147320,1,10,0:2:0:0:
224,110,147551,1,2,0:0:0:0:
166,184,147782,5,2,3:2:0:0:
265,207,148013,1,2,0:0:0:0:
224,110,148243,1,12,0:0:0:0:
203,280,148474,2,0,P|235:255|344:285,1,160.875004909516,2|0,0:0|0:0,0:0:0:0:
272,338,148936,1,2,0:0:0:0:
457,327,149166,2,0,P|430:277|410:190,1,107.25000327301,10|2,0:0|0:0,0:0:0:0:
497,139,149628,5,0,3:0:0:0:
390,151,150090,6,0,L|301:142,1,53.6250016365052,10|0,0:0|0:0,0:0:0:0:
328,264,150320,1,0,0:0:0:0:
270,112,150551,6,0,L|216:106,1,53.6250016365052,2|0,3:2|0:0,0:0:0:0:
205,293,150782,1,0,0:0:0:0:
140,94,151013,6,0,P|141:121|152:146,1,53.6250016365052,10|0,0:0|0:0,0:0:0:0:
75,310,151243,1,0,0:0:0:0:
183,207,151474,6,0,P|125:212|82:147,1,107.25000327301,2|0,3:2|0:0,0:0:0:0:
216,106,151936,1,10,0:2:0:0:
75,310,152167,1,2,0:0:0:0:
25,162,152397,6,0,P|27:141|14:100,1,53.6250016365052,0|0,3:0|0:0,0:0:0:0:
134,74,152628,2,0,P|132:53|145:12,1,53.6250016365052,2|0,0:0|0:0,0:0:0:0:
99,137,152859,1,10,0:0:0:0:
30,38,153090,6,0,P|88:-9|239:23,1,214.500006546021,2|2,0:0|0:0,0:0:0:0:
405,166,153782,6,0,P|384:110|337:51,1,116.999996429443,10|0,0:0|0:0,0:0:0:0:
241,232,154243,2,0,P|299:241|374:230,1,116.999996429443,2|0,3:2|0:0,0:0:0:0:
274,56,154705,2,0,P|236:102|208:172,1,116.999996429443,10|0,0:2|0:0,0:0:0:0:
69,201,155166,6,0,P|50:198|69:203,1,58.4999982147217,2|0,3:2|0:0,0:0:0:0:
4,262,155397,2,0,P|13:201|-3:144,1,116.999996429443,2|8,0:0|0:0,0:0:0:0:
159,178,155859,2,0,B|89:168|69:113|69:113|90:141|142:152,1,175.499994644165,2|0,0:0|0:0,0:0:0:0:
135,63,156321,1,2,0:0:0:0:
195,250,156551,2,0,B|185:213|185:213|234:137,1,116.999996429443,10|2,0:0|0:0,0:0:0:0:
276,231,157013,5,0,3:0:0:0:
229,26,157474,6,0,P|250:39|290:48,1,58.4999982147217,10|0,0:0|0:0,0:0:0:0:
406,66,157705,1,0,0:0:0:0:
211,95,157936,6,0,P|227:112|264:132,1,58.4999982147217,2|0,3:2|0:0,0:0:0:0:
371,179,158166,1,0,0:0:0:0:
177,158,158397,6,0,P|188:179|218:207,1,58.4999982147217,10|0,0:0|0:0,0:0:0:0:
309,280,158628,1,0,0:0:0:0:
122,352,158859,6,0,P|160:305|151:243,1,116.999996429443,2|0,3:2|0:0,0:0:0:0:
211,95,159321,1,10,0:2:0:0:
106,192,159551,1,2,0:0:0:0:
251,271,159782,6,0,P|281:271|309:280,1,58.4999982147217,0|0,3:0|0:0,0:0:0:0:
342,215,160013,2,0,P|366:238|379:277,1,58.4999982147217,2|0,0:0|0:0,0:0:0:0:
442,283,160244,1,10,0:0:0:0:
273,353,160474,6,0,B|283:260|252:187|252:187|202:186|179:219,1,233.999992858887,2|2,0:0|0:0,0:0:0:0:
273,353,161167,1,10,0:0:0:0:
442,283,161398,1,2,0:0:0:0:
254,365,161628,1,2,3:2:0:0:
382,225,161859,1,2,0:0:0:0:
443,374,162090,1,10,0:0:0:0:
274,269,162321,1,2,0:0:0:0:
183,360,162551,5,4,0:1:0:0:
183,360,162782,2,0,P|146:345|107:344,1,58.4999982147217,2|0,0:0|0:0,0:0:0:0:
7,258,163243,2,0,P|57:257|89:196,1,116.999996429443,2|2,0:0|0:0,0:0:0:0:
44,55,163936,2,0,P|33:91|31:134,1,58.4999982147217,2|2,0:0|0:0,0:0:0:0:
30,205,164398,5,2,0:0:0:0:
340,58,165320,2,0,P|296:61|273:50,1,58.4999982147217,2|0,0:0|0:0,0:0:0:0:
189,35,165782,2,0,P|209:68|217:103,1,58.4999982147217,2|0,0:0|0:0,0:0:0:0:
206,182,166243,5,2,0:0:0:0:
396,176,166705,1,2,0:0:0:0:
396,176,166936,2,0,P|397:142|464:85,1,116.999996429443,2|2,0:0|0:0,0:0:0:0:
468,160,167628,1,2,0:0:0:0:
339,78,167859,5,2,0:0:0:0:
422,321,168551,1,2,0:0:0:0:
354,274,169013,1,2,0:0:0:0:
267,275,169474,1,2,0:0:0:0:
204,328,169936,5,2,0:0:0:0:
204,328,170166,2,0,P|163:324|139:300,1,58.4999982147217,2|2,0:0|0:0,0:0:0:0:
81,351,170628,2,0,P|112:291|113:229,1,116.999996429443,2|2,0:0|0:0,0:0:0:0:
70,180,171320,2,0,P|76:134|84:105,1,58.4999982147217,2|2,0:0|0:0,0:0:0:0:
115,242,171782,5,2,0:0:0:0:
285,36,172243,1,2,0:0:0:0:
210,69,172705,1,2,0:0:0:0:
197,149,173166,1,2,0:0:0:0:
256,205,173628,6,0,P|283:231|333:312,1,116.999996429443,2|2,0:0|0:0,0:0:0:0:
305,364,174320,2,0,P|351:365|395:314,1,116.999996429443,2|2,0:0|0:0,0:0:0:0:
400,244,175013,1,2,0:0:0:0:
469,338,175243,2,0,P|465:304|482:220,1,116.999996429443,2|0,0:0|0:0,0:0:0:0:
407,102,175936,5,2,0:0:0:0:
444,161,176166,1,2,0:0:0:0:
374,168,176397,1,2,0:0:0:0:
337,109,176627,1,2,0:0:0:0:
364,44,176859,1,2,0:0:0:0:
433,36,177090,6,0,L|261:29,1,156,2|0,0:0|0:0,0:0:0:0:
