osu file format v14

[General]
AudioFilename: audio.mp3
AudioLeadIn: 0
PreviewTime: 131166
Countdown: 0
SampleSet: Soft
StackLeniency: 0.3
Mode: 0
LetterboxInBreaks: 0
EpilepsyWarning: 1
WidescreenStoryboard: 1

[Editor]
Bookmarks: 90,14859,29628,44397,59166,73936,88705,103474,118243,133013,147782,162551,177320
DistanceSpacing: 1.1
BeatDivisor: 4
GridSize: 4
TimelineZoom: 2.7

[Metadata]
Title:Digital
TitleUnicode:Digital
Artist:Amidst
ArtistUnicode:Amidst
Creator:Daycore
Version:Hard
Source:
Tags:instrumental edm electro dance music electrohouse electronic
BeatmapID:2735561
BeatmapSetID:1320499

[Difficulty]
HPDrainRate:4
CircleSize:4.5
OverallDifficulty:6.5
ApproachRate:7.5
SliderMultiplier:1.65
SliderTickRate:1

[Events]
//Background and Video events
0,0,"amidst.jpg",0,0
//Break Periods
2,29828,42649
2,103474,116397
//Storyboard Layer 0 (Background)
Sprite,Background,Centre,"sb/highlight.png",260,409 S,2,133013,133213,1,0.2 F,2,133013,133213,1,0 P,0,133013,133213,A C,0,133013,,128,0,255
Sprite,Background,Centre,"sb/highlight.png",0,0 S,2,133243,133673,1,0.2 F,2,133243,133673,1,0 P,0,133243,133673,A C,0,133243,,128,0,255 M,0,133243,133300,340,395,362.6498,396.3067 M,0,133300,133358,362.6498,396.3067,385.2997,397.6134 M,0,133358,133416,385.2997,397.6134,407.9495,398.9202 M,0,133416,133473,407.9495,398.9202,430.5994,400.2269
Sprite,Background,Centre,"sb/highlight.png",0,0 S,2,133705,134366,1,0.2 F,2,133705,134366,1,0 P,0,133705,134366,A C,0,133705,,128,0,255 M,0,133705,133762,511,386,490.725,395.7553 M,0,133762,133820,490.725,395.7553,468.4868,393.8067 M,0,133820,133878,468.4868,393.8067,451.6062,379.1722 M,0,133878,133935,451.6062,379.1722,444.4915,357.8501 M,0,133935,133993,444.4915,357.8501,446.7192,335.4114 M,0,133993,134051,446.7192,335.4114,456.5807,315.0945 M,0,134051,134108,456.5807,315.0945,472.1326,298.6832 M,0,134108,134166,472.1326,298.6832,491.409,286.8247
Sprite,Background,Centre,"sb/highlight.png",570,307 S,2,134397,134597,1,0.2 F,2,134397,134597,1,0 P,0,134397,134597,A C,0,134397,,128,0,255
Sprite,Background,Centre,"sb/highlight.png",491,286 S,2,134628,134828,1,0.2 F,2,134628,134828,1,0 P,0,134628,134828,A C,0,134628,,128,0,255
Sprite,Background,Centre,"sb/highlight.png",0,0 S,2,134859,135405,1,0.2 F,2,134859,135405,1,0 P,0,134859,135405,A C,0,134859,,255,128,255 M,0,134859,134916,413,259,390.5555,255.6885 M,0,134916,134974,390.5555,255.6885,368.111,252.377 M,0,134974,135032,368.111,252.377,346.2737,252.8631 M,0,135032,135089,346.2737,252.8631,323.8013,250.1459 M,0,135089,135147,323.8013,250.1459,301.299,247.2527 M,0,135147,135205,301.299,247.2527,278.7968,244.3596
Sprite,Background,Centre,"sb/highlight.png",0,0 S,2,135320,135750,1,0.2 F,2,135320,135750,1,0 P,0,135320,135750,A C,0,135320,,255,128,255 M,0,135320,135377,269,242,275.7133,263.4523 M,0,135377,135435,275.7133,263.4523,275.1905,285.8536 M,0,135435,135493,275.1905,285.8536,267.0014,306.769 M,0,135493,135550,267.0014,306.769,252.0826,323.6678
Sprite,Background,Centre,"sb/highlight.png",0,0 S,2,135782,136212,1,0.2 F,2,135782,136212,1,0 P,0,135782,136212,A C,0,135782,,255,128,255 M,0,135782,135839,172,304,165.2867,282.5477 M,0,135839,135897,165.2867,282.5477,165.8095,260.1464 M,0,135897,135955,165.8095,260.1464,173.9986,239.231 M,0,135955,136012,173.9986,239.231,188.9174,222.3322
Sprite,Background,Centre,"sb/highlight.png",0,0 S,2,136243,136673,1,0.2 F,2,136243,136673,1,0 P,0,136243,136673,A C,0,136243,,255,128,255 M,0,136243,136300,249,167,263.4458,149.7756 M,0,136300,136358,263.4458,149.7756,271.6187,128.9079 M,0,136358,136416,271.6187,128.9079,272.1918,106.4483 M,0,136416,136473,272.1918,106.4483,265.0325,85.06816
Sprite,Background,Centre,"sb/highlight.png",0,0 S,2,136705,137366,1,0.2 F,2,136705,137366,1,0 P,0,136705,137366,A C,0,136705,,92,84,190 M,0,136705,136762,187,61,164.7059,56.79356 M,0,136762,136820,164.7059,56.79356,142.4117,52.58712 M,0,136820,136878,142.4117,52.58712,135.8743,65.00246 M,0,136878,136935,135.8743,65.00246,138.8844,87.4894 M,0,136935,136993,138.8844,87.4894,141.8945,109.9763 M,0,136993,137051,141.8945,109.9763,144.9045,132.4633 M,0,137051,137108,144.9045,132.4633,147.9146,154.9502 M,0,137108,137166,147.9146,154.9502,150.9247,177.4371
Sprite,Background,Centre,"sb/highlight.png",0,0 S,2,137397,137827,1,0.2 F,2,137397,137827,1,0 P,0,137397,137827,A C,0,137397,,92,84,190 M,0,137397,137454,125,255,147.2135,258.8719 M,0,137454,137512,147.2135,258.8719,169.6209,256.7951 M,0,137512,137570,169.6209,256.7951,190.5858,248.5062 M,0,137570,137627,190.5858,248.5062,208.0867,234.3119
Sprite,Background,Centre,"sb/highlight.png",249,167 S,2,137859,138059,1,0.2 F,2,137859,138059,1,0 P,0,137859,138059,A C,0,137859,,92,84,190
Sprite,Background,Centre,"sb/highlight.png",208,234 S,2,138089,138289,1,0.2 F,2,138089,138289,1,0 P,0,138089,138289,A C,0,138089,,92,84,190
Sprite,Background,Centre,"sb/highlight.png",0,0 S,2,138320,138981,1,0.2 F,2,138320,138981,1,0 P,0,138320,138981,A C,0,138320,,207,101,168 M,0,138320,138377,272,283,293.9322,288.4744 M,0,138377,138435,293.9322,288.4744,316.5135,287.3283 M,0,138435,138493,316.5135,287.3283,338.1001,280.501 M,0,138493,138550,338.1001,280.501,358.021,269.697 M,0,138550,138608,358.021,269.697,378.3384,259.7069 M,0,138608,138666,378.3384,259.7069,400.4594,254.9822 M,0,138666,138723,400.4594,254.9822,423.0418,256.3127 M,0,138723,138781,423.0418,256.3127,444.6683,263.0214
Sprite,Background,Centre,"sb/highlight.png",0,0 S,2,139013,139443,1,0.2 F,2,139013,139443,1,0 P,0,139013,139443,A C,0,139013,,207,101,168 M,0,139013,139070,488,332,479.2612,352.6977 M,0,139070,139128,479.2612,352.6977,464.2032,369.2626 M,0,139128,139186,464.2032,369.2626,444.2211,379.4473 M,0,139186,139243,444.2211,379.4473,421.8656,381.9068
Sprite,Background,Centre,"sb/highlight.png",0,0 S,2,139474,139904,1,0.2 F,2,139474,139904,1,0 P,0,139474,139904,A C,0,139474,,207,101,168 M,0,139474,139531,342,400,325.6059,384.5099 M,0,139531,139589,325.6059,384.5099,305.7936,373.835 M,0,139589,139647,305.7936,373.835,283.7753,369.0666 M,0,139647,139704,283.7753,369.0666,261.2631,370.5935
Sprite,Background,Centre,"sb/highlight.png",0,0 S,2,139936,140366,1,0.2 F,2,139936,140366,1,0 P,0,139936,140366,A C,0,139936,,207,101,168 M,0,139936,139993,183,395,179.2609,372.7743 M,0,139993,140051,179.2609,372.7743,181.6805,350.4146 M,0,140051,140109,181.6805,350.4146,190.5,329.6766 M,0,140109,140166,190.5,329.6766,205.3292,312.7249
Sprite,Background,Centre,"sb/highlight.png",252,245 S,2,140397,140597,1,0.2 F,2,140397,140597,1,0 P,0,140397,140597,A C,0,140397,,128,0,255
Sprite,Background,Centre,"sb/highlight.png",0,0 S,2,140628,141058,1,0.2 F,2,140628,141058,1,0 P,0,140628,141058,A C,0,140628,,128,0,255 M,0,140628,140685,198,309,183.4333,326.196 M,0,140685,140743,183.4333,326.196,174.1634,346.6804 M,0,140743,140801,174.1634,346.6804,171.3008,369.0186 M,0,140801,140858,171.3008,369.0186,175,391
Sprite,Background,Centre,"sb/highlight.png",0,0 S,2,141090,141751,1,0.2 F,2,141090,141751,1,0 P,0,141090,141751,A C,0,141090,,128,0,255 M,0,141090,141147,261,370,283.538,368.4908 M,0,141147,141205,283.538,368.4908,305.6171,373.4273 M,0,141205,141263,305.6171,373.4273,325.7758,383.7039 M,0,141263,141320,325.7758,383.7039,342.3165,399.0958 M,0,141320,141378,342.3165,399.0958,360.1118,386.9185 M,0,141378,141436,360.1118,386.9185,380.1808,376.426 M,0,141436,141493,380.1808,376.426,402.029,370.4747 M,0,141493,141551,402.029,370.4747,424.6291,368.8266
Sprite,Background,Centre,"sb/highlight.png",0,0 S,2,141782,142212,1,0.2 F,2,141782,142212,1,0 P,0,141782,142212,A C,0,141782,,128,0,255 M,0,141782,141839,493,421,487.2459,399.0845 M,0,141839,141897,487.2459,399.0845,484.1859,376.6433 M,0,141897,141955,484.1859,376.6433,484.0612,353.9859 M,0,141955,142012,484.0612,353.9859,486.9128,331.4982
Sprite,Background,Centre,"sb/highlight.png",0,0 S,2,142243,142789,1,0.2 F,2,142243,142789,1,0 P,0,142243,142789,A C,0,142243,,255,128,255 M,0,142243,142300,566,302,554.8989,282.3559 M,0,142300,142358,554.8989,282.3559,539.2571,266.1577 M,0,142358,142416,539.2571,266.1577,519.8309,254.7272 M,0,142416,142473,519.8309,254.7272,498.0217,248.9073 M,0,142473,142531,498.0217,248.9073,475.4771,249.5703 M,0,142531,142589,475.4771,249.5703,453.9,255.9775
Sprite,Background,Centre,"sb/highlight.png",0,0 S,2,142705,143135,1,0.2 F,2,142705,143135,1,0 P,0,142705,143135,A C,0,142705,,255,128,255 M,0,142705,142762,442,262,419.4914,259.1568 M,0,142762,142820,419.4914,259.1568,396.9827,256.3136 M,0,142820,142878,396.9827,256.3136,374.4741,253.4704 M,0,142878,142935,374.4741,253.4704,351.9655,250.6272
Sprite,Background,Centre,"sb/highlight.png",0,0 S,2,143166,143596,1,0.2 F,2,143166,143596,1,0 P,0,143166,143596,A C,0,143166,,255,128,255 M,0,143166,143223,290,196,267.4914,198.8432 M,0,143223,143281,267.4914,198.8432,244.9827,201.6864 M,0,143281,143339,244.9827,201.6864,222.4741,204.5296 M,0,143339,143396,222.4741,204.5296,199.9654,207.3728
Sprite,Background,Centre,"sb/highlight.png",0,0 S,2,143628,144058,1,0.2 F,2,143628,144058,1,0 P,0,143628,144058,A C,0,143628,,255,128,255 M,0,143628,143685,130,250,120.7038,229.4633 M,0,143685,143743,120.7038,229.4633,117.2175,207.2373 M,0,143743,143801,117.2175,207.2373,120.2196,184.8931 M,0,143801,143858,120.2196,184.8931,129.939,164.5684
Sprite,Background,Centre,"sb/highlight.png",0,0 S,2,144090,144751,1,0.2 F,2,144090,144751,1,0 P,0,144090,144751,A C,0,144090,,92,84,190 M,0,144090,144147,126,82,148.6493,83.31682 M,0,144147,144205,148.6493,83.31682,171.2985,84.63364 M,0,144205,144263,171.2985,84.63364,193.9478,85.95045 M,0,144263,144320,193.9478,85.95045,215.4962,84.00325 M,0,144320,144378,215.4962,84.00325,237.0352,82.16356 M,0,144378,144436,237.0352,82.16356,259.6757,83.62424 M,0,144436,144493,259.6757,83.62424,282.3161,85.08491 M,0,144493,144551,282.3161,85.08491,304.9565,86.54558
Sprite,Background,Centre,"sb/highlight.png",0,0 S,2,144782,145212,1,0.2 F,2,144782,145212,1,0 P,0,144782,145212,A C,0,144782,,92,84,190 M,0,144782,144839,368,137,389.3345,144.0699 M,0,144839,144897,389.3345,144.0699,411.727,143.7677 M,0,144897,144955,411.727,143.7677,432.6392,135.6653 M,0,144955,145012,432.6392,135.6653,449.4489,120.7464
Sprite,Background,Centre,"sb/highlight.png",503,59 S,2,145243,145443,1,0.2 F,2,145243,145443,1,0 P,0,145243,145443,A C,0,145243,,92,84,190
Sprite,Background,Centre,"sb/highlight.png",554,122 S,2,145474,145674,1,0.2 F,2,145474,145674,1,0 P,0,145474,145674,A C,0,145474,,92,84,190
Sprite,Background,Centre,"sb/highlight.png",0,0 S,2,145705,146366,1,0.2 F,2,145705,146366,1,0 P,0,145705,146366,A C,0,145705,,207,101,168 M,0,145705,145762,551,203,539.8019,222.6727 M,0,145762,145820,539.8019,222.6727,534.1926,244.5692 M,0,145820,145878,534.1926,244.5692,535.4263,267.1365 M,0,145878,145935,535.4263,267.1365,542.8726,288.4826 M,0,145935,145993,542.8726,288.4826,551.2468,309.4808 M,0,145993,146051,551.2468,309.4808,553.2731,332.0038 M,0,146051,146108,553.2731,332.0038,549.6801,354.3598 M,0,146108,146166,549.6801,354.3598,542.0277,375.6933
Sprite,Background,Centre,"sb/highlight.png",0,0 S,2,146397,146827,1,0.2 F,2,146397,146827,1,0 P,0,146397,146827,A C,0,146397,,207,101,168 M,0,146397,146454,491,439,469.314,432.3923 M,0,146454,146512,469.314,432.3923,447.1056,427.8724 M,0,146512,146570,447.1056,427.8724,424.5516,425.6235 M,0,146570,146627,424.5516,425.6235,401.8792,425.6303
Sprite,Background,Centre,"sb/highlight.png",343,369 S,2,146859,147059,1,0.2 F,2,146859,147059,1,0 P,0,146859,147059,A C,0,146859,,207,101,168
Sprite,Background,Centre,"sb/highlight.png",264,391 S,2,147090,147290,1,0.2 F,2,147090,147290,1,0 P,0,147090,147290,A C,0,147090,,207,101,168
Sprite,Background,Centre,"sb/highlight.png",218,323 S,2,147320,147520,1,0.2 F,2,147320,147520,1,0 P,0,147320,147520,A C,0,147320,,207,101,168
Sprite,Background,Centre,"sb/highlight.png",139,301 S,2,147551,147751,1,0.2 F,2,147551,147751,1,0 P,0,147551,147751,A C,0,147551,,207,101,168
Sprite,Background,Centre,"sb/highlight.png",198,244 S,2,147782,147982,1,0.2 F,2,147782,147982,1,0 P,0,147782,147982,A C,0,147782,,128,0,255
Sprite,Background,Centre,"sb/highlight.png",264,391 S,2,148243,148443,1,0.2 F,2,148243,148443,1,0 P,0,148243,148443,A C,0,148243,,128,0,255
Sprite,Background,Centre,"sb/highlight.png",0,0 S,2,148474,149135,1,0.2 F,2,148474,149135,1,0 P,0,148474,149135,A C,0,148474,,128,0,255 M,0,148474,148531,218,323,238.8436,314.3753 M,0,148531,148589,238.8436,314.3753,256.7361,300.7175 M,0,148589,148647,256.7361,300.7175,270.2156,282.6603 M,0,148647,148704,270.2156,282.6603,278.2424,261.5667 M,0,148704,148762,278.2424,261.5667,279.7229,239.067 M,0,148762,148820,279.7229,239.067,275.2693,217.0122 M,0,148820,148877,275.2693,217.0122,264.9362,197.0077 M,0,148877,148935,264.9362,197.0077,249.5656,180.4816
Sprite,Background,Centre,"sb/highlight.png",0,0 S,2,149166,149596,1,0.2 F,2,149166,149596,1,0 P,0,149166,149596,A C,0,149166,,128,0,255 M,0,149166,149223,209,109,228.7867,120.0999 M,0,149223,149281,228.7867,120.0999,248.5735,131.1998 M,0,149281,149339,248.5735,131.1998,270.0097,125.4584 M,0,149339,149396,270.0097,125.4584,291.5741,118.4085
Sprite,Background,Centre,"sb/highlight.png",0,0 S,2,149628,150174,1,0.2 F,2,149628,150174,1,0 P,0,149628,150174,A C,0,149628,,255,128,255 M,0,149628,149685,371,98,393.12,93.98969 M,0,149685,149743,393.12,93.98969,415.3036,97.20019 M,0,149743,149801,415.3036,97.20019,435.1341,107.7821 M,0,149801,149858,435.1341,107.7821,449.7379,124.8451 M,0,149858,149916,449.7379,124.8451,457.9442,145.6747 M,0,149916,149974,457.9442,145.6747,458.8035,168.1405
Sprite,Background,Centre,"sb/highlight.png",0,0 S,2,150090,150520,1,0.2 F,2,150090,150520,1,0 P,0,150090,150520,A C,0,150090,,255,128,255 M,0,150090,150147,473,185,483.7271,204.9913 M,0,150147,150205,483.7271,204.9913,494.4541,224.9827 M,0,150205,150263,494.4541,224.9827,489.2368,246.7474 M,0,150263,150320,489.2368,246.7474,483.1647,268.6072
Sprite,Background,Centre,"sb/highlight.png",0,0 S,2,150551,150981,1,0.2 F,2,150551,150981,1,0 P,0,150551,150981,A C,0,150551,,255,128,255 M,0,150551,150608,422,323,399.333,322.0355 M,0,150608,150666,399.333,322.0355,376.666,321.0709 M,0,150666,150724,376.666,321.0709,360.326,305.9497 M,0,150724,150781,360.326,305.9497,344.4878,289.7054
Sprite,Background,Centre,"sb/highlight.png",0,0 S,2,151013,151443,1,0.2 F,2,151013,151443,1,0 P,0,151013,151443,A C,0,151013,,255,128,255 M,0,151013,151070,327,209,338.6726,189.5456 M,0,151070,151128,338.6726,189.5456,350.3452,170.0912 M,0,151128,151186,350.3452,170.0912,371.7296,163.6257 M,0,151186,151243,371.7296,163.6257,393.691,157.932
Sprite,Background,Centre,"sb/highlight.png",0,0 S,2,151474,152135,1,0.2 F,2,151474,152135,1,0 P,0,151474,152135,A C,0,151474,,92,84,190 M,0,151474,151531,473,185,488.6289,201.3743 M,0,151531,151589,488.6289,201.3743,501.4342,220.0213 M,0,151589,151647,501.4342,220.0213,510.8635,240.6032 M,0,151647,151704,510.8635,240.6032,516.2927,262.574 M,0,151704,151762,516.2927,262.574,518.0669,285.119 M,0,151762,151820,518.0669,285.119,515.9517,307.6486 M,0,151820,151877,515.9517,307.6486,509.7504,329.4108 M,0,151877,151935,509.7504,329.4108,500.1864,349.9231
Sprite,Background,Centre,"sb/highlight.png",0,0 S,2,152166,152596,1,0.2 F,2,152166,152596,1,0 P,0,152166,152596,A C,0,152166,,92,84,190 M,0,152166,152223,444,410,421.5064,407.0403 M,0,152223,152281,421.5064,407.0403,398.9525,405 M,0,152281,152339,398.9525,405,376.3971,402.7206 M,0,152339,152396,376.3971,402.7206,353.8615,400.1002
Sprite,Background,Centre,"sb/highlight.png",312,329 S,2,152628,152828,1,0.2 F,2,152628,152828,1,0 P,0,152628,152828,A C,0,152628,,92,84,190
Sprite,Background,Centre,"sb/highlight.png",245,376 S,2,152859,153059,1,0.2 F,2,152859,153059,1,0 P,0,152859,153059,A C,0,152859,,92,84,190
Sprite,Background,Centre,"sb/highlight.png",0,0 S,2,153090,153751,1,0.2 F,2,153090,153751,1,0 P,0,153090,153751,A C,0,153090,,207,101,168 M,0,153090,153147,191,314,174.2336,328.9513 M,0,153147,153205,174.2336,328.9513,152.3213,333.6578 M,0,153205,153263,152.3213,333.6578,131.0558,326.5418 M,0,153263,153320,131.0558,326.5418,115.9996,309.8878 M,0,153320,153378,115.9996,309.8878,110.102,288.1691 M,0,153378,153436,110.102,288.1691,112.9679,265.7804 M,0,153436,153493,112.9679,265.7804,122.4392,245.2396 M,0,153493,153551,122.4392,245.2396,136.4502,227.4482
Sprite,Background,Centre,"sb/highlight.png",0,0 S,2,153782,154212,1,0.2 F,2,153782,154212,1,0 P,0,153782,154212,A C,0,153782,,207,101,168 M,0,153782,153839,139,145,160.4493,151.9995 M,0,153839,153897,160.4493,151.9995,182.9331,153.6109 M,0,153897,153955,182.9331,153.6109,204.9583,148.8094 M,0,153955,154012,204.9583,148.8094,225.0363,138.6375
Sprite,Background,Centre,"sb/highlight.png",0,0 S,2,154243,154673,1,0.2 F,2,154243,154673,1,0 P,0,154243,154673,A C,0,154243,,207,101,168 M,0,154243,154300,292,96,305.9288,78.09157 M,0,154300,154358,305.9288,78.09157,319.8575,60.18314 M,0,154358,154416,319.8575,60.18314,334.3341,77.28529 M,0,154416,154473,334.3341,77.28529,348.8164,94.74918
Sprite,Background,Centre,"sb/highlight.png",0,0 S,2,154705,155135,1,0.2 F,2,154705,155135,1,0 P,0,154705,155135,A C,0,154705,,207,101,168 M,0,154705,154762,414,138,434.3109,147.8567 M,0,154762,154820,434.3109,147.8567,456.3322,152.6673 M,0,154820,154878,456.3322,152.6673,478.8896,151.7917 M,0,154878,154935,478.8896,151.7917,500.5189,145.1968
Sprite,Background,Centre,"sb/highlight.png",533,220 S,2,155166,155366,1,0.2 F,2,155166,155366,1,0 P,0,155166,155366,A C,0,155166,,128,0,255
Sprite,Background,Centre,"sb/highlight.png",0,0 S,2,155397,155827,1,0.2 F,2,155397,155827,1,0 P,0,155397,155827,A C,0,155397,,128,0,255 M,0,155397,155454,443,234,420.5031,231.0656 M,0,155454,155512,420.5031,231.0656,398.0061,228.1312 M,0,155512,155570,398.0061,228.1312,375.5092,225.1969 M,0,155570,155627,375.5092,225.1969,353.0123,222.2625
Sprite,Background,Centre,"sb/highlight.png",0,0 S,2,155859,156520,1,0.2 F,2,155859,156520,1,0 P,0,155859,156520,A C,0,155859,,128,0,255 M,0,155859,155916,265,249,286.7607,243.438 M,0,155916,155974,286.7607,243.438,308.899,247.6046 M,0,155974,156032,308.899,247.6046,327.5554,260.2318 M,0,156032,156089,327.5554,260.2318,339.9952,279.0498 M,0,156089,156147,339.9952,279.0498,345.6904,300.9265 M,0,156147,156205,345.6904,300.9265,345.653,323.565 M,0,156205,156262,345.653,323.565,340.9981,345.736 M,0,156262,156320,340.9981,345.736,332.4494,366.7196
Sprite,Background,Centre,"sb/highlight.png",0,0 S,2,156551,156981,1,0.2 F,2,156551,156981,1,0 P,0,156551,156981,A C,0,156551,,128,0,255 M,0,156551,156608,265,428,242.5734,430.3546 M,0,156608,156666,242.5734,430.3546,220.355,426.7793 M,0,156666,156724,220.355,426.7793,199.9854,417.1242 M,0,156724,156781,199.9854,417.1242,183.1012,402.11
Sprite,Background,Centre,"sb/highlight.png",0,0 S,2,157013,157559,1,0.2 F,2,157013,157559,1,0 P,0,157013,157559,A C,0,157013,,255,128,255 M,0,157013,157070,186,310,189.6899,287.6146 M,0,157070,157128,189.6899,287.6146,193.3798,265.2292 M,0,157128,157186,193.3798,265.2292,197.0697,242.8437 M,0,157186,157243,197.0697,242.8437,200.7596,220.4583 M,0,157243,157301,200.7596,220.4583,183.297,230.496 M,0,157301,157359,183.297,230.496,161.1683,234.6853
Sprite,Background,Centre,"sb/highlight.png",0,0 S,2,157474,157904,1,0.2 F,2,157474,157904,1,0 P,0,157474,157904,A C,0,157474,,255,128,255 M,0,157474,157531,147,233,130.7578,218.1507 M,0,157531,157589,130.7578,218.1507,125.7825,196.9747 M,0,157589,157647,125.7825,196.9747,134.4764,176.917 M,0,157647,157704,134.4764,176.917,153.5716,165.7627
Sprite,Background,Centre,"sb/highlight.png",0,0 S,2,157936,158366,1,0.2 F,2,157936,158366,1,0 P,0,157936,158366,A C,0,157936,,255,128,255 M,0,157936,157993,212,107,226.3187,90.31303 M,0,157993,158051,226.3187,90.31303,247.3316,84.67076 M,0,158051,158109,247.3316,84.67076,267.7118,92.80058 M,0,158109,158166,267.7118,92.80058,278.3312,111.9604
Sprite,Background,Centre,"sb/highlight.png",0,0 S,2,158397,158827,1,0.2 F,2,158397,158827,1,0 P,0,158397,158827,A C,0,158397,,255,128,255 M,0,158397,158454,330,177,346.2422,191.8493 M,0,158454,158512,346.2422,191.8493,351.2175,213.0253 M,0,158512,158570,351.2175,213.0253,342.5236,233.083 M,0,158570,158627,342.5236,233.083,323.4284,244.2373
Sprite,Background,Centre,"sb/highlight.png",0,0 S,2,158859,159520,1,0.2 F,2,158859,159520,1,0 P,0,158859,159520,A C,0,158859,,92,84,190 M,0,158859,158916,290,319,301.8604,338.206 M,0,158916,158974,301.8604,338.206,317.9931,353.9316 M,0,158974,159032,317.9931,353.9316,337.6591,364.9578 M,0,159032,159089,337.6591,364.9578,359.533,370.528 M,0,159089,159147,359.533,370.528,382.1375,370.2486 M,0,159147,159205,382.1375,370.2486,403.7261,363.6612 M,0,159205,159262,403.7261,363.6612,423.0239,352.0391 M,0,159262,159320,423.0239,352.0391,438.6702,335.8098
Sprite,Background,Centre,"sb/highlight.png",0,0 S,2,159551,159981,1,0.2 F,2,159551,159981,1,0 P,0,159551,159981,A C,0,159551,,92,84,190 M,0,159551,159608,499,280,498.7004,257.3408 M,0,159608,159666,498.7004,257.3408,501.0016,234.8052 M,0,159666,159724,501.0016,234.8052,506.0585,212.716 M,0,159724,159781,506.0585,212.716,513.8258,191.4185
Sprite,Background,Centre,"sb/highlight.png",453,135 S,2,160013,160213,1,0.2 F,2,160013,160213,1,0 P,0,160013,160213,A C,0,160013,,92,84,190
Sprite,Background,Centre,"sb/highlight.png",529,105 S,2,160243,160443,1,0.2 F,2,160243,160443,1,0 P,0,160243,160443,A C,0,160243,,92,84,190
Sprite,Background,Centre,"sb/highlight.png",0,0 S,2,160474,161135,1,0.2 F,2,160474,161135,1,0 P,0,160474,161135,A C,0,160474,,207,101,168 M,0,160474,160531,463,56,440.4731,57.06728 M,0,160531,160589,440.4731,57.06728,419.0882,64.0558 M,0,160589,160647,419.0882,64.0558,400.5358,76.80713 M,0,160647,160704,400.5358,76.80713,386.3269,94.29553 M,0,160704,160762,386.3269,94.29553,377.6259,115.1113 M,0,160762,160820,377.6259,115.1113,375.1564,137.5721 M,0,160820,160877,375.1564,137.5721,379.6364,159.6738 M,0,160877,160935,379.6364,159.6738,389.5833,179.9087
Sprite,Background,Centre,"sb/highlight.png",0,0 S,2,161166,161596,1,0.2 F,2,161166,161596,1,0 P,0,161166,161596,A C,0,161166,,207,101,168 M,0,161166,161223,356,254,363.7096,275.2794 M,0,161223,161281,363.7096,275.2794,367.9291,297.5085 M,0,161281,161339,367.9291,297.5085,367.8774,320.1334 M,0,161339,161396,367.8774,320.1334,364.2204,342.4651
Sprite,Background,Centre,"sb/highlight.png",0,0 S,2,161628,162058,1,0.2 F,2,161628,162058,1,0 P,0,161628,162058,A C,0,161628,,207,101,168 M,0,161628,161685,275,342,271.1086,319.7114 M,0,161685,161743,271.1086,319.7114,271.2065,297.1068 M,0,161743,161801,271.2065,297.1068,275.5701,274.9111 M,0,161801,161858,275.5701,274.9111,284,254
Sprite,Background,Centre,"sb/highlight.png",320,180 S,2,162090,162290,1,0.2 F,2,162090,162290,1,0 P,0,162090,162290,A C,0,162090,,207,101,168
Sprite,Background,Centre,"sb/highlight.png",320,89 S,2,162320,162520,1,0.2 F,2,162320,162520,1,0 P,0,162320,162520,A C,0,162320,,207,101,168
Sprite,Background,Centre,"sb/highlight.png",113,249 S,2,59166,59366,1,0.2 F,2,59166,59366,1,0 P,0,59166,59366,A C,0,59166,,207,101,168
Sprite,Background,Centre,"sb/highlight.png",0,0 S,2,59397,59827,1,0.2 F,2,59397,59827,1,0 P,0,59397,59827,A C,0,59397,,207,101,168 M,0,59397,59454,168,188,183.129,204.684 M,0,59454,59512,183.129,204.684,192.773,224.9697 M,0,59512,59570,192.773,224.9697,195.7056,247.2707 M,0,59570,59627,195.7056,247.2707,191.6728,269.4635
Sprite,Background,Centre,"sb/highlight.png",0,0 S,2,59859,60520,1,0.2 F,2,59859,60520,1,0 P,0,59859,60520,A C,0,59859,,207,101,168 M,0,59859,59916,137,330,158.6452,323.2639 M,0,59916,59974,158.6452,323.2639,181.1146,320.5058 M,0,59974,60032,181.1146,320.5058,203.464,323.8536 M,0,60032,60089,203.464,323.8536,224.1845,333.002 M,0,60089,60147,224.1845,333.002,244.264,343.5519 M,0,60147,60205,244.264,343.5519,265.827,350.3821 M,0,60205,60262,265.827,350.3821,288.4381,350.9923 M,0,60262,60320,288.4381,350.9923,310.6665,346.6037
Sprite,Background,Centre,"sb/highlight.png",384,310 S,2,60551,60751,1,0.2 F,2,60551,60751,1,0 P,0,60551,60751,A C,0,60551,,207,101,168
Sprite,Background,Centre,"sb/highlight.png",462,332 S,2,60782,60982,1,0.2 F,2,60782,60982,1,0 P,0,60782,60982,A C,0,60782,,207,101,168
Sprite,Background,Centre,"sb/highlight.png",0,0 S,2,61013,61559,1,0.2 F,2,61013,61559,1,0 P,0,61013,61559,A C,0,61013,,128,0,255 M,0,61013,61070,532,287,511.6182,277.4 M,0,61070,61128,511.6182,277.4,496.3344,260.8211 M,0,61128,61186,496.3344,260.8211,488.493,239.7158 M,0,61186,61243,488.493,239.7158,493.0282,218.0715 M,0,61243,61301,493.0282,218.0715,513.3285,213.9846 M,0,61301,61359,513.3285,213.9846,520.9333,233.4225
Sprite,Background,Centre,"sb/highlight.png",0,0 S,2,61474,61904,1,0.2 F,2,61474,61904,1,0 P,0,61474,61904,A C,0,61474,,128,0,255 M,0,61474,61531,471,231,448.6073,227.3547 M,0,61531,61589,448.6073,227.3547,426.2607,224.497 M,0,61589,61647,426.2607,224.497,404.0086,223.2259 M,0,61647,61704,404.0086,223.2259,381.6176,219.5702
Sprite,Background,Centre,"sb/highlight.png",0,0 S,2,61936,62366,1,0.2 F,2,61936,62366,1,0 P,0,61936,62366,A C,0,61936,,128,0,255 M,0,61936,61993,414,124,391.6073,127.6453 M,0,61993,62051,391.6073,127.6453,369.2607,130.5031 M,0,62051,62109,369.2607,130.5031,347.0086,131.7741 M,0,62109,62166,347.0086,131.7741,324.6176,135.4298
Sprite,Background,Centre,"sb/highlight.png",0,0 S,2,62397,62827,1,0.2 F,2,62397,62827,1,0 P,0,62397,62827,A C,0,62397,,128,0,255 M,0,62397,62454,381,219,358.6073,215.3547 M,0,62454,62512,358.6073,215.3547,336.2607,212.497 M,0,62512,62570,336.2607,212.497,314.0086,211.2259 M,0,62570,62627,314.0086,211.2259,291.6176,207.5702
Sprite,Background,Centre,"sb/highlight.png",0,0 S,2,62859,63520,1,0.2 F,2,62859,63520,1,0 P,0,62859,63520,A C,0,62859,,255,128,255 M,0,62859,62916,215,142,229.9778,158.8768 M,0,62916,62974,229.9778,158.8768,240.2415,178.9208 M,0,62974,63032,240.2415,178.9208,244.7908,200.9981 M,0,63032,63089,244.7908,200.9981,243.2825,223.5219 M,0,63089,63147,243.2825,223.5219,235.415,244.6609 M,0,63147,63205,235.415,244.6609,222.4398,263.0547 M,0,63205,63262,222.4398,263.0547,205.0176,277.3301 M,0,63262,63320,205.0176,277.3301,184.4211,286.5709
Sprite,Background,Centre,"sb/highlight.png",0,0 S,2,63551,63981,1,0.2 F,2,63551,63981,1,0 P,0,63551,63981,A C,0,63551,,255,128,255 M,0,63551,63608,112,247,104.3183,268.2104 M,0,63608,63666,104.3183,268.2104,102.296,290.6319 M,0,63666,63724,102.296,290.6319,106.4554,312.7852 M,0,63724,63781,106.4554,312.7852,116.4787,333.0299
Sprite,Background,Centre,"sb/highlight.png",158,403 S,2,64013,64213,1,0.2 F,2,64013,64213,1,0 P,0,64013,64213,A C,0,64013,,255,128,255
Sprite,Background,Centre,"sb/highlight.png",229,364 S,2,64243,64443,1,0.2 F,2,64243,64443,1,0 P,0,64243,64443,A C,0,64243,,255,128,255
Sprite,Background,Centre,"sb/highlight.png",0,0 S,2,64474,65135,1,0.2 F,2,64474,65135,1,0 P,0,64474,65135,A C,0,64474,,92,84,190 M,0,64474,64531,293,413,315.4457,414.5756 M,0,64531,64589,315.4457,414.5756,336.2183,406.0095 M,0,64589,64647,336.2183,406.0095,351.2418,389.248 M,0,64647,64704,351.2418,389.248,357.9617,367.7763 M,0,64704,64762,357.9617,367.7763,353.068,346.0299 M,0,64762,64820,353.068,346.0299,334.0558,335.6633 M,0,64820,64877,334.0558,335.6633,315.544,346.983 M,0,64877,64935,315.544,346.983,319.9877,367.1277
Sprite,Background,Centre,"sb/highlight.png",0,0 S,2,65166,65596,1,0.2 F,2,65166,65596,1,0 P,0,65166,65596,A C,0,65166,,92,84,190 M,0,65166,65223,401,375,413.5776,356.1328 M,0,65223,65281,413.5776,356.1328,424.6433,336.3452 M,0,65281,65339,424.6433,336.3452,434.0151,315.6966 M,0,65339,65396,434.0151,315.6966,441.4699,294.2829
Sprite,Background,Centre,"sb/highlight.png",0,0 S,2,65628,66058,1,0.2 F,2,65628,66058,1,0 P,0,65628,66058,A C,0,65628,,92,84,190 M,0,65628,65685,454,213,443.5608,192.8681 M,0,65685,65743,443.5608,192.8681,431.7335,173.5225 M,0,65743,65801,431.7335,173.5225,418.4768,155.1221 M,0,65801,65858,418.4768,155.1221,403.7476,137.8801
Sprite,Background,Centre,"sb/highlight.png",0,0 S,2,66090,66520,1,0.2 F,2,66090,66520,1,0 P,0,66090,66520,A C,0,66090,,92,84,190 M,0,66090,66147,328,107,305.3723,105.525 M,0,66147,66205,305.3723,105.525,282.7013,105.7783 M,0,66205,66263,282.7013,105.7783,260.1225,107.8866 M,0,66263,66320,260.1225,107.8866,237.8256,112.0101
Sprite,Background,Centre,"sb/highlight.png",146,151 S,2,66551,66751,1,0.2 F,2,66551,66751,1,0 P,0,66551,66751,A C,0,66551,,207,101,168
Sprite,Background,Centre,"sb/highlight.png",0,0 S,2,66782,67212,1,0.2 F,2,66782,67212,1,0 P,0,66782,67212,A C,0,66782,,207,101,168 M,0,66782,66839,238,101,260.3442,97.14386 M,0,66839,66897,260.3442,97.14386,282.9222,95.09668 M,0,66897,66955,282.9222,95.09668,305.5967,95.00408 M,0,66955,67012,305.5967,95.00408,328.1956,96.90621
Sprite,Background,Centre,"sb/highlight.png",0,0 S,2,67243,67904,1,0.2 F,2,67243,67904,1,0 P,0,67243,67904,A C,0,67243,,207,101,168 M,0,67243,67300,340,187,344.4996,164.8496 M,0,67300,67358,344.4996,164.8496,353.4715,144.1363 M,0,67358,67416,353.4715,144.1363,366.8138,125.9047 M,0,67416,67473,366.8138,125.9047,383.8801,111.0571 M,0,67473,67531,383.8801,111.0571,403.9953,100.755 M,0,67531,67589,403.9953,100.755,425.788,94.885 M,0,67589,67646,425.788,94.885,448.3558,93.97919 M,0,67646,67704,448.3558,93.97919,470.5909,98.09244
Sprite,Background,Centre,"sb/highlight.png",0,0 S,2,67936,68366,1,0.2 F,2,67936,68366,1,0 P,0,67936,68366,A C,0,67936,,207,101,168 M,0,67936,67993,524,160,515.5529,181.0269 M,0,67993,68051,515.5529,181.0269,509.5592,202.8746 M,0,68051,68109,509.5592,202.8746,506.5182,225.3253 M,0,68109,68166,506.5182,225.3253,506.1761,247.9703
Sprite,Background,Centre,"sb/highlight.png",0,0 S,2,68397,68943,1,0.2 F,2,68397,68943,1,0 P,0,68397,68943,A C,0,68397,,128,0,255 M,0,68397,68454,566,302,547.5385,288.8132 M,0,68454,68512,547.5385,288.8132,528.7299,277.6572 M,0,68512,68570,528.7299,277.6572,506.937,283.9656 M,0,68570,68627,506.937,283.9656,486.2303,292.1309 M,0,68627,68685,486.2303,292.1309,464.4996,298.6501 M,0,68685,68743,464.4996,298.6501,442.769,305.1693
Sprite,Background,Centre,"sb/highlight.png",0,0 S,2,68859,69289,1,0.2 F,2,68859,69289,1,0 P,0,68859,69289,A C,0,68859,,128,0,255 M,0,68859,68916,433,310,422.4169,290.0904 M,0,68916,68974,422.4169,290.0904,407.127,273.5482 M,0,68974,69032,407.127,273.5482,387.5938,262.3292 M,0,69032,69089,387.5938,262.3292,365.8236,256.6914
Sprite,Background,Centre,"sb/highlight.png",0,0 S,2,69320,69750,1,0.2 F,2,69320,69750,1,0 P,0,69320,69750,A C,0,69320,,128,0,255 M,0,69320,69377,303,203,291.0272,222.1412 M,0,69377,69435,291.0272,222.1412,283.8007,243.5 M,0,69435,69493,283.8007,243.5,282.0852,266.0309 M,0,69493,69550,282.0852,266.0309,286.5696,288.1533
Sprite,Background,Centre,"sb/highlight.png",0,0 S,2,69782,70212,1,0.2 F,2,69782,70212,1,0 P,0,69782,70212,A C,0,69782,,128,0,255 M,0,69782,69839,274,369,296.5744,369.4445 M,0,69839,69897,296.5744,369.4445,318.6157,364.6918 M,0,69897,69955,318.6157,364.6918,338.8403,354.6287 M,0,69955,70012,338.8403,354.6287,355.5949,339.5041
Sprite,Background,Centre,"sb/highlight.png",0,0 S,2,70243,70904,1,0.2 F,2,70243,70904,1,0 P,0,70243,70904,A C,0,70243,,255,128,255 M,0,70243,70300,448,302,470.5481,300.8442 M,0,70300,70358,470.5481,300.8442,492.6859,305.0618 M,0,70358,70416,492.6859,305.0618,513.0518,314.7519 M,0,70416,70473,513.0518,314.7519,530.3224,329.2981 M,0,70473,70531,530.3224,329.2981,543.0364,347.9439 M,0,70531,70589,543.0364,347.9439,550.8134,369.0862 M,0,70589,70646,550.8134,369.0862,552.9883,391.5172 M,0,70646,70704,552.9883,391.5172,549.4132,413.7861
Sprite,Background,Centre,"sb/highlight.png",0,0 S,2,70936,71366,1,0.2 F,2,70936,71366,1,0 P,0,70936,71366,A C,0,70936,,255,128,255 M,0,70936,70993,469,387,446.3306,386.0932 M,0,70993,71051,446.3306,386.0932,423.6613,385.1865 M,0,71051,71109,423.6613,385.1865,400.9919,384.2797 M,0,71109,71166,400.9919,384.2797,378.3225,383.3729
Sprite,Background,Centre,"sb/highlight.png",298,402 S,2,71397,71597,1,0.2 F,2,71397,71597,1,0 P,0,71397,71597,A C,0,71397,,255,128,255
Sprite,Background,Centre,"sb/highlight.png",239,344 S,2,71628,71828,1,0.2 F,2,71628,71828,1,0 P,0,71628,71828,A C,0,71628,,255,128,255
Sprite,Background,Centre,"sb/highlight.png",0,0 S,2,71859,72520,1,0.2 F,2,71859,72520,1,0 P,0,71859,72520,A C,0,71859,,92,84,190 M,0,71859,71916,177,397,195.1217,383.4999 M,0,71916,71974,195.1217,383.4999,207.0954,364.4265 M,0,71974,72032,207.0954,364.4265,210.5759,342.1366 M,0,72032,72089,210.5759,342.1366,207.3174,319.737 M,0,72089,72147,207.3174,319.737,189.4136,308.6904 M,0,72147,72205,189.4136,308.6904,166.9747,306.0889 M,0,72205,72262,166.9747,306.0889,145.0432,311.3803 M,0,72262,72320,145.0432,311.3803,126.0328,323.6134
Sprite,Background,Centre,"sb/highlight.png",0,0 S,2,72551,72981,1,0.2 F,2,72551,72981,1,0 P,0,72551,72981,A C,0,72551,,92,84,190 M,0,72551,72608,192,261,200.1094,239.8163 M,0,72608,72666,200.1094,239.8163,207.1516,218.2564 M,0,72666,72724,207.1516,218.2564,213.0372,196.3519 M,0,72724,72781,213.0372,196.3519,217.7493,174.1646
Sprite,Background,Centre,"sb/highlight.png",305,198 S,2,73013,73213,1,0.2 F,2,73013,73213,1,0 P,0,73013,73213,A C,0,73013,,92,84,190
Sprite,Background,Centre,"sb/highlight.png",217,174 S,2,73243,73443,1,0.2 F,2,73243,73443,1,0 P,0,73243,73443,A C,0,73243,,92,84,190
Sprite,Background,Centre,"sb/highlight.png",239,86 S,2,73474,73674,1,0.2 F,2,73474,73674,1,0 P,0,73474,73674,A C,0,73474,,92,84,190
Sprite,Background,Centre,"sb/highlight.png",327,110 S,2,73704,73904,1,0.2 F,2,73704,73904,1,0 P,0,73704,73904,A C,0,73704,,92,84,190
Sprite,Background,Centre,"sb/highlight.png",305,198 S,2,73936,74136,1,0.2 F,2,73936,74136,1,0 P,0,73936,74136,A C,0,73936,,207,101,168
Sprite,Background,Centre,"sb/highlight.png",483,227 S,2,74397,74597,1,0.2 F,2,74397,74597,1,0 P,0,74397,74597,A C,0,74397,,207,101,168
Sprite,Background,Centre,"sb/highlight.png",0,0 S,2,74628,75289,1,0.2 F,2,74628,75289,1,0 P,0,74628,75289,A C,0,74628,,207,101,168 M,0,74628,74685,424,170,411.0841,188.5012 M,0,74685,74743,411.0841,188.5012,403.2519,209.612 M,0,74743,74801,403.2519,209.612,401.3684,232.0706 M,0,74801,74858,401.3684,232.0706,405.5858,254.2413 M,0,74858,74916,405.5858,254.2413,415.9532,274.2702 M,0,74916,74974,415.9532,274.2702,431.1022,290.9158 M,0,74974,75031,431.1022,290.9158,450.1705,302.8937 M,0,75031,75089,450.1705,302.8937,471.7737,309.3231
Sprite,Background,Centre,"sb/highlight.png",0,0 S,2,75320,75750,1,0.2 F,2,75320,75750,1,0 P,0,75320,75750,A C,0,75320,,207,101,168 M,0,75320,75377,483,227,496.8685,209.2337 M,0,75377,75435,496.8685,209.2337,505.2781,188.3843 M,0,75435,75493,505.2781,188.3843,507.1874,165.9608 M,0,75493,75550,507.1874,165.9608,502.4918,143.8937
Sprite,Background,Centre,"sb/highlight.png",0,0 S,2,75782,76328,1,0.2 F,2,75782,76328,1,0 P,0,75782,76328,A C,0,75782,,128,0,255 M,0,75782,75839,424,170,401.3682,168.4118 M,0,75839,75897,401.3682,168.4118,378.7363,166.8236 M,0,75897,75955,378.7363,166.8236,356.1045,165.2354 M,0,75955,76012,356.1045,165.2354,333.4726,163.6472 M,0,76012,76070,333.4726,163.6472,310.8408,162.059 M,0,76070,76128,310.8408,162.059,288.2089,160.4708
Sprite,Background,Centre,"sb/highlight.png",0,0 S,2,76243,76673,1,0.2 F,2,76243,76673,1,0 P,0,76243,76673,A C,0,76243,,128,0,255 M,0,76243,76300,283,160,261.8449,167.7192 M,0,76300,76358,261.8449,167.7192,243.7587,181.0697 M,0,76358,76416,243.7587,181.0697,230.5221,199.3427 M,0,76416,76473,230.5221,199.3427,224.2183,220.9598
Sprite,Background,Centre,"sb/highlight.png",0,0 S,2,76705,77135,1,0.2 F,2,76705,77135,1,0 P,0,76705,77135,A C,0,76705,,128,0,255 M,0,76705,76762,165,279,182.178,293.5465 M,0,76762,76820,182.178,293.5465,202.7987,302.4669 M,0,76820,76878,202.7987,302.4669,225.2596,304.5236 M,0,76878,76935,225.2596,304.5236,247.0015,298.7046
Sprite,Background,Centre,"sb/highlight.png",0,0 S,2,77166,77596,1,0.2 F,2,77166,77596,1,0 P,0,77166,77596,A C,0,77166,,128,0,255 M,0,77166,77223,327,316,330.6541,293.7757 M,0,77223,77281,330.6541,293.7757,327.9629,271.4525 M,0,77281,77339,327.9629,271.4525,318.6622,250.8893 M,0,77339,77396,318.6622,250.8893,303.0648,234.6425
Sprite,Background,Centre,"sb/highlight.png",0,0 S,2,77628,78289,1,0.2 F,2,77628,78289,1,0 P,0,77628,78289,A C,0,77628,,255,128,255 M,0,77628,77685,223,220,202.5648,210.6104 M,0,77685,77743,202.5648,210.6104,180.0621,210.8024 M,0,77743,77801,180.0621,210.8024,159.6873,220.4261 M,0,77801,77858,159.6873,220.4261,142.5502,235.2701 M,0,77858,77916,142.5502,235.2701,124.7788,249.3151 M,0,77916,77974,124.7788,249.3151,103.9596,258.0886 M,0,77974,78031,103.9596,258.0886,81.44769,260.1919 M,0,78031,78089,81.44769,260.1919,59.13567,256.4084
Sprite,Background,Centre,"sb/highlight.png",0,0 S,2,78320,78750,1,0.2 F,2,78320,78750,1,0 P,0,78320,78750,A C,0,78320,,255,128,255 M,0,78320,78377,84,178,83.19025,155.327 M,0,78377,78435,83.19025,155.327,82.38049,132.6539 M,0,78435,78493,82.38049,132.6539,92.464,116.2076 M,0,78493,78550,92.464,116.2076,114.8076,116.3858
Sprite,Background,Centre,"sb/highlight.png",181,67 S,2,78782,78982,1,0.2 F,2,78782,78982,1,0 P,0,78782,78982,A C,0,78782,,255,128,255
Sprite,Background,Centre,"sb/highlight.png",222,137 S,2,79013,79213,1,0.2 F,2,79013,79213,1,0 P,0,79013,79213,A C,0,79013,,255,128,255
Sprite,Background,Centre,"sb/highlight.png",0,0 S,2,79243,79904,1,0.2 F,2,79243,79904,1,0 P,0,79243,79904,A C,0,79243,,92,84,190 M,0,79243,79300,288,90,309.5233,82.82558 M,0,79300,79358,309.5233,82.82558,331.0465,75.65117 M,0,79358,79416,331.0465,75.65117,339.3728,82.82732 M,0,79416,79473,339.3728,82.82732,334.023,104.875 M,0,79473,79531,334.023,104.875,328.6732,126.9228 M,0,79531,79589,328.6732,126.9228,323.3233,148.9705 M,0,79589,79646,323.3233,148.9705,317.9735,171.0182 M,0,79646,79704,317.9735,171.0182,312.6237,193.0659
Sprite,Background,Centre,"sb/highlight.png",0,0 S,2,79936,80366,1,0.2 F,2,79936,80366,1,0 P,0,79936,80366,A C,0,79936,,92,84,190 M,0,79936,79993,273,265,294.4493,271.9995 M,0,79993,80051,294.4493,271.9995,316.9331,273.6108 M,0,80051,80109,316.9331,273.6108,338.9583,268.8094 M,0,80109,80166,338.9583,268.8094,359.0363,258.6375
Sprite,Background,Centre,"sb/highlight.png",0,0 S,2,80397,80827,1,0.2 F,2,80397,80827,1,0 P,0,80397,80827,A C,0,80397,,92,84,190 M,0,80397,80454,397,186,418.4493,179.0005 M,0,80454,80512,418.4493,179.0005,440.9331,177.3891 M,0,80512,80570,440.9331,177.3891,462.9583,182.1906 M,0,80570,80627,462.9583,182.1906,483.0363,192.3625
Sprite,Background,Centre,"sb/highlight.png",0,0 S,2,80859,81289,1,0.2 F,2,80859,81289,1,0 P,0,80859,81289,A C,0,80859,,92,84,190 M,0,80859,80916,508,270,499.5487,291.0403 M,0,80916,80974,499.5487,291.0403,492.8827,312.7071 M,0,80974,81032,492.8827,312.7071,488.1725,334.8835 M,0,81032,81089,488.1725,334.8835,485.4556,357.3943
Sprite,Background,Centre,"sb/highlight.png",547,410 S,2,81320,81520,1,0.2 F,2,81320,81520,1,0 P,0,81320,81520,A C,0,81320,,207,101,168
Sprite,Background,Centre,"sb/highlight.png",0,0 S,2,81551,81981,1,0.2 F,2,81551,81981,1,0 P,0,81551,81981,A C,0,81551,,207,101,168 M,0,81551,81608,485,357,465.3321,345.6909 M,0,81608,81666,465.3321,345.6909,445.6641,334.3819 M,0,81666,81724,445.6641,334.3819,426.2025,345.2785 M,0,81724,81781,426.2025,345.2785,406.7482,356.9511
Sprite,Background,Centre,"sb/highlight.png",0,0 S,2,82013,82674,1,0.2 F,2,82013,82674,1,0 P,0,82013,82674,A C,0,82013,,207,101,168 M,0,82013,82070,347,413,324.7347,415.9685 M,0,82070,82128,324.7347,415.9685,302.8052,411.4372 M,0,82128,82186,302.8052,411.4372,283.8257,399.4157 M,0,82186,82243,283.8257,399.4157,270.8578,381.1008 M,0,82243,82301,270.8578,381.1008,264.8683,359.5528 M,0,82301,82359,264.8683,359.5528,266.8737,337.2279 M,0,82359,82416,266.8737,337.2279,276.6719,316.9719 M,0,82416,82474,276.6719,316.9719,293.4698,302.0747
Sprite,Background,Centre,"sb/highlight.png",0,0 S,2,82705,83135,1,0.2 F,2,82705,83135,1,0 P,0,82705,83135,A C,0,82705,,207,101,168 M,0,82705,82762,341,235,363.0721,239.5942 M,0,82762,82820,363.0721,239.5942,385.514,238.0923 M,0,82820,82878,385.514,238.0923,406.6072,230.2109 M,0,82878,82935,406.6072,230.2109,424.5847,216.5891
Sprite,Background,Centre,"sb/highlight.png",0,0 S,2,83166,83712,1,0.2 F,2,83166,83712,1,0 P,0,83166,83712,A C,0,83166,,128,0,255 M,0,83166,83223,479,276,473.3932,254.035 M,0,83223,83281,473.3932,254.035,471.4004,231.4683 M,0,83281,83339,471.4004,231.4683,474.1922,209.0065 M,0,83339,83396,474.1922,209.0065,482.4688,187.9512 M,0,83396,83454,482.4688,187.9512,485.4919,208.3249 M,0,83454,83512,485.4919,208.3249,495.0908,228.8092
Sprite,Background,Centre,"sb/highlight.png",0,0 S,2,83628,84058,1,0.2 F,2,83628,84058,1,0 P,0,83628,84058,A C,0,83628,,128,0,255 M,0,83628,83685,536,233,545.5305,253.4177 M,0,83685,83743,545.5305,253.4177,549.1458,275.6193 M,0,83743,83801,549.1458,275.6193,546.1116,297.9808 M,0,83801,83858,546.1116,297.9808,536.0417,318.1332
Sprite,Background,Centre,"sb/highlight.png",0,0 S,2,84090,84520,1,0.2 F,2,84090,84520,1,0 P,0,84090,84520,A C,0,84090,,128,0,255 M,0,84090,84147,482,380,461.5823,389.5305 M,0,84147,84205,461.5823,389.5305,439.3807,393.1458 M,0,84205,84263,439.3807,393.1458,417.0192,390.1116 M,0,84263,84320,417.0192,390.1116,396.8668,380.0418
Sprite,Background,Centre,"sb/highlight.png",0,0 S,2,84551,84981,1,0.2 F,2,84551,84981,1,0 P,0,84551,84981,A C,0,84551,,128,0,255 M,0,84551,84608,341,320,331.4695,299.5823 M,0,84608,84666,331.4695,299.5823,327.8542,277.3807 M,0,84666,84724,327.8542,277.3807,330.8884,255.0192 M,0,84724,84781,330.8884,255.0192,340.9582,234.8668
Sprite,Background,Centre,"sb/highlight.png",0,0 S,2,85013,85674,1,0.2 F,2,85013,85674,1,0 P,0,85013,85674,A C,0,85013,,255,128,255 M,0,85013,85070,366,156,357.0002,135.3232 M,0,85070,85128,357.0002,135.3232,342.8709,117.8162 M,0,85128,85186,342.8709,117.8162,324.3531,105.0074 M,0,85186,85243,324.3531,105.0074,302.9426,97.94859 M,0,85243,85301,302.9426,97.94859,280.3725,97.23199 M,0,85301,85359,280.3725,97.23199,258.688,103.4052 M,0,85359,85416,258.688,103.4052,239.4927,115.1298 M,0,85416,85474,239.4927,115.1298,224.2048,131.7066
Sprite,Background,Centre,"sb/highlight.png",0,0 S,2,85705,86135,1,0.2 F,2,85705,86135,1,0 P,0,85705,86135,A C,0,85705,,255,128,255 M,0,85705,85762,155,175,162.7129,196.3086 M,0,85762,85820,162.7129,196.3086,168.0142,218.3367 M,0,85820,85878,168.0142,218.3367,170.4074,240.8673 M,0,85878,85935,170.4074,240.8673,170.1792,263.5162
Sprite,Background,Centre,"sb/highlight.png",108,317 S,2,86166,86366,1,0.2 F,2,86166,86366,1,0 P,0,86166,86366,A C,0,86166,,255,128,255
Sprite,Background,Centre,"sb/highlight.png",182,350 S,2,86397,86597,1,0.2 F,2,86397,86597,1,0 P,0,86397,86597,A C,0,86397,,255,128,255
Sprite,Background,Centre,"sb/highlight.png",0,0 S,2,86628,87289,1,0.2 F,2,86628,87289,1,0 P,0,86628,87289,A C,0,86628,,92,84,190 M,0,86628,86685,116,398,131.7403,414.1564 M,0,86685,86743,131.7403,414.1564,151.0522,425.7239 M,0,86743,86801,151.0522,425.7239,172.8228,431.5754 M,0,86801,86858,172.8228,431.5754,195.4118,431.2451 M,0,86858,86916,195.4118,431.2451,216.8371,424.1996 M,0,86916,86974,216.8371,424.1996,235.6935,411.9092 M,0,86974,87031,235.6935,411.9092,250.4882,394.9066 M,0,87031,87089,250.4882,394.9066,260.111,374.468
Sprite,Background,Centre,"sb/highlight.png",0,0 S,2,87320,87750,1,0.2 F,2,87320,87750,1,0 P,0,87320,87750,A C,0,87320,,92,84,190 M,0,87320,87377,282,295,290.7164,274.2538 M,0,87377,87435,290.7164,274.2538,305.2006,257.1039 M,0,87435,87493,305.2006,257.1039,324.469,245.461 M,0,87493,87550,324.469,245.461,346.5544,241.2267
Sprite,Background,Centre,"sb/highlight.png",359,159 S,2,87782,87982,1,0.2 F,2,87782,87982,1,0 P,0,87782,87982,A C,0,87782,,92,84,190
Sprite,Background,Centre,"sb/highlight.png",294,104 S,2,88012,88212,1,0.2 F,2,88012,88212,1,0 P,0,88012,88212,A C,0,88012,,92,84,190
Sprite,Background,Centre,"sb/highlight.png",0,0 S,2,88243,88673,1,0.2 F,2,88243,88673,1,0 P,0,88243,88673,A C,0,88243,,92,84,190 M,0,88243,88300,361,57,383.1233,51.97197 M,0,88300,88358,383.1233,51.97197,405.2024,47.15177 M,0,88358,88416,405.2024,47.15177,423.3524,60.76427 M,0,88416,88473,423.3524,60.76427,441.5023,74.37677
//Storyboard Layer 1 (Fail)
//Storyboard Layer 2 (Pass)
//Storyboard Layer 3 (Foreground)
//Storyboard Sound Samples

[TimingPoints]
90,461.538461538462,4,2,1,65,1,0
14859,-100,4,2,1,75,0,0
43474,-100,4,2,1,70,0,0
44397,-125,4,2,2,80,0,0
57320,-200,4,2,2,70,0,0
59166,-90.9090909090909,4,2,3,95,0,1
59397,-90.9090909090909,4,2,4,95,0,1
59859,-90.9090909090909,4,2,5,95,0,1
60320,-90.9090909090909,4,2,6,95,0,1
60551,-90.9090909090909,4,2,5,95,0,1
60782,-90.9090909090909,4,2,3,95,0,1
61013,-90.9090909090909,4,2,1,95,0,1
61359,-90.9090909090909,4,2,1,5,0,1
61474,-90.9090909090909,4,2,7,95,0,1
61551,-90.9090909090909,4,2,1,95,0,1
61936,-90.9090909090909,4,2,4,95,0,1
62013,-90.9090909090909,4,2,1,95,0,1
62397,-90.9090909090909,4,2,3,95,0,1
62474,-90.9090909090909,4,2,1,95,0,1
62859,-90.9090909090909,4,2,3,95,0,1
63551,-90.9090909090909,4,2,5,95,0,1
64013,-90.9090909090909,4,2,6,95,0,1
64243,-90.9090909090909,4,2,5,95,0,1
64474,-90.9090909090909,4,2,3,95,0,1
64936,-90.9090909090909,4,2,1,95,0,1
65166,-90.9090909090909,4,2,7,95,0,1
65628,-90.9090909090909,4,2,4,95,0,1
66090,-90.9090909090909,4,2,3,95,0,1
66782,-90.9090909090909,4,2,4,95,0,1
67244,-90.9090909090909,4,2,5,95,0,1
67705,-90.9090909090909,4,2,6,95,0,1
67936,-90.9090909090909,4,2,5,95,0,1
68167,-90.9090909090909,4,2,3,95,0,1
68398,-90.9090909090909,4,2,1,95,0,1
68743,-90.9090909090909,4,2,1,5,0,1
68859,-90.9090909090909,4,2,7,95,0,1
68936,-90.9090909090909,4,2,1,95,0,1
69321,-90.9090909090909,4,2,4,95,0,1
69398,-90.9090909090909,4,2,1,95,0,1
69782,-90.9090909090909,4,2,3,95,0,1
69859,-90.9090909090909,4,2,1,95,0,1
70244,-90.9090909090909,4,2,3,95,0,1
70936,-90.9090909090909,4,2,5,95,0,1
71398,-90.9090909090909,4,2,6,95,0,1
71628,-90.9090909090909,4,2,5,95,0,1
71859,-90.9090909090909,4,2,3,95,0,1
72321,-90.9090909090909,4,2,1,95,0,1
72551,-90.9090909090909,4,2,5,95,0,1
72782,-90.9090909090909,4,2,6,95,0,1
73013,-90.9090909090909,4,2,5,95,0,1
73243,-90.9090909090909,4,2,3,95,0,1
73474,-90.9090909090909,4,2,4,95,0,1
73936,-90.9090909090909,4,2,3,95,0,1
74167,-90.9090909090909,4,2,4,95,0,1
74629,-90.9090909090909,4,2,5,95,0,1
75090,-90.9090909090909,4,2,6,95,0,1
75321,-90.9090909090909,4,2,5,95,0,1
75552,-90.9090909090909,4,2,3,95,0,1
75783,-90.9090909090909,4,2,1,95,0,1
76128,-90.9090909090909,4,2,1,5,0,1
76243,-90.9090909090909,4,2,7,95,0,1
76706,-90.9090909090909,4,2,4,95,0,1
77167,-90.9090909090909,4,2,3,95,0,1
78321,-90.9090909090909,4,2,5,95,0,1
78783,-90.9090909090909,4,2,6,95,0,1
79013,-90.9090909090909,4,2,5,95,0,1
79244,-90.9090909090909,4,2,3,95,0,1
79706,-90.9090909090909,4,2,1,95,0,1
79936,-90.9090909090909,4,2,7,95,0,1
80398,-90.9090909090909,4,2,4,95,0,1
80860,-90.9090909090909,4,2,3,95,0,1
81552,-90.9090909090909,4,2,4,95,0,1
82014,-90.9090909090909,4,2,5,95,0,1
82475,-90.9090909090909,4,2,6,95,0,1
82706,-90.9090909090909,4,2,5,95,0,1
82937,-90.9090909090909,4,2,3,95,0,1
83168,-90.9090909090909,4,2,1,95,0,1
83512,-90.9090909090909,4,2,1,5,0,1
83628,-90.9090909090909,4,2,7,95,0,1
84091,-90.9090909090909,4,2,4,95,0,1
84552,-90.9090909090909,4,2,3,95,0,1
85706,-90.9090909090909,4,2,5,95,0,1
86168,-90.9090909090909,4,2,6,95,0,1
86398,-90.9090909090909,4,2,5,95,0,1
86629,-90.9090909090909,4,2,3,95,0,1
87091,-90.9090909090909,4,2,1,95,0,1
87321,-90.9090909090909,4,2,5,95,0,1
87552,-90.9090909090909,4,2,6,95,0,1
87783,-90.9090909090909,4,2,5,95,0,1
88013,-90.9090909090909,4,2,3,95,0,1
88244,-90.9090909090909,4,2,4,95,0,1
88705,-125,4,2,1,70,0,0
103474,-125,4,2,3,60,0,0
118243,-125,4,2,2,80,0,0
131166,-200,4,2,2,70,0,0
133013,-90.9090909090909,4,2,3,95,0,1
133243,-90.9090909090909,4,2,4,95,0,1
133705,-90.9090909090909,4,2,7,95,0,1
134166,-90.9090909090909,4,2,6,95,0,1
134397,-90.9090909090909,4,2,5,95,0,1
134628,-90.9090909090909,4,2,3,95,0,1
135205,-90.9090909090909,4,2,3,5,0,1
135320,-90.9090909090909,4,2,7,95,0,1
135397,-90.9090909090909,4,2,1,95,0,1
135782,-90.9090909090909,4,2,4,95,0,1
135859,-90.9090909090909,4,2,1,95,0,1
136243,-90.9090909090909,4,2,3,95,0,1
136320,-90.9090909090909,4,2,1,95,0,1
136705,-90.9090909090909,4,2,3,95,0,1
137397,-90.9090909090909,4,2,5,95,0,1
137859,-90.9090909090909,4,2,6,95,0,1
138090,-90.9090909090909,4,2,5,95,0,1
138320,-90.9090909090909,4,2,3,95,0,1
138782,-90.9090909090909,4,2,1,95,0,1
139013,-90.9090909090909,4,2,7,95,0,1
139474,-90.9090909090909,4,2,4,95,0,1
139936,-90.9090909090909,4,2,3,95,0,1
140628,-90.9090909090909,4,2,4,95,0,1
141090,-90.9090909090909,4,2,7,95,0,1
141551,-90.9090909090909,4,2,6,95,0,1
141782,-90.9090909090909,4,2,5,95,0,1
142013,-90.9090909090909,4,2,3,95,0,1
142589,-90.9090909090909,4,2,3,5,0,1
142705,-90.9090909090909,4,2,7,95,0,1
142782,-90.9090909090909,4,2,1,95,0,1
143167,-90.9090909090909,4,2,4,95,0,1
143244,-90.9090909090909,4,2,1,95,0,1
143628,-90.9090909090909,4,2,3,95,0,1
143705,-90.9090909090909,4,2,1,95,0,1
144090,-90.9090909090909,4,2,3,95,0,1
144782,-90.9090909090909,4,2,5,95,0,1
145244,-90.9090909090909,4,2,6,95,0,1
145475,-90.9090909090909,4,2,5,95,0,1
145705,-90.9090909090909,4,2,3,95,0,1
146167,-90.9090909090909,4,2,1,95,0,1
146398,-90.9090909090909,4,2,5,95,0,1
146628,-90.9090909090909,4,2,6,95,0,1
146859,-90.9090909090909,4,2,5,95,0,1
147090,-90.9090909090909,4,2,3,95,0,1
147320,-90.9090909090909,4,2,4,95,0,1
147783,-90.9090909090909,4,2,3,95,0,1
148013,-90.9090909090909,4,2,4,95,0,1
148475,-90.9090909090909,4,2,7,95,0,1
148936,-90.9090909090909,4,2,6,95,0,1
149167,-90.9090909090909,4,2,5,95,0,1
149398,-90.9090909090909,4,2,3,95,0,1
149974,-90.9090909090909,4,2,3,5,0,1
150090,-90.9090909090909,4,2,7,95,0,1
150552,-90.9090909090909,4,2,4,95,0,1
151013,-90.9090909090909,4,2,3,95,0,1
152167,-90.9090909090909,4,2,5,95,0,1
152629,-90.9090909090909,4,2,6,95,0,1
152860,-90.9090909090909,4,2,5,95,0,1
153090,-90.9090909090909,4,2,3,95,0,1
153552,-90.9090909090909,4,2,1,95,0,1
153783,-90.9090909090909,4,2,7,95,0,1
154244,-90.9090909090909,4,2,4,95,0,1
154706,-90.9090909090909,4,2,3,95,0,1
155398,-90.9090909090909,4,2,4,95,0,1
155860,-90.9090909090909,4,2,7,95,0,1
156321,-90.9090909090909,4,2,6,95,0,1
156552,-90.9090909090909,4,2,5,95,0,1
156783,-90.9090909090909,4,2,3,95,0,1
157359,-90.9090909090909,4,2,3,5,0,1
157474,-90.9090909090909,4,2,7,95,0,1
157937,-90.9090909090909,4,2,4,95,0,1
158398,-90.9090909090909,4,2,3,95,0,1
159552,-90.9090909090909,4,2,5,95,0,1
160014,-90.9090909090909,4,2,6,95,0,1
160245,-90.9090909090909,4,2,5,95,0,1
160475,-90.9090909090909,4,2,3,95,0,1
160937,-90.9090909090909,4,2,1,95,0,1
161168,-90.9090909090909,4,2,5,95,0,1
161398,-90.9090909090909,4,2,6,95,0,1
161629,-90.9090909090909,4,2,5,95,0,1
161860,-90.9090909090909,4,2,3,95,0,1
162090,-90.9090909090909,4,2,4,95,0,1
162551,-142.857142857143,4,2,1,50,0,0
177090,-250.000000000001,4,2,1,50,0,0
178013,-250.000000000001,4,2,1,5,0,0

[Colours]
Combo1 : 128,0,255
Combo2 : 255,128,255
Combo3 : 92,84,190
Combo4 : 207,101,168

[HitObjects]
69,114,90,6,0,P|121:88|151:95,1,82.5,4|0,3:2|0:0,0:0:0:0:
205,145,551,2,0,L|194:312,1,165,10|2,0:2|3:2,0:0:0:0:
317,309,1474,2,0,L|307:145,1,165,10|0,0:2|3:0,0:0:0:0:
369,91,2166,1,0,0:0:0:0:
369,91,2397,2,0,P|409:90|443:114,1,82.5,8|0,0:0|0:0,0:0:0:0:
450,196,2859,2,0,P|459:131|506:35,1,165,0|10,3:0|0:0,0:0:0:0:
337,18,3782,6,0,P|294:47|297:88,1,82.5,2|0,3:0|0:0,0:0:0:0:
236,135,4243,2,0,B|170:124|170:124|142:131|142:131|62:115,1,165,10|2,0:2|3:2,0:0:0:0:
25,50,4936,2,0,P|-4:84|-8:128,1,82.5,0|10,0:0|0:2,0:0:0:0:
7,201,5397,2,0,B|44:170|99:203|97:266|53:316,1,165,2|0,0:0|0:0,0:0:0:0:
5,351,6090,2,0,P|49:376|91:373,1,82.5,8|0,0:0|0:0,0:0:0:0:
147,328,6551,1,0,3:0:0:0:
256,356,6782,6,0,B|292:368|292:368|331:348,1,82.5,2|8,0:0|0:0,0:0:0:0:
284,284,7243,1,2,0:0:0:0:
397,262,7474,6,0,L|383:165,1,82.5,4|0,3:2|0:0,0:0:0:0:
460,214,7936,2,0,L|446:117,1,82.5,10|0,0:2|0:0,0:0:0:0:
481,56,8397,2,0,P|430:51|384:83,1,82.5,2|0,3:2|0:0,0:0:0:0:
336,114,8859,2,0,P|285:119|239:87,1,82.5,10|0,0:2|0:0,0:0:0:0:
183,69,9320,6,0,L|91:76,1,82.5,0|0,3:0|0:0,0:0:0:0:
25,39,9782,1,8,0:0:0:0:
25,39,10013,1,0,0:0:0:0:
8,119,10243,2,0,B|62:124|76:182|59:223|59:223|55:194|34:178,1,165,0|10,3:0|0:0,0:0:0:0:
145,329,11166,6,0,P|155:296|136:246,1,82.5,2|0,3:3|0:0,0:0:0:0:
222,239,11628,2,0,P|212:206|231:156,1,82.5,10|0,0:2|0:0,0:0:0:0:
190,91,12090,1,2,3:2:0:0:
190,91,12320,2,0,P|223:81|273:100,1,82.5,0|10,0:0|0:2,0:0:0:0:
309,23,12782,6,0,P|300:85|387:149,1,165
445,114,13474,2,0,B|456:158|456:158|428:223,1,82.5,8|0,0:0|0:0,0:0:0:0:
374,241,13936,1,0,3:0:0:0:
449,273,14166,1,8,0:1:0:0:
421,351,14398,1,8,0:0:0:0:
346,319,14628,1,4,0:3:0:0:
289,246,14859,6,0,P|233:235|185:336,1,165,4|10,3:2|0:2,0:0:0:0:
98,358,15551,2,0,P|51:349|8:352,1,82.5,0|2,0:0|3:2,0:0:0:0:
48,263,16013,2,0,P|57:216|54:173,1,82.5,0|10,0:0|0:2,0:0:0:0:
142,208,16474,2,0,P|189:217|232:214,1,82.5,0|0,0:0|3:0,0:0:0:0:
272,139,16936,5,0,0:0:0:0:
272,139,17166,2,0,P|278:89|306:51,1,82.5,8|0,0:0|0:0,0:0:0:0:
385,64,17628,2,0,P|404:99|407:140,1,82.5,0|0,3:0|0:0,0:0:0:0:
340,203,18090,1,8,0:0:0:0:
178,61,18551,6,0,B|143:86|142:130|142:130|99:108|57:124,1,165,2|10,3:0|0:2,0:0:0:0:
27,207,19243,1,0,0:0:0:0:
27,207,19474,2,0,P|23:253|56:291,1,82.5,2|0,3:2|0:0,0:0:0:0:
95,356,19936,1,10,0:2:0:0:
172,309,20166,6,0,B|264:290|253:354|335:338,1,165,2|0,0:0|0:0,0:0:0:0:
404,287,20859,1,8,0:0:0:0:
404,287,21090,2,0,P|455:291|484:266,1,82.5,0|0,0:0|3:0,0:0:0:0:
457,185,21551,2,0,P|406:181|377:206,1,82.5,4|8,0:3|0:0,0:0:0:0:
312,256,22013,1,0,0:0:0:0:
241,198,22243,6,0,P|314:162|382:198,1,165,4|10,3:2|0:2,0:0:0:0:
312,256,22936,2,0,L|312:348,1,82.5,0|2,0:0|3:2,0:0:0:0:
229,377,23397,2,0,L|229:294,1,82.5,0|10,0:0|0:2,0:0:0:0:
160,236,23859,6,0,P|123:170|179:101,1,165
256,160,24551,2,0,L|256:74,1,82.5,8|0,0:0|0:0,0:0:0:0:
342,103,25013,2,0,P|388:166|352:236,1,165,0|8,3:0|0:0,0:0:0:0:
197,316,25936,6,0,P|146:334|127:368,1,82.5,2|0,3:0|0:0,0:0:0:0:
44,329,26397,2,0,P|39:288|12:258,1,82.5,10|0,0:2|0:0,0:0:0:0:
113,258,26859,2,0,L|140:174,2,82.5,2|0|10,3:2|0:0|0:2,0:0:0:0:
54,188,27551,6,0,B|10:170|12:121|12:121|62:92|96:127,1,165
116,32,28243,2,0,P|155:50|194:43,1,82.5,8|0,0:0|0:0,0:0:0:0:
256,108,28705,2,0,B|256:139|256:139|260:143|260:143|252:143|252:143|256:147|256:147|256:179,1,82.5,0|0,3:0|0:0,0:0:0:0:
316,248,29166,2,0,P|356:241|392:259,1,82.5,8|0,0:0|0:0,0:0:0:0:
444,336,29628,5,6,0:2:0:0:
156,136,43474,5,8,0:3:0:0:
156,136,43936,1,8,0:3:0:0:
104,76,44397,6,0,P|148:56|219:86,1,99,12|8,3:2|0:1,0:0:0:0:
201,70,44859,2,0,L|274:67,1,66,8|8,0:0|0:1,0:0:0:0:
318,127,45320,2,0,L|391:130,1,66,8|2,0:0|0:0,0:0:0:0:
445,79,45782,1,10,0:0:0:0:
445,79,46013,1,2,0:0:0:0:
461,156,46243,6,0,P|422:167|392:232,1,99,10|8,0:2|0:1,0:0:0:0:
396,223,46705,2,0,L|393:298,1,66,8|8,0:0|0:1,0:0:0:0:
319,317,47166,2,0,L|316:251,1,66,8|2,0:0|0:0,0:0:0:0:
254,201,47628,2,0,P|238:231|237:268,1,66,10|2,0:0|0:0,0:0:0:0:
152,317,48090,6,0,P|107:317|69:272,1,99,10|8,3:2|0:1,0:0:0:0:
75,271,48551,1,8,0:0:0:0:
25,217,48782,2,0,L|25:128,1,66,8|8,0:1|0:0,0:0:0:0:
98,133,49243,1,2,0:0:0:0:
98,133,49474,2,0,L|98:222,1,66,10|2,0:0|0:0,0:0:0:0:
75,271,49936,6,0,P|121:272|172:226,1,99,10|8,3:2|0:1,0:0:0:0:
169,234,50397,1,8,0:0:0:0:
240,245,50628,2,0,P|282:224|292:202,1,66,8|8,0:1|0:0,0:0:0:0:
344,160,51090,1,2,0:0:0:0:
344,160,51320,2,0,P|304:134|278:134,1,66,10|2,0:0|0:0,0:0:0:0:
214,125,51782,6,0,L|138:120,1,66,8|8,3:2|0:2,0:0:0:0:
138,113,52128,1,0,0:0:0:0:
138,113,52243,2,0,L|62:108,1,66,8|8,3:2|0:2,0:0:0:0:
48,32,52705,2,0,L|113:36,1,66,8|8,3:2|0:2,0:0:0:0:
192,48,53166,2,0,L|257:52,1,66,8|8,3:2|0:2,0:0:0:0:
337,52,53628,6,0,P|374:38|406:56,1,66,8|8,3:2|0:2,0:0:0:0:
400,52,53974,1,0,0:0:0:0:
403,57,54090,2,0,L|396:129,1,66,8|8,3:2|0:2,0:0:0:0:
338,177,54551,2,0,L|345:249,1,66,8|8,3:2|0:2,0:0:0:0:
415,279,55013,2,0,L|421:213,1,66,8|8,3:2|0:0,0:0:0:0:
476,155,55474,6,0,P|471:123|474:99,3,33,8|8|8|8,3:2|0:0|3:2|0:0,0:0:0:0:
478,83,55936,2,0,P|476:66|473:50,3,33,8|8|8|8,3:2|0:0|3:2|0:0,0:0:0:0:
449,18,56397,1,8,3:2:0:0:
440,17,56512,1,8,0:2:0:0:
432,16,56627,1,8,3:2:0:0:
424,16,56743,1,8,0:2:0:0:
417,17,56859,6,0,L|365:5,1,33,8|8,3:2|0:0,0:0:0:0:
348,26,57090,2,0,L|296:38,1,33,8|8,3:2|0:0,0:0:0:0:
278,30,57320,6,0,L|289:125,2,82.5,8|8|8,0:3|0:3|0:3,0:0:0:0:
278,30,58705,1,8,0:3:0:0:
49,193,59166,5,6,3:2:0:0:
104,132,59397,2,0,P|132:190|125:220,1,90.7500027694703,2|10,0:0|0:0,0:0:0:0:
73,274,59859,2,0,B|167:238|161:318|252:289,1,181.500005538941,2|2,0:0|0:0,0:0:0:0:
320,254,60551,1,10,0:0:0:0:
398,276,60782,1,2,0:0:0:0:
468,231,61013,6,0,B|426:221|404:173|420:137|452:141|480:172|442:193,1,136.125004154205,0|0,3:0|0:0,0:0:0:0:
407,175,61474,2,0,B|364:168|364:168|357:170|357:170|308:162,1,90.7500027694703,10|2,0:0|0:0,0:0:0:0:
350,68,61936,2,0,B|307:75|307:75|300:73|300:73|251:81,1,90.7500027694703,2|2,3:2|0:0,0:0:0:0:
317,163,62397,2,0,B|274:156|274:156|267:158|267:158|218:150,1,90.7500027694703,10|2,0:0|0:0,0:0:0:0:
151,86,62859,6,0,P|181:156|115:232,1,181.500005538941,2|10,3:2|0:2,0:0:0:0:
48,191,63551,2,0,P|40:249|57:283,1,90.7500027694703,2|0,0:0|3:0,0:0:0:0:
94,347,64013,1,2,0:0:0:0:
165,308,64243,1,10,0:0:0:0:
229,357,64474,6,0,B|298:377|335:274|272:241|226:296|259:313,1,181.500005538941,2|2,0:0|0:0,0:0:0:0:
337,319,65166,2,0,P|367:267|384:213,1,90.7500027694703,10|0,0:0|0:0,0:0:0:0:
390,157,65628,2,0,P|359:105|321:63,1,90.7500027694703,2|0,3:2|0:0,0:0:0:0:
264,51,66090,2,0,P|203:51|148:63,1,90.7500027694703,10|0,0:2|0:0,0:0:0:0:
82,95,66551,5,2,3:2:0:0:
174,45,66782,2,0,P|219:39|265:41,1,90.7500027694703,2|10,0:0|0:0,0:0:0:0:
276,131,67243,2,0,P|293:82|435:56,1,181.500005538941,2|2,0:0|0:0,0:0:0:0:
460,104,67936,2,0,P|447:140|443:204,1,90.7500027694703,10|2,0:0|0:0,0:0:0:0:
502,246,68397,6,0,B|467:221|467:221|429:232|429:232|426:235|426:235|376:250,1,136.125004154205,0|0,3:0|0:0,0:0:0:0:
369,254,68859,2,0,P|334:211|289:200,1,90.7500027694703,10|2,0:0|0:0,0:0:0:0:
239,147,69320,2,0,P|218:200|226:242,1,90.7500027694703,2|2,3:2|0:0,0:0:0:0:
210,313,69782,2,0,P|266:304|298:276,1,90.7500027694703,10|2,0:0|0:0,0:0:0:0:
384,246,70243,6,0,P|445:256|481:370,1,181.500005538941,2|10,3:2|0:2,0:0:0:0:
405,331,70936,2,0,L|305:327,1,90.7500027694703,2|0,0:0|3:0,0:0:0:0:
234,346,71397,1,2,0:0:0:0:
175,288,71628,1,10,0:0:0:0:
113,341,71859,6,0,B|159:316|142:259|142:259|86:232|45:286,1,181.500005538941,2|2,0:0|0:0,0:0:0:0:
128,205,72551,2,0,P|143:163|156:105,1,90.7500027694703,10|2,0:0|0:0,0:0:0:0:
241,142,73013,1,2,3:2:0:0:
153,118,73243,1,2,1:2:0:0:
175,30,73474,1,10,0:2:0:0:
263,54,73704,1,2,0:0:0:0:
241,142,73936,5,2,3:2:0:0:
419,171,74397,1,14,0:0:0:0:
360,114,74628,2,0,P|337:170|429:254,1,181.500005538941,2|2,0:0|0:0,0:0:0:0:
419,171,75320,2,0,P|443:125|436:82,1,90.7500027694703,10|2,0:0|0:0,0:0:0:0:
360,114,75782,6,0,L|189:102,1,136.125004154205,0|0,3:0|0:0,0:0:0:0:
219,104,76243,2,0,P|186:119|159:176,1,90.7500027694703,10|0,0:0|0:0,0:0:0:0:
101,223,76705,2,0,P|130:244|193:238,1,90.7500027694703,2|0,3:2|0:0,0:0:0:0:
263,260,77166,2,0,P|266:223|230:172,1,90.7500027694703,10|0,0:0|0:0,0:0:0:0:
159,164,77628,6,0,B|126:138|70:157|94:191|43:219|-12:198,1,181.500005538941,2|10,3:2|0:2,0:0:0:0:
20,122,78320,2,0,B|18:66|18:66|39:49|73:71,1,90.7500027694703,2|0,0:0|3:0,0:0:0:0:
117,11,78782,1,2,0:0:0:0:
158,81,79013,1,10,0:0:0:0:
224,34,79243,6,0,B|278:16|278:16|245:152,1,181.500005538941,2|2,0:0|0:0,0:0:0:0:
209,209,79936,2,0,P|249:218|305:195,1,90.7500027694703,10|0,0:0|0:0,0:0:0:0:
333,130,80397,2,0,P|373:121|429:144,1,90.7500027694703,2|0,3:2|0:0,0:0:0:0:
444,214,80859,2,0,P|427:264|421:332,1,90.7500027694703,10|0,0:2|0:0,0:0:0:0:
483,354,81320,5,2,3:2:0:0:
421,301,81551,2,0,B|381:278|381:278|326:311,1,90.7500027694703,2|10,0:0|0:0,0:0:0:0:
283,357,82013,2,0,P|231:352|238:241,1,181.500005538941,2|2,0:0|0:0,0:0:0:0:
277,179,82705,2,0,P|333:179|370:149,1,90.7500027694703,10|2,0:0|0:0,0:0:0:0:
415,220,83166,6,0,B|398:168|419:131|419:131|417:156|439:184,1,136.125004154205,0|0,3:0|0:0,0:0:0:0:
472,177,83628,2,0,P|485:228|453:282,1,90.7500027694703,10|0,0:0|0:0,0:0:0:0:
418,324,84090,2,0,P|367:337|313:305,1,90.7500027694703,2|0,3:2|0:0,0:0:0:0:
277,264,84551,2,0,P|264:213|296:159,1,90.7500027694703,10|0,0:0|0:0,0:0:0:0:
302,100,85013,6,0,P|271:55|158:79,1,181.500005538941,2|10,3:2|0:2,0:0:0:0:
91,119,85705,2,0,P|105:168|105:220,1,90.7500027694703,2|0,0:0|3:0,0:0:0:0:
44,261,86166,1,2,0:0:0:0:
118,294,86397,1,10,0:0:0:0:
52,342,86628,6,0,P|111:376|198:311,1,181.500005538941,2|2,0:0|0:0,0:0:0:0:
218,239,87320,2,0,P|242:200|292:185,1,90.7500027694703,10|2,0:0|0:0,0:0:0:0:
295,103,87782,1,2,3:2:0:0:
230,48,88012,1,2,0:0:0:0:
297,1,88243,2,0,B|341:-9|341:-9|381:21,1,90.7500027694703,10|2,0:0|0:0,0:0:0:0:
414,88,88705,6,0,P|404:123|403:159,1,66,4|2,3:1|0:0,0:0:0:0:
445,224,89166,1,2,3:2:0:0:
445,224,89397,2,0,P|390:236|318:171,1,132,2|2,0:0|0:0,0:0:0:0:
249,190,90090,1,2,3:2:0:0:
249,190,90320,2,0,L|175:182,1,66,2|0,0:0|3:0,0:0:0:0:
183,182,92397,6,0,P|193:215|192:254,2,66,2|2|2,3:2|0:0|3:2,0:0:0:0:
108,154,93090,2,0,P|140:115|224:115,1,132,2|2,0:0|0:0,0:0:0:0:
288,145,93782,1,2,3:2:0:0:
288,145,94013,2,0,L|370:135,1,66,2|0,0:0|3:2,0:0:0:0:
486,362,95628,2,0,P|468:331|477:281,1,66,0|0,3:0|3:0,0:0:0:0:
472,222,96090,6,0,L|483:150,1,66,2|2,3:2|0:0,0:0:0:0:
435,92,96551,1,2,3:2:0:0:
484,30,96782,2,0,P|445:14|368:51,1,132,2|2,0:0|0:0,0:0:0:0:
313,107,97474,1,2,3:2:0:0:
238,79,97705,1,2,0:0:0:0:
49,63,99782,6,0,P|34:28|11:6,2,66,2|2|2,3:2|0:0|3:2,0:0:0:0:
109,114,100474,2,0,P|63:162|38:225,1,132,2|2,0:0|0:0,0:0:0:0:
86,292,101166,1,2,3:2:0:0:
158,261,101397,1,2,0:0:0:0:
444,312,118243,6,0,P|408:332|341:312,1,99,12|8,3:2|0:1,0:0:0:0:
346,314,118705,2,0,L|273:318,1,66,8|8,0:0|0:1,0:0:0:0:
219,368,119166,2,0,L|153:364,1,66,8|2,0:0|0:0,0:0:0:0:
98,312,119628,1,10,0:0:0:0:
98,312,119859,1,2,0:0:0:0:
26,347,120090,6,0,P|18:296|60:240,1,99,10|8,3:2|0:1,0:0:0:0:
44,247,120551,2,0,L|45:176,1,66,8|8,0:0|0:1,0:0:0:0:
119,152,121013,2,0,L|118:217,1,66,8|2,0:0|0:0,0:0:0:0:
170,277,121474,2,0,L|235:277,1,66,10|2,0:0|0:0,0:0:0:0:
293,329,121936,6,0,P|310:292|300:234,1,99,10|8,3:2|0:1,0:0:0:0:
294,228,122397,1,8,0:0:0:0:
337,154,122628,2,0,P|386:169|419:162,1,66,8|8,0:1|0:0,0:0:0:0:
469,127,123089,1,2,0:0:0:0:
469,127,123320,2,0,L|454:41,1,66,10|2,0:0|0:0,0:0:0:0:
383,22,123782,6,0,B|358:32|342:53|342:53|323:29|287:19,1,99,10|8,3:2|0:1,0:0:0:0:
294,25,124243,1,8,0:0:0:0:
216,39,124474,2,0,P|181:54|143:46,1,66,8|8,0:1|0:0,0:0:0:0:
83,24,124936,1,2,0:0:0:0:
83,24,125166,2,0,L|91:96,1,66,10|2,0:0|0:0,0:0:0:0:
52,159,125628,6,0,P|49:202|61:228,1,66,8|8,3:2|0:2,0:0:0:0:
73,236,125974,1,0,0:0:0:0:
73,236,126090,2,0,L|72:309,1,66,8|8,3:2|0:2,0:0:0:0:
134,351,126551,2,0,L|207:352,1,66,8|8,3:2|0:2,0:0:0:0:
238,282,127013,2,0,L|311:281,1,66,8|8,3:2|0:2,0:0:0:0:
373,318,127474,6,0,B|408:325|408:325|435:306,1,66,8|8,3:2|0:2,0:0:0:0:
440,293,127820,1,0,0:0:0:0:
440,293,127936,2,0,L|433:222,1,66,8|8,3:2|0:2,0:0:0:0:
366,198,128397,2,0,L|373:127,1,66,8|8,3:2|0:2,0:0:0:0:
413,71,128859,2,0,P|369:57|333:68,1,66,8|8,3:2|0:0,0:0:0:0:
279,76,129320,6,0,P|261:80|238:79,3,33,8|8|8|8,3:2|0:0|3:2|0:0,0:0:0:0:
220,106,129782,2,0,P|202:102|179:103,3,33,8|8|8|8,3:2|0:0|3:2|0:0,0:0:0:0:
153,113,130243,1,8,3:2:0:0:
145,110,130358,1,8,0:0:0:0:
136,109,130473,1,8,3:2:0:0:
128,108,130589,1,8,0:0:0:0:
122,107,130705,6,0,P|104:111|81:110,1,33,8|8,3:2|0:0,0:0:0:0:
53,109,130936,2,0,P|47:126|35:146,1,33,8|8,3:2|0:0,0:0:0:0:
40,179,131166,6,0,P|61:236|49:263,2,82.5,8|8|8,0:3|0:3|0:3,0:0:0:0:
40,179,132551,1,8,0:3:0:0:
196,353,133013,5,6,3:2:0:0:
276,339,133243,2,0,L|380:345,1,90.7500027694703,2|8,0:0|0:0,0:0:0:0:
447,330,133705,2,0,B|408:360|361:332|362:256|434:228,1,181.500005538941,2|2,0:0|0:0,0:0:0:0:
506,251,134397,1,10,0:0:0:0:
427,230,134628,1,2,0:0:0:0:
349,203,134859,6,0,B|288:194|288:194|282:197|282:197|212:188,1,136.125004154205,0|0,3:0|0:0,0:0:0:0:
205,186,135320,2,0,P|209:239|174:276,1,90.7500027694703,10|2,0:0|0:0,0:0:0:0:
108,248,135782,2,0,P|104:195|139:158,1,90.7500027694703,2|2,3:2|0:0,0:0:0:0:
185,111,136243,2,0,P|208:73|201:29,1,90.7500027694703,10|2,0:0|0:0,0:0:0:0:
123,5,136705,6,0,B|70:-5|70:-5|87:122,1,181.500005538941,2|10,3:2|0:2,0:0:0:0:
61,199,137397,2,0,P|118:197|150:172,1,90.7500027694703,2|0,0:0|3:0,0:0:0:0:
185,111,137859,1,2,0:0:0:0:
144,178,138089,1,10,0:0:0:0:
208,227,138320,6,0,B|247:243|292:215|292:215|342:182|398:216,1,181.500005538941,2|2,0:0|0:0,0:0:0:0:
424,276,139013,2,0,P|392:319|343:323,1,90.7500027694703,10|0,0:0|0:0,0:0:0:0:
278,344,139474,2,0,P|222:313|183:319,1,90.7500027694703,2|0,3:2|0:0,0:0:0:0:
119,339,139936,2,0,P|119:289|148:251,1,90.7500027694703,10|0,0:2|0:0,0:0:0:0:
188,189,140397,5,2,3:2:0:0:
134,253,140628,2,0,P|110:290|111:335,1,90.7500027694703,2|8,0:0|0:0,0:0:0:0:
197,314,141090,2,0,B|226:307|262:321|279:344|279:344|300:326|324:311|367:313,1,181.500005538941,2|2,0:0|0:0,0:0:0:0:
429,365,141782,2,0,P|420:320|423:275,1,90.7500027694703,10|2,0:0|0:0,0:0:0:0:
502,246,142243,6,0,P|452:197|374:209,1,136.125004154205,0|0,3:0|0:0,0:0:0:0:
378,206,142705,2,0,L|283:194,1,90.7500027694703,10|2,0:0|0:0,0:0:0:0:
226,140,143166,2,0,L|131:152,1,90.7500027694703,2|2,3:2|0:0,0:0:0:0:
66,194,143628,2,0,P|53:147|71:101,1,90.7500027694703,10|2,0:0|0:0,0:0:0:0:
62,26,144090,6,0,B|148:31|148:31|155:25|155:25|248:31,1,181.500005538941,2|10,3:2|0:2,0:0:0:0:
304,81,144782,2,0,P|356:86|396:45,1,90.7500027694703,2|0,0:0|3:0,0:0:0:0:
439,3,145243,1,2,0:0:0:0:
490,66,145474,1,10,0:0:0:0:
487,147,145705,6,0,B|458:187|478:231|478:231|507:279|462:349,1,181.500005538941,2|2,0:0|0:0,0:0:0:0:
427,383,146397,2,0,P|368:370|332:370,1,90.7500027694703,10|2,0:0|0:0,0:0:0:0:
279,313,146859,1,2,3:2:0:0:
200,335,147090,1,2,1:2:0:0:
154,267,147320,1,10,0:2:0:0:
75,245,147551,1,2,0:0:0:0:
134,188,147782,5,2,3:2:0:0:
200,335,148243,1,12,0:0:0:0:
154,267,148474,2,0,P|202:234|181:121,1,181.500005538941,2|2,0:0|0:0,0:0:0:0:
145,53,149166,2,0,B|186:76|186:76|238:59,1,90.7500027694703,10|2,0:0|0:0,0:0:0:0:
307,42,149628,6,0,P|357:43|394:117,1,136.125004154205,0|0,3:0|0:0,0:0:0:0:
409,129,150090,2,0,B|431:170|431:170|416:224,1,90.7500027694703,10|0,0:0|0:0,0:0:0:0:
358,267,150551,2,0,B|311:265|311:265|272:225,1,90.7500027694703,2|0,3:2|0:0,0:0:0:0:
263,153,151013,2,0,B|287:113|287:113|341:99,1,90.7500027694703,10|0,0:0|0:0,0:0:0:0:
409,129,151474,6,0,P|444:177|435:296,1,181.500005538941,2|10,3:2|0:2,0:0:0:0:
380,354,152166,2,0,B|342:349|342:349|332:349|332:349|289:344,1,90.7500027694703,2|0,0:0|3:0,0:0:0:0:
248,273,152628,1,2,0:0:0:0:
181,320,152859,1,10,0:0:0:0:
127,258,153090,6,0,B|97:301|29:278|24:209|85:160,1,181.500005538941,2|2,0:0|0:0,0:0:0:0:
75,89,153782,2,0,P|115:98|171:75,1,90.7500027694703,10|0,0:0|0:0,0:0:0:0:
228,40,154243,2,0,B|256:4|256:4|290:45,1,90.7500027694703,2|0,3:2|0:0,0:0:0:0:
350,82,154705,2,0,P|393:97|437:89,1,90.7500027694703,10|0,0:2|0:0,0:0:0:0:
469,164,155166,5,2,3:2:0:0:
379,178,155397,2,0,L|287:166,1,90.7500027694703,2|8,0:0|0:0,0:0:0:0:
201,193,155859,2,0,B|231:176|295:191|295:266|265:317,1,181.500005538941,2|2,0:0|0:0,0:0:0:0:
201,372,156551,2,0,P|156:371|119:346,1,90.7500027694703,10|2,0:0|0:0,0:0:0:0:
122,254,157013,6,0,B|137:163|137:163|116:182|89:178,1,136.125004154205,0|0,3:0|0:0,0:0:0:0:
83,177,157474,2,0,P|61:141|96:109,1,90.7500027694703,10|0,0:0|0:0,0:0:0:0:
148,51,157936,2,0,P|184:28|216:64,1,90.7500027694703,2|0,3:2|0:0,0:0:0:0:
266,121,158397,2,0,P|288:157|253:189,1,90.7500027694703,10|0,0:0|0:0,0:0:0:0:
226,263,158859,6,0,P|261:303|385:262,1,181.500005538941,2|10,3:2|0:2,0:0:0:0:
435,224,159551,2,0,P|437:178|450:135,1,90.7500027694703,2|0,0:0|3:0,0:0:0:0:
389,79,160013,1,2,0:0:0:0:
465,49,160243,1,10,0:0:0:0:
399,0,160474,6,0,P|349:11|327:126,1,181.500005538941,2|2,0:0|0:0,0:0:0:0:
292,198,161166,2,0,P|304:241|299:291,1,90.7500027694703,10|2,0:0|0:0,0:0:0:0:
211,286,161628,2,0,P|207:241|220:198,1,90.7500027694703,2|2,3:2|0:0,0:0:0:0:
256,124,162090,1,10,0:2:0:0:
256,33,162320,1,2,0:0:0:0:
183,13,162551,5,4,0:1:0:0:
256,33,162782,2,0,P|293:53|363:25,2,115.49999647522,2|2|2,0:0|0:0|0:0,0:0:0:0:
182,12,163936,1,2,0:0:0:0:
182,12,164167,2,0,P|155:5|126:10,1,57.7499982376099,2|2,0:0|0:0,0:0:0:0:
282,290,165320,2,0,P|261:247|205:207,1,115.49999647522,2|2,0:0|0:0,0:0:0:0:
100,329,166243,6,0,P|100:281|134:221,1,115.49999647522,2|2,0:0|0:0,0:0:0:0:
207,207,166936,2,0,P|256:204|294:138,1,115.49999647522,2|2,0:0|0:0,0:0:0:0:
307,82,167628,1,2,0:0:0:0:
307,82,167859,2,0,P|348:68|388:71,1,57.7499982376099,2|0,0:0|0:0,0:0:0:0:
444,193,168551,2,0,P|419:228|400:304,2,115.49999647522,2|2|2,0:0|0:0|0:0,0:0:0:0:
459,342,169936,6,0,P|435:362|402:370,1,57.7499982376099,2|2,0:0|0:0,0:0:0:0:
339,357,170397,1,2,0:0:0:0:
339,357,170628,2,0,B|276:343|289:381|218:372,1,115.49999647522,2|2,0:0|0:0,0:0:0:0:
168,325,171320,1,2,0:0:0:0:
168,325,171551,2,0,P|129:337|108:337,1,57.7499982376099,2|2,0:0|0:0,0:0:0:0:
55,198,172243,2,0,B|82:164|82:164|105:141|138:143|156:176,2,115.49999647522,2|2|2,0:0|0:0|0:0,0:0:0:0:
95,53,173628,6,0,P|134:81|205:71,1,115.49999647522,2|2,0:0|0:0,0:0:0:0:
257,28,174320,2,0,P|312:19|360:49,1,115.49999647522,2|2,0:0|0:0,0:0:0:0:
386,125,175013,1,2,0:0:0:0:
386,125,175243,2,0,P|372:154|365:196,1,57.7499982376099,2|0,0:0|0:0,0:0:0:0:
283,246,175936,6,0,P|256:238|228:240,2,57.7499982376099,2|2|2,0:0|0:0|0:0,0:0:0:0:
335,301,176628,2,0,L|399:292,1,57.7499982376099,2|2,0:0|0:0,0:0:0:0:
454,248,177090,6,0,B|459:187|459:187|465:179|465:179|473:110,1,132,2|0,0:0|0:0,0:0:0:0:
