osu file format v14

[General]
AudioFilename: Mayoiga Opening.mp3
AudioLeadIn: 0
PreviewTime: 54345
Countdown: 0
SampleSet: Soft
StackLeniency: 0.8
Mode: 0
LetterboxInBreaks: 0
WidescreenStoryboard: 1

[Editor]
Bookmarks: 74178
DistanceSpacing: 1.6
BeatDivisor: 4
GridSize: 4
TimelineZoom: 1.1

[Metadata]
Title:Gensou Drive
TitleUnicode:幻想ドライブ
Artist:Ami Wajima
ArtistUnicode:Ami Wajima
Creator:B r o k e n
Version:Hard
Source:Mayoiga
Tags:Spring 2016 TV Size Gensou Fantasy Drive Mayoiga Opening Op The Lost Village DrwalPolska crystalinfusion M_o_c_h_a
BeatmapID:947448
BeatmapSetID:440333

[Difficulty]
HPDrainRate:5
CircleSize:4
OverallDifficulty:6
ApproachRate:8
SliderMultiplier:1.3
SliderTickRate:1

[Events]
//Background and Video events
0,0,"Mayoiga.jpg",0,0
//Break Periods
//Storyboard Layer 0 (Background)
//Storyboard Layer 1 (Fail)
//Storyboard Layer 2 (Pass)
//Storyboard Layer 3 (Foreground)
//Storyboard Sound Samples

[TimingPoints]
1012,333.333333333333,4,2,0,30,1,0
2345,-133.333333333333,4,2,0,30,0,0
8678,-100,4,2,0,50,0,0
53011,-133.333333333333,4,2,0,50,0,0
54345,-83.3333333333333,4,2,0,70,0,1
86345,-83.3333333333333,4,2,0,50,0,0

[Colours]
Combo1 : 128,0,128
Combo2 : 0,128,0
Combo3 : 0,0,255
Combo4 : 255,0,0

[HitObjects]
184,268,1012,5,2,0:0:0:0:
184,268,2345,1,2,0:0:0:0:
184,268,3678,1,2,0:0:0:0:
304,188,4011,1,2,0:0:0:0:
356,324,4345,1,2,0:0:0:0:
456,220,4678,1,2,0:0:0:0:
360,112,5011,6,0,L|311:112,1,48.750001859665,2|0,0:0|0:0,0:0:0:0:
244,140,5345,2,0,L|244:188,1,48.750001859665,2|0,0:0|0:0,0:0:0:0:
172,208,5678,2,0,L|172:159,1,48.750001859665,2|0,0:0|0:0,0:0:0:0:
140,92,6011,2,0,P|92:80|40:92,1,97.50000371933,2|2,0:0|0:0,0:0:0:0:
172,159,6678,5,2,0:0:0:0:
172,159,7011,1,2,0:0:0:0:
292,244,7345,2,0,P|296:272|292:296,1,48.750001859665,2|0,0:0|0:0,0:0:0:0:
232,336,7678,6,0,P|204:340|183:336,1,48.750001859665,2|0,0:0|0:0,0:0:0:0:
120,304,8011,2,0,P|108:252|132:192,1,97.50000371933,2|2,0:0|0:0,0:0:0:0:
208,84,8678,2,0,P|240:76|276:84,1,65,2|0,0:0|0:0,0:0:0:0:
304,152,9011,6,0,P|268:160|239:152,1,65,2|0,0:0|0:0,0:0:0:0:
164,152,9345,1,2,0:0:0:0:
164,152,9511,1,0,0:0:0:0:
68,112,9678,2,0,P|56:144|68:180,1,65,2|0,0:0|0:0,0:0:0:0:
132,252,10011,1,2,0:0:0:0:
164,152,10178,6,0,P|172:120|156:76,1,65,0|2,0:0|0:0,0:0:0:0:
100,12,10511,1,0,0:0:0:0:
100,12,10678,1,2,0:0:0:0:
68,112,10845,2,0,P|56:140|68:180,1,65,0|2,0:0|0:0,0:0:0:0:
140,244,11178,1,0,0:0:0:0:
236,200,11345,2,0,P|272:192|308:208,1,65,2|0,0:0|0:0,0:0:0:0:
360,244,11678,6,0,L|412:296,1,65,2|0,0:0|0:0,0:0:0:0:
372,360,12011,2,0,L|316:304,1,65,2|0,0:0|0:0,0:0:0:0:
256,276,12345,1,2,0:0:0:0:
256,276,12511,1,0,0:0:0:0:
184,308,12678,2,0,P|148:316|116:308,1,65,2|0,0:0|0:0,0:0:0:0:
60,260,13011,6,0,P|52:224|64:192,1,65,2|0,0:0|0:0,0:0:0:0:
104,132,13345,2,0,P|176:116|236:136,2,130,2|2|2,0:0|0:0|0:0,0:0:0:0:
184,264,14345,6,0,L|224:200,1,65,2|0,0:0|0:0,0:0:0:0:
276,260,14678,2,0,L|312:196,1,65,2|0,0:0|0:0,0:0:0:0:
260,140,15011,1,2,0:0:0:0:
260,140,15178,1,0,0:0:0:0:
328,104,15345,1,2,0:0:0:0:
284,40,15511,6,0,P|256:32|216:40,2,65,0|2|0,0:0|0:0|0:0,0:0:0:0:
328,104,16011,2,0,P|360:112|392:104,1,65,2|0,0:0|0:0,0:0:0:0:
448,48,16345,1,2,0:0:0:0:
448,48,16511,2,0,P|472:104|432:172,1,130
380,208,17011,6,0,P|348:216|315:208,1,65,2|0,0:0|0:0,0:0:0:0:
248,172,17345,2,0,P|212:164|168:180,1,65,2|0,0:0|0:0,0:0:0:0:
120,216,17678,1,2,0:0:0:0:
120,216,17845,1,0,0:0:0:0:
64,160,18011,2,0,P|56:128|68:88,1,65,2|0,0:0|0:0,0:0:0:0:
112,36,18345,6,0,P|144:28|180:40,1,65,2|0,0:0|0:0,0:0:0:0:
236,84,18678,2,0,P|304:100|368:84,2,130,2|2|2,0:0|0:0|0:0,0:0:0:0:
360,180,19678,6,0,L|428:180,1,65,2|0,0:0|0:0,0:0:0:0:
452,252,20011,2,0,L|388:252,1,65,2|0,0:0|0:0,0:0:0:0:
308,248,20345,2,0,L|264:176,1,65,2|0,0:0|0:0,0:0:0:0:
304,120,20678,1,2,0:0:0:0:
236,84,20845,6,0,P|200:76|156:96,1,65,0|2,0:0|0:0,0:0:0:0:
104,120,21178,2,0,P|96:152|104:188,1,65,0|2,0:0|0:0,0:0:0:0:
176,256,21511,1,0,0:0:0:0:
176,256,21678,1,2,0:0:0:0:
176,256,21845,2,0,L|176:296,2,32.5,0|0|2,0:0|0:0|0:0,0:0:0:0:
220,192,22178,1,0,0:0:0:0:
220,192,22345,6,0,P|288:208|368:176,1,130,2|2,0:0|0:0,0:0:0:0:
272,56,23011,1,2,0:0:0:0:
344,192,23345,1,2,0:0:0:0:
212,108,23678,5,2,0:0:0:0:
344,192,24011,1,2,0:0:0:0:
212,108,24345,1,2,0:0:0:0:
196,264,24678,1,2,0:0:0:0:
196,264,24845,1,0,0:0:0:0:
268,240,25011,6,0,P|300:232|348:252,1,65,2|0,0:0|0:0,0:0:0:0:
396,284,25345,1,2,0:0:0:0:
356,352,25511,2,0,P|316:360|288:352,1,65,0|2,0:0|0:0,0:0:0:0:
216,336,25845,2,0,P|184:328|144:340,1,65,0|2,0:0|0:0,0:0:0:0:
76,348,26178,1,0,0:0:0:0:
76,348,26345,6,0,P|56:280|92:204,2,130,2|2|2,0:0|0:0|0:0,0:0:0:0:
220,284,27345,1,2,0:0:0:0:
220,284,27678,6,0,P|256:292|288:284,1,65,2|0,0:0|0:0,0:0:0:0:
352,248,28011,1,2,0:0:0:0:
400,188,28178,1,0,0:0:0:0:
436,120,28345,2,0,P|404:112|356:128,1,65,2|0,0:0|0:0,0:0:0:0:
304,156,28678,1,2,0:0:0:0:
236,196,28845,6,0,P|200:204|172:196,1,65,0|2,0:0|0:0,0:0:0:0:
176,120,29178,2,0,P|216:112|256:128,1,65,0|2,0:0|0:0,0:0:0:0:
304,156,29511,1,0,0:0:0:0:
308,236,29678,2,0,P|344:244|376:232,2,65,2|0|2,0:0|0:0|0:0,0:0:0:0:
236,196,30178,1,0,0:0:0:0:
160,216,30345,6,0,L|117:166,1,65,2|0,0:0|0:0,0:0:0:0:
48,136,30678,1,2,0:0:0:0:
52,216,30845,2,0,L|100:280,1,65,0|2,0:0|0:0,0:0:0:0:
152,320,31178,2,0,P|188:328|224:316,1,65,0|2,0:0|0:0,0:0:0:0:
268,264,31511,1,0,0:0:0:0:
268,264,31678,6,0,P|336:248|400:276,2,130,2|2|2,0:0|0:0|0:0,0:0:0:0:
328,120,32678,1,2,0:0:0:0:
328,120,33011,6,0,P|292:128|256:120,1,65,2|0,0:0|0:0,0:0:0:0:
196,84,33345,1,2,0:0:0:0:
196,84,33511,1,0,0:0:0:0:
128,124,33678,1,2,0:0:0:0:
128,124,33845,1,0,0:0:0:0:
196,164,34011,2,0,P|204:196|192:232,1,65,2|0,0:0|0:0,0:0:0:0:
136,276,34345,6,0,P|104:284|68:276,1,65,2|0,0:0|0:0,0:0:0:0:
16,224,34678,2,0,L|16:148,1,65,2|0,0:0|0:0,0:0:0:0:
48,88,35011,1,2,0:0:0:0:
48,88,35178,1,0,0:0:0:0:
104,144,35345,2,0,L|104:216,1,65,2|0,0:0|0:0,0:0:0:0:
72,280,35678,6,0,P|104:288|144:272,1,65,2|0,0:0|0:0,0:0:0:0:
200,236,36011,1,2,0:0:0:0:
268,200,36178,2,0,P|304:192|344:208,1,65,0|2,0:0|0:0,0:0:0:0:
396,240,36511,2,0,P|404:272|392:316,1,65,0|2,0:0|0:0,0:0:0:0:
324,276,36845,1,0,0:0:0:0:
330,199,37011,6,0,P|384:164|460:196,2,130,2|2|2,0:0|0:0|0:0,0:0:0:0:
220,312,38011,1,2,0:0:0:0:
220,312,38345,5,2,0:0:0:0:
136,248,38511,1,0,0:0:0:0:
136,248,38678,2,0,P|124:208|144:168,1,65,2|0,0:0|0:0,0:0:0:0:
176,124,39011,2,0,P|212:116|240:124,1,65,2|0,0:0|0:0,0:0:0:0:
304,204,39345,1,2,0:0:0:0:
304,204,39511,6,0,P|272:212|241:204,1,65,0|2,0:0|0:0,0:0:0:0:
238,123,39845,2,0,P|206:115|174:123,1,65,0|2,0:0|0:0,0:0:0:0:
116,172,40178,1,0,0:0:0:0:
88,244,40345,1,2,0:0:0:0:
112,320,40511,1,0,0:0:0:0:
172,368,40678,2,0,P|208:376|248:364,1,65,2|0,0:0|0:0,0:0:0:0:
304,336,41011,6,0,L|352:268,1,65,2|0,0:0|0:0,0:0:0:0:
324,208,41345,1,2,0:0:0:0:
256,248,41511,2,0,L|204:312,1,65,0|2,0:0|0:0,0:0:0:0:
168,236,41845,2,0,L|216:180,1,65,0|2,0:0|0:0,0:0:0:0:
264,128,42178,1,0,0:0:0:0:
216,68,42345,6,0,P|184:60|152:68,1,65,2|0,0:0|0:0,0:0:0:0:
92,112,42678,1,2,0:0:0:0:
44,172,42845,2,0,P|36:208|52:260,1,65,0|2,0:0|0:0,0:0:0:0:
112,268,43178,2,0,P|120:236|116:204,1,65,0|2,0:0|0:0,0:0:0:0:
264,156,43678,6,0,L|288:92,1,65
312,64,43928,2,0,B|344:52|344:52|380:68,1,65
392,96,44178,2,0,L|416:176,1,65
432,232,44511,5,0,0:0:0:0:
384,296,44678,2,0,P|348:304|308:292,1,65
264,244,45011,2,0,L|292:164,2,65
184,240,45511,2,0,L|208:172,1,65
236,104,45845,1,0,0:0:0:0:
176,56,46011,6,0,P|140:48|104:60,1,65
88,84,46261,2,0,P|72:128|92:192,1,97.5
116,200,46595,2,0,P|128:236|108:276,1,65
100,296,46845,2,0,P|64:304|35:296,1,65
188,332,47345,6,0,P|256:356|320:316,1,130
248,280,47845,1,0,0:0:0:0:
296,220,48011,2,0,P|328:228|376:208,1,65
420,168,48345,1,0,0:0:0:0:
420,168,48511,1,0,0:0:0:0:
388,96,48678,2,0,P|352:88|316:96,1,65
252,120,49011,6,0,P|220:128|184:120,1,65
160,96,49261,2,0,P|124:88|95:96,1,65
68,124,49511,2,0,L|68:188,1,65
116,248,49845,2,0,P|152:256|192:240,1,65
236,196,50178,5,0,0:0:0:0:
288,252,50345,2,0,L|244:336,2,65
356,292,50845,2,0,L|388:228,1,65
324,184,51178,1,0,0:0:0:0:
252,152,51345,2,0,L|187:152,1,65
120,192,51678,6,0,P|112:228|120:264,1,65
140,288,51928,2,0,P|176:296|224:272,1,65
240,272,52178,2,0,P|248:236|224:184,1,65
148,84,52678,1,0,0:0:0:0:
240,112,53011,6,0,P|124:176|56:52,1,292.50001115799
68,252,54345,6,0,P|112:260|164:244,1,77.999997619629,4|0,1:0|0:0,0:0:0:0:
232,216,54678,2,0,P|268:208|320:224,1,77.999997619629,0|0,1:0|0:0,0:0:0:0:
392,260,55011,2,0,P|404:208|384:168,1,77.999997619629,0|0,1:0|0:0,0:0:0:0:
328,120,55345,1,0,1:0:0:0:
328,120,55511,1,0,0:0:0:0:
248,72,55678,6,0,P|204:64|164:76,1,77.999997619629,0|0,1:0|0:0,0:0:0:0:
84,108,56011,2,0,P|48:188|72:256,1,155.999995239258,0|0,1:0|1:0,0:0:0:0:
156,192,56511,1,0,0:0:0:0:
156,192,56678,1,0,1:0:0:0:
156,192,56845,1,0,0:0:0:0:
224,256,57011,6,0,P|264:264|304:248,1,77.999997619629,0|0,1:0|0:0,0:0:0:0:
368,188,57345,2,0,P|356:144|372:104,1,77.999997619629,0|0,1:0|0:0,0:0:0:0:
440,60,57678,1,0,1:0:0:0:
440,60,57845,1,0,0:0:0:0:
456,152,58011,2,0,L|456:248,1,77.999997619629,0|0,1:0|0:0,0:0:0:0:
420,316,58345,5,0,1:0:0:0:
420,316,58511,1,0,0:0:0:0:
336,272,58678,2,0,P|296:260|252:276,1,77.999997619629,0|0,1:0|0:0,0:0:0:0:
184,320,59011,2,0,P|144:332|104:320,1,77.999997619629,0|0,1:0|0:0,0:0:0:0:
40,256,59345,2,0,L|60:208,3,38.9999988098145,0|0|0|0,1:0|0:0|0:0|0:0,0:0:0:0:
96,196,59678,6,0,P|136:204|188:188,1,77.999997619629,0|0,1:0|0:0,0:0:0:0:
244,136,60011,2,0,P|288:128|340:148,1,77.999997619629,0|0,1:0|0:0,0:0:0:0:
392,196,60345,2,0,P|400:240|388:280,1,77.999997619629,0|0,1:0|0:0,0:0:0:0:
308,232,60678,1,0,1:0:0:0:
308,232,60845,1,0,0:0:0:0:
228,284,61011,6,0,P|188:292|144:284,1,77.999997619629,0|0,1:0|0:0,0:0:0:0:
76,232,61345,2,0,P|64:188|76:152,1,77.999997619629,0|0,1:0|0:0,0:0:0:0:
160,192,61678,2,0,P|172:148|148:92,1,77.999997619629,0|0,1:0|0:0,0:0:0:0:
80,80,62011,2,0,L|108:52,3,38.9999988098145,0|0|0|0,1:0|0:0|0:0|0:0,0:0:0:0:
148,28,62345,6,0,P|180:20|228:32,1,77.999997619629,0|0,1:0|0:0,0:0:0:0:
296,92,62678,2,0,P|308:132|280:184,1,77.999997619629,0|0,1:0|0:0,0:0:0:0:
204,248,63011,2,0,L|142:200,1,77.999997619629,0|0,1:0|0:0,0:0:0:0:
52,180,63345,1,0,1:0:0:0:
36,272,63511,6,0,L|116:340,1,77.999997619629,0|0,0:0|1:0,0:0:0:0:
176,368,63845,1,0,0:0:0:0:
264,332,64011,1,0,1:0:0:0:
293,239,64178,2,0,P|305:195|285:147,1,77.999997619629,0|0,0:0|1:0,0:0:0:0:
228,100,64511,1,0,0:0:0:0:
300,40,64678,2,0,P|336:32|388:48,1,77.999997619629,0|0,1:0|0:0,0:0:0:0:
472,120,65011,6,0,P|484:160|468:204,1,77.999997619629,0|0,1:0|0:0,0:0:0:0:
376,272,65345,2,0,P|360:228|380:180,1,77.999997619629,0|0,1:0|0:0,0:0:0:0:
400,112,65678,1,0,1:0:0:0:
400,112,65845,1,0,0:0:0:0:
312,148,66011,2,0,P|272:156|232:148,1,77.999997619629,0|0,1:0|0:0,0:0:0:0:
152,104,66345,6,0,L|148:200,1,77.999997619629,0|0,1:0|0:0,0:0:0:0:
220,240,66678,2,0,P|144:272|72:232,1,155.999995239258,0|0,1:0|1:0,0:0:0:0:
24,168,67178,1,0,0:0:0:0:
12,260,67345,1,0,1:0:0:0:
56,344,67511,1,0,0:0:0:0:
148,368,67678,6,0,P|236:384|320:360,1,155.999995239258,0|0,1:0|1:0,0:0:0:0:
376,312,68178,1,0,0:0:0:0:
428,236,68345,2,0,L|476:156,1,77.999997619629,0|0,1:0|0:0,0:0:0:0:
408,96,68678,2,0,L|367:162,1,77.999997619629,0|0,1:0|0:0,0:0:0:0:
276,148,69011,6,0,L|316:81,1,77.999997619629,0|0,1:0|0:0,0:0:0:0:
232,40,69345,2,0,P|192:32|136:52,1,77.999997619629,0|0,1:0|0:0,0:0:0:0:
76,88,69678,2,0,L|76:172,1,77.999997619629,0|0,1:0|0:0,0:0:0:0:
156,216,70011,2,0,L|156:116,1,77.999997619629,0|0,1:0|0:0,0:0:0:0:
156,39,70345,5,0,1:0:0:0:
156,39,70511,1,0,0:0:0:0:
80,92,70678,1,0,1:0:0:0:
80,92,70845,1,0,0:0:0:0:
160,140,71011,2,0,L|264:140,1,77.999997619629,0|0,1:0|0:0,0:0:0:0:
292,220,71345,2,0,L|200:220,1,77.999997619629,0|0,1:0|0:0,0:0:0:0:
120,224,71678,6,0,L|120:308,1,77.999997619629,0|0,1:0|0:0,0:0:0:0:
40,352,72011,2,0,L|40:192,1,155.999995239258,0|0,1:0|1:0,0:0:0:0:
148,44,72678,1,0,1:0:0:0:
148,44,73011,6,0,P|224:24|312:52,1,155.999995239258,0|0,1:0|1:0,0:0:0:0:
424,180,73678,2,0,L|458:249,1,77.999997619629,0|0,1:0|0:0,0:0:0:0:
436,340,74011,1,0,1:0:0:0:
348,252,74178,6,0,L|313:182,1,77.999997619629,0|0,0:1|1:0,0:0:0:0:
320,88,74511,1,0,0:1:0:0:
320,88,74678,1,0,1:0:0:0:
240,136,74845,2,0,P|200:144|162:136,1,77.999997619629,0|0,0:0|1:0,0:0:0:0:
88,84,75178,1,0,0:0:0:0:
40,164,75345,2,0,P|28:204|48:256,1,77.999997619629,0|0,1:0|0:0,0:0:0:0:
136,312,75678,6,0,P|176:320|216:308,1,77.999997619629,0|0,1:0|0:0,0:0:0:0:
288,256,76011,2,0,L|332:184,1,77.999997619629,0|0,1:0|0:0,0:0:0:0:
452,204,76345,2,0,L|411:270,1,77.999997619629,0|0,1:0|0:0,0:0:0:0:
340,332,76678,1,0,1:0:0:0:
340,332,76845,1,0,0:0:0:0:
288,256,77011,6,0,L|340:188,1,77.999997619629,0|0,1:0|0:0,0:0:0:0:
428,168,77345,1,0,1:0:0:0:
428,168,77511,1,0,0:0:0:0:
384,84,77678,2,0,P|344:72|300:84,1,77.999997619629,0|0,1:0|0:0,0:0:0:0:
228,124,78011,1,0,1:0:0:0:
228,124,78178,1,0,0:0:0:0:
144,80,78345,6,0,P|104:72|60:84,1,77.999997619629,0|0,1:0|0:0,0:0:0:0:
108,164,78678,2,0,L|168:236,1,77.999997619629,0|0,1:0|0:0,0:0:0:0:
277,183,79011,2,0,L|227:123,1,77.999997619629,0|0,1:0|0:0,0:0:0:0:
145,79,79345,1,0,1:0:0:0:
232,40,79511,6,0,P|272:32|312:40,1,77.999997619629,0|0,0:0|1:0,0:0:0:0:
388,88,79845,1,0,0:0:0:0:
388,88,80011,1,0,1:0:0:0:
308,140,80178,2,0,P|296:180|316:232,1,77.999997619629,0|0,0:0|1:0,0:0:0:0:
372,280,80511,2,0,L|344:344,5,38.9999988098145,0|0|0|0|0|0,0:0|0:0|1:0|0:0|0:0|0:0,0:0:0:0:
320,344,81011,6,0,P|280:352|236:344,1,77.999997619629,0|0,1:0|0:0,0:0:0:0:
160,304,81345,2,0,L|96:240,1,77.999997619629,0|0,1:0|0:0,0:0:0:0:
128,128,81678,2,0,L|183:183,1,77.999997619629,0|0,1:0|0:0,0:0:0:0:
276,188,82011,2,0,L|332:120,1,77.999997619629,0|0,1:0|0:0,0:0:0:0:
420,148,82345,5,0,1:0:0:0:
420,148,82511,2,0,L|364:216,1,77.999997619629,0|0,0:0|1:0,0:0:0:0:
296,268,82845,2,0,L|188:268,1,77.999997619629,0|0,0:0|1:0,0:0:0:0:
132,232,83178,1,0,0:0:0:0:
132,232,83345,1,0,1:0:0:0:
208,180,83511,6,0,L|292:180,1,77.999997619629,0|0,0:0|1:0,0:0:0:0:
328,96,83845,1,0,0:0:0:0:
328,96,84011,2,0,L|250:96,1,77.999997619629,0|0,1:0|0:0,0:0:0:0:
156,116,84345,2,0,L|116:196,1,77.999997619629,0|0,1:0|0:0,0:0:0:0:
28,172,84678,1,0,1:0:0:0:
28,172,84761,1,0,0:0:0:0:
28,172,84845,6,0,L|68:92,1,77.999997619629,0|0,0:0|1:0,0:0:0:0:
128,36,85178,2,0,L|228:36,1,77.999997619629,0|0,0:0|1:0,0:0:0:0:
284,88,85511,2,0,L|284:192,1,77.999997619629,0|0,0:0|1:0,0:0:0:0:
372,204,85845,1,0,0:0:0:0:
372,204,85928,1,0,0:0:0:0:
372,204,86011,2,0,L|372:100,1,77.999997619629,0|0,1:0|0:0,0:0:0:0:
344,36,86345,5,0,1:0:0:0:
256,192,86511,12,0,88011,0:0:0:0:
