osu file format v14

[General]
AudioFilename: Mayoiga Opening.mp3
AudioLeadIn: 0
PreviewTime: 54345
Countdown: 0
SampleSet: Soft
StackLeniency: 0.8
Mode: 0
LetterboxInBreaks: 0
WidescreenStoryboard: 0

[Editor]
DistanceSpacing: 1.2
BeatDivisor: 2
GridSize: 4
TimelineZoom: 1

[Metadata]
Title:Gensou Drive
TitleUnicode:幻想ドライブ
Artist:Ami Wajima
ArtistUnicode:Ami Wajima
Creator:B r o k e n
Version:Easy
Source:Mayoiga
Tags:Spring 2016 TV Size Gensou Fantasy Drive Mayoiga Opening Op The Lost Village DrwalPolska crystalinfusion M_o_c_h_a
BeatmapID:973726
BeatmapSetID:440333

[Difficulty]
HPDrainRate:2
CircleSize:3
OverallDifficulty:2
ApproachRate:3
SliderMultiplier:0.7
SliderTickRate:1

[Events]
//Background and Video events
0,0,"Mayoiga.jpg",0,0
//Break Periods
2,15711,20905
//Storyboard Layer 0 (Background)
//Storyboard Layer 1 (Fail)
//Storyboard Layer 2 (Pass)
//Storyboard Layer 3 (Foreground)
//Storyboard Sound Samples

[TimingPoints]
1012,333.333333333333,4,2,0,50,1,0
1021,-100,4,2,0,50,0,0
54345,-100,4,2,0,70,0,1
86345,-100,4,2,0,50,0,0

[Colours]
Combo1 : 128,0,128
Combo2 : 0,128,0
Combo3 : 0,0,255
Combo4 : 255,0,0

[HitObjects]
176,308,1012,5,2,0:0:0:0:
416,72,2345,1,2,0:0:0:0:
80,92,3678,6,0,L|118:150,1,70,2|2,0:0|0:0,0:0:0:0:
204,144,4345,2,0,L|244:208,1,70,2|2,0:0|0:0,0:0:0:0:
216,284,5011,2,0,P|292:268|324:204,1,140,2|2,0:0|0:0,0:0:0:0:
236,72,6345,6,0,P|168:84|124:168,1,140,2|2,0:0|0:0,0:0:0:0:
284,204,7678,2,0,P|348:228|420:184,1,140,2|2,0:0|0:0,0:0:0:0:
344,144,8678,1,2,0:0:0:0:
264,120,9011,6,0,L|212:60,1,70,2|2,0:0|0:0,0:0:0:0:
136,72,9678,2,0,L|80:156,1,70,2|2,0:0|0:0,0:0:0:0:
152,192,10345,2,0,P|208:204|272:184,2,105,2|2|2,0:0|0:0|0:0,0:0:0:0:
256,192,11678,12,4,15511,0:0:0:0:
384,344,22345,6,0,L|336:272,1,70,2|2,0:0|0:0,0:0:0:0:
300,216,23011,2,0,L|372:164,1,70,2|2,0:0|0:0,0:0:0:0:
352,92,23678,2,0,L|292:44,1,70,2|2,0:0|0:0,0:0:0:0:
232,104,24345,2,0,P|200:112|162:104,1,70,2|2,0:0|0:0,0:0:0:0:
88,72,25011,6,0,P|80:116|96:160,1,70,2|2,0:0|0:0,0:0:0:0:
136,208,25678,2,0,P|172:200|224:224,1,70,2|2,0:0|0:0,0:0:0:0:
280,240,26345,2,0,L|336:308,2,70,2|2|2,0:0|0:0|0:0,0:0:0:0:
212,288,27345,1,0,1:0:0:0:
128,288,27678,6,0,L|92:224,1,70,2|2,0:0|0:0,0:0:0:0:
160,176,28345,2,0,L|108:92,1,70,2|2,0:0|0:0,0:0:0:0:
164,44,29011,2,0,L|244:44,1,70,2|2,0:0|0:0,0:0:0:0:
292,104,29678,2,0,L|364:104,1,70,2|2,0:0|0:0,0:0:0:0:
444,128,30345,6,0,L|388:192,1,70,2|2,0:0|0:0,0:0:0:0:
448,248,31011,2,0,L|392:316,1,70,2|2,0:0|0:0,0:0:0:0:
328,260,31678,2,0,L|288:184,2,70,2|2|2,0:0|0:0|0:0,0:0:0:0:
336,344,32678,1,0,1:0:0:0:
260,312,33011,6,0,L|188:176,1,140,2|2,0:0|0:0,0:0:0:0:
132,132,34011,1,0,0:0:0:0:
212,108,34345,2,0,P|284:120|376:100,1,140,2|2,0:0|0:0,0:0:0:0:
420,64,35345,1,2,0:0:0:0:
428,148,35678,6,0,L|376:208,2,70,2|2|2,0:0|0:0|0:0,0:0:0:0:
468,224,36678,1,2,0:0:0:0:
428,296,37011,2,0,P|388:304|336:280,2,70,2|2|2,0:0|0:0|0:0,0:0:0:0:
392,220,38011,1,0,1:0:0:0:
308,232,38345,6,0,L|268:168,1,70,2|2,0:0|0:0,0:0:0:0:
208,116,39011,2,0,L|136:164,1,70,2|2,0:0|0:0,0:0:0:0:
176,236,39678,2,0,L|232:316,1,70,2|2,0:0|0:0,0:0:0:0:
136,320,40345,2,0,L|92:260,1,70,2|2,0:0|0:0,0:0:0:0:
80,180,41011,6,0,L|80:96,1,70,2|2,0:0|0:0,0:0:0:0:
132,44,41678,2,0,P|172:36|216:52,1,70,2|2,0:0|0:0,0:0:0:0:
260,104,42345,2,0,L|288:28,2,70,2|2|2,0:0|0:0|0:0,0:0:0:0:
180,124,43345,1,0,1:0:0:0:
144,200,43678,6,0,B|168:240|232:232|268:200|268:200|304:236|348:240|408:196,1,280,2|2,0:0|0:0,0:0:0:0:
88,68,46345,2,0,B|88:108|16:164|184:104|96:196|216:152|212:200|188:256|160:268|116:288,1,280,2|2,0:0|0:0,0:0:0:0:
468,348,49011,6,0,B|468:280|508:248|492:228|336:352|320:332|484:192|464:168|276:292|260:260|444:152|384:152|344:176|332:144,1,280,2|2,0:0|0:0,0:0:0:0:
48,300,51678,2,0,L|116:348,2,70,2|2|2,0:0|0:0|0:0,0:0:0:0:
84,224,52678,1,0,1:0:0:0:
168,240,53011,2,0,P|256:240|296:156,1,175,2|2,0:0|0:0,0:0:0:0:
228,68,54345,6,0,L|152:104,2,70,4|0|0,1:0|1:0|1:0,0:0:0:0:
312,60,55345,1,0,1:0:0:0:
388,96,55678,2,0,P|404:168|368:256,1,140,0|0,1:0|1:0,0:0:0:0:
320,284,56678,1,0,1:0:0:0:
248,240,57011,6,0,P|204:232|160:248,1,70,0|0,1:0|1:0,0:0:0:0:
100,208,57678,2,0,P|92:248|116:296,2,70,0|0|0,1:0|1:0|1:0,0:0:0:0:
168,156,58678,2,0,L|212:96,2,70,0|0|0,1:0|1:0|1:0,0:0:0:0:
180,240,59678,5,0,1:0:0:0:
260,216,60011,2,0,L|316:140,2,70,0|0|0,1:0|1:0|1:0,0:0:0:0:
236,296,61011,1,0,1:0:0:0:
156,320,61345,2,0,L|72:320,2,70,0|0|0,1:0|1:0|1:0,0:0:0:0:
188,240,62345,6,0,L|264:240,1,70,0|0,1:0|1:0,0:0:0:0:
288,160,63011,2,0,L|192:160,1,70,0|0,1:0|1:0,0:0:0:0:
188,80,63678,2,0,L|264:80,2,70,0|0|0,1:0|1:0|1:0,0:0:0:0:
136,148,64678,1,0,1:0:0:0:
132,232,65011,6,0,L|200:300,1,70,4|0,1:0|1:0,0:0:0:0:
248,332,65678,2,0,P|288:340|324:332,1,70,0|0,1:0|1:0,0:0:0:0:
284,256,66345,2,0,P|320:252|360:264,1,70,0|0,1:0|1:0,0:0:0:0:
412,320,67011,2,0,P|432:288|432:240,1,70,0|0,1:0|1:0,0:0:0:0:
400,180,67678,6,0,L|340:116,1,70,0|0,1:0|1:0,0:0:0:0:
320,52,68345,2,0,P|352:44|392:56,2,70,0|0|0,1:0|1:0|1:0,0:0:0:0:
236,72,69345,2,0,L|236:-12,2,70,0|0|0,1:0|1:0|1:0,0:0:0:0:
164,112,70345,6,0,L|164:188,1,70,0|0,1:0|1:0,0:0:0:0:
204,256,71011,2,0,P|244:264|276:256,1,70,0|0,1:0|1:0,0:0:0:0:
344,212,71678,1,0,1:0:0:0:
348,128,72011,2,0,L|400:68,2,70,0|0|0,1:0|1:0|1:0,0:0:0:0:
268,108,73011,6,0,P|200:88|120:116,1,140,0|0,1:0|1:0,0:0:0:0:
84,176,74011,1,0,1:0:0:0:
136,240,74345,2,0,L|260:320,1,140,0|0,1:0|1:0,0:0:0:0:
336,292,75345,1,0,1:0:0:0:
384,224,75678,6,0,L|316:172,1,70,0|0,1:0|1:0,0:0:0:0:
252,216,76345,2,0,L|188:168,1,70,0|0,1:0|1:0,0:0:0:0:
116,196,77011,2,0,P|132:124|208:92,1,140,0|0,1:0|1:0,0:0:0:0:
268,80,78011,1,0,1:0:0:0:
316,148,78345,6,0,P|356:156|396:144,1,70,0|0,1:0|1:0,0:0:0:0:
460,116,79011,2,0,P|468:152|448:204,1,70,0|0,1:0|1:0,0:0:0:0:
400,240,79678,2,0,P|332:256|260:240,1,140,0|0,1:0|1:0,0:0:0:0:
188,204,80678,1,0,1:0:0:0:
116,244,81011,6,0,L|52:204,1,70,0|0,1:0|1:0,0:0:0:0:
52,124,81678,2,0,L|128:76,1,70,0|0,1:0|1:0,0:0:0:0:
188,120,82345,2,0,P|260:144|332:104,1,140,0|0,1:0|1:0,0:0:0:0:
376,60,83345,1,0,1:0:0:0:
404,140,83678,6,0,L|464:94,2,70,0|0|0,1:0|1:0|1:0,0:0:0:0:
376,220,84678,1,0,1:0:0:0:
456,248,85011,2,0,L|456:318,2,70,0|0|0,1:0|1:0|1:0,0:0:0:0:
256,192,86345,12,0,88011,0:0:0:0:
