osu file format v14

[General]
AudioFilename: audio.mp3
AudioLeadIn: 0
PreviewTime: 53984
Countdown: 1
SampleSet: Soft
StackLeniency: 0.7
Mode: 0
LetterboxInBreaks: 0
WidescreenStoryboard: 0

[Editor]
Bookmarks: 39649
DistanceSpacing: 0.6
BeatDivisor: 4
GridSize: 4
TimelineZoom: 1.4

[Metadata]
Title:Gensou Drive
TitleUnicode:Gensou Drive
Artist:Ami Wajima
ArtistUnicode:Ami Wajima
Creator:[ TPorter ]
Version:Extra
Source:Mayoiga
Tags:
BeatmapID:1001402
BeatmapSetID:468155

[Difficulty]
HPDrainRate:6
CircleSize:4.5
OverallDifficulty:8
ApproachRate:9.3
SliderMultiplier:1.9
SliderTickRate:1

[Events]
//Background and Video events
0,0,"Mayoiga-Anime-HD-Wallpapers.jpg",0,0
//Break Periods
//Storyboard Layer 0 (Background)
//Storyboard Layer 1 (Fail)
//Storyboard Layer 2 (Pass)
//Storyboard Layer 3 (Foreground)
//Storyboard Sound Samples

[TimingPoints]
645,333.370374486054,4,2,0,56,1,0
645,-153.846153846154,4,2,0,56,0,0
8312,-100,4,2,0,56,0,0

[HitObjects]
116,72,645,6,0,L|102:209,2,123.499994346619
293,161,1645,2,0,P|192:188|173:179,1,123.499994346619
252,84,2311,1,0,0:0:0:0:
252,84,2811,5,0,0:0:0:0:
329,208,2978,1,0,0:0:0:0:
182,218,3145,1,0,0:0:0:0:
252,84,3311,2,0,B|315:61|388:80|344:92|419:108|506:77,1,246.999988693238
490,178,4145,1,0,0:0:0:0:
440,259,4312,1,0,0:0:0:0:
336,248,4478,1,0,0:0:0:0:
246,143,4978,6,0,L|251:275,2,123.499994346619
85,244,6312,6,0,B|114:222|125:195|125:195|131:226|156:247,1,123.499994346619
100,331,6979,1,0,0:0:0:0:
124,241,7146,1,0,0:0:0:0:
137,148,7312,2,0,P|188:153|183:232,1,123.499994346619
142,152,8312,6,0,L|152:262,1,95
434,339,8645,1,4,0:0:0:0:
477,211,8812,1,0,0:0:0:0:
350,167,8979,1,0,0:0:0:0:
306,295,9145,1,4,0:0:0:0:
460,189,9312,2,0,L|401:84,1,95
252,160,9646,5,4,0:0:0:0:
362,279,9812,2,0,L|351:177,1,95
192,256,10146,1,4,0:0:0:0:
283,353,10312,2,0,L|274:237,1,95
240,64,10646,1,4,0:0:0:0:
105,137,10812,5,0,0:0:0:0:
111,158,10896,1,0,0:0:0:0:
115,177,10979,1,0,0:0:0:0:
121,197,11062,1,0,0:0:0:0:
127,220,11146,1,0,0:0:0:0:
133,243,11229,1,0,0:0:0:0:
138,265,11312,6,0,P|186:289|246:274,1,95
377,231,11646,1,8,0:0:0:0:
358,127,11812,1,0,0:0:0:0:
272,189,11979,2,0,P|334:195|368:176,1,95
293,74,12312,1,8,0:0:0:0:
132,191,12479,6,0,B|151:293|151:292,1,95
244,356,12813,1,0,0:0:0:0:
336,276,12980,1,8,0:0:0:0:
357,236,13063,1,0,0:0:0:0:
353,192,13146,1,0,0:0:0:0:
328,156,13230,1,0,0:0:0:0:
287,140,13313,1,0,0:0:0:0:
248,150,13396,1,0,0:0:0:0:
215,177,13480,1,0,0:0:0:0:
197,216,13563,1,0,0:0:0:0:
159,234,13646,1,0,0:0:0:0:
118,214,13730,1,0,0:0:0:0:
103,172,13813,1,0,0:0:0:0:
119,130,13896,1,0,0:0:0:0:
155,101,13979,6,0,P|198:91|252:136,1,95
251,314,14313,1,8,0:0:0:0:
235,216,14479,1,0,0:0:0:0:
418,255,14646,2,0,P|348:273|311:263,1,95
353,169,14979,1,8,0:0:0:0:
108,281,15146,6,0,B|128:229|191:221|177:241|248:219|253:159,1,190,4|0,0:0|0:0,0:0:0:0:
412,86,15646,2,0,P|416:157|385:172,1,95,4|0,0:0|0:0,0:0:0:0:
284,321,15980,1,0,0:0:0:0:
287,301,16063,1,0,0:0:0:0:
292,281,16146,1,0,0:0:0:0:
296,264,16230,1,0,0:0:0:0:
300,245,16313,1,0,0:0:0:0:
304,228,16396,1,0,0:0:0:0:
308,212,16480,1,0,0:0:0:0:
312,196,16563,1,0,0:0:0:0:
317,175,16646,5,8,0:0:0:0:
212,279,16813,1,0,0:0:0:0:
111,134,16980,1,8,0:0:0:0:
263,224,17146,1,0,0:0:0:0:
268,64,17313,1,8,0:0:0:0:
183,189,17480,1,0,0:0:0:0:
388,240,17646,1,8,0:0:0:0:
259,147,17813,1,0,0:0:0:0:
219,326,17980,5,8,0:0:0:0:
307,209,18146,1,0,0:0:0:0:
106,193,18313,1,8,0:0:0:0:
256,268,18480,1,0,0:0:0:0:
265,82,18647,1,8,0:0:0:0:
192,221,18813,1,0,0:0:0:0:
48,77,18980,1,8,0:0:0:0:
194,146,19147,1,0,0:0:0:0:
93,266,19313,6,0,P|83:189|110:161,1,95,8|0,0:0|0:0,0:0:0:0:
286,200,19647,2,0,L|173:219,1,95,8|0,0:0|0:0,0:0:0:0:
190,44,19980,1,8,0:0:0:0:
243,299,20147,1,0,0:0:0:0:
4,232,20313,1,8,0:0:0:0:
190,54,20480,6,0,L|202:161,1,95,4|0,0:0|0:0,0:0:0:0:
280,292,20813,2,0,L|268:185,1,95,4|0,0:0|0:0,0:0:0:0:
124,80,21147,1,4,0:0:0:0:
352,240,21313,1,0,0:0:0:0:
344,220,21397,1,0,0:0:0:0:
336,200,21480,1,4,0:0:0:0:
108,232,21647,1,4,0:0:0:0:
460,152,21814,1,4,0:0:0:0:
60,248,21980,6,0,L|80:348,1,95
192,260,22314,2,0,L|168:156,1,95,2|0,0:0|0:0,0:0:0:0:
144,344,22647,1,0,0:0:0:0:
296,344,22814,1,0,0:0:0:0:
404,244,22980,6,0,P|336:220|304:232,1,95,2|0,0:0|0:0,0:0:0:0:
172,272,23314,2,0,L|292:296,1,95
360,184,23647,2,0,L|248:164,1,95,2|0,0:0|0:0,0:0:0:0:
412,280,23980,1,0,0:0:0:0:
432,144,24147,1,0,0:0:0:0:
336,56,24314,6,0,P|300:112|316:164,1,95,2|0,0:0|0:0,0:0:0:0:
404,248,24647,2,0,L|420:144,1,95
252,208,24981,1,2,0:0:0:0:
88,276,25147,2,0,P|152:320|184:312,1,95
292,280,25481,2,0,P|228:236|196:244,1,95,0|2,0:0|0:0,0:0:0:0:
244,352,25814,1,0,0:0:0:0:
420,304,25981,6,0,L|408:200,1,95
272,140,26314,2,0,L|280:260,1,95,2|0,0:0|0:0,0:0:0:0:
400,100,26647,2,0,P|344:72|296:80,1,95
152,144,26981,2,0,P|208:172|256:163,1,95,2|0,0:0|0:0,0:0:0:0:
216,72,27314,5,0,0:0:0:0:
184,240,27480,1,0,0:0:0:0:
400,200,27648,1,2,0:0:0:0:
176,164,27815,1,0,0:0:0:0:
264,320,27981,2,0,P|296:256|288:220,2,95,0|0|2,0:0|0:0|0:0,0:0:0:0:
84,268,28481,6,0,P|148:244|200:264,1,95
300,308,28814,2,0,P|236:332|184:312,1,95,0|2,0:0|0:0,0:0:0:0:
144,168,29148,5,0,0:0:0:0:
184,304,29314,1,0,0:0:0:0:
332,236,29481,1,0,0:0:0:0:
152,240,29648,1,2,0:0:0:0:
292,372,29814,1,0,0:0:0:0:
284,220,29981,6,0,P|344:244|392:232,2,95,0|0|2,0:0|0:0|0:0,0:0:0:0:
368,80,30481,2,0,L|348:180,2,95
456,176,30981,1,2,0:0:0:0:
256,224,31148,6,0,P|316:180|360:192,1,95
444,232,31481,2,0,P|384:276|340:263,1,95,0|2,0:0|0:0,0:0:0:0:
224,160,31815,5,0,0:0:0:0:
288,352,31981,1,0,0:0:0:0:
360,112,32148,1,0,0:0:0:0:
180,344,32315,1,2,0:0:0:0:
172,104,32481,1,0,0:0:0:0:
360,304,32648,6,0,L|256:248,1,95
192,88,32981,1,2,0:0:0:0:
184,228,33148,1,0,0:0:0:0:
284,139,33315,1,0,0:0:0:0:
59,158,33481,1,0,0:0:0:0:
128,312,33648,6,0,P|208:292|228:272,1,95,2|0,0:0|0:0,0:0:0:0:
344,192,33982,1,0,0:0:0:0:
388,348,34149,1,0,0:0:0:0:
240,288,34315,1,2,0:0:0:0:
485,260,34482,1,0,0:0:0:0:
338,127,34648,1,0,0:0:0:0:
409,357,34815,1,0,0:0:0:0:
476,200,34982,6,0,L|360:188,1,95,2|0,0:0|0:0,0:0:0:0:
236,272,35315,2,0,P|288:300|340:288,2,95,0|0|2,0:0|0:0|0:0,0:0:0:0:
284,88,35815,1,0,0:0:0:0:
324,228,35982,1,0,0:0:0:0:
128,184,36149,1,0,0:0:0:0:
428,148,36315,1,2,0:0:0:0:
264,336,36482,6,0,P|232:268|256:228,1,95
440,224,36815,2,0,L|336:248,1,95,0|2,0:0|0:0,0:0:0:0:
264,80,37149,6,0,P|296:148|272:188,1,95
84,172,37482,2,0,L|188:147,2,95,0|2|0,0:0|0:0|0:0,0:0:0:0:
148,285,37982,5,0,0:0:0:0:
222,118,38149,1,0,0:0:0:0:
322,279,38315,1,2,0:0:0:0:
75,175,38482,1,0,0:0:0:0:
75,335,38649,1,0,0:0:0:0:
172,108,38815,1,0,0:0:0:0:
48,171,38982,1,2,0:0:0:0:
286,295,39149,1,0,0:0:0:0:
248,116,39315,6,0,P|224:184|248:220,1,95
408,296,39649,2,0,P|349:253|308:265,1,95,2|0,0:0|0:0,0:0:0:0:
168,356,39982,2,0,P|230:319|234:276,2,95,0|0|2,0:0|0:0|0:0,0:0:0:0:
128,228,40482,1,0,0:0:0:0:
252,72,40649,6,0,L|264:192,1,95
432,128,40982,1,2,0:0:0:0:
356,336,41149,2,0,P|396:304|396:224,1,95
200,224,41482,2,0,P|240:272|292:272,1,95,0|2,0:0|0:0,0:0:0:0:
348,200,41816,1,0,0:0:0:0:
156,344,41982,5,4,0:0:0:0:
220,208,42149,1,0,0:0:0:0:
72,240,42316,1,0,0:0:0:0:
296,324,42482,1,4,0:0:0:0:
256,112,42649,1,0,0:0:0:0:
44,148,42816,1,0,0:0:0:0:
176,240,42983,1,4,0:0:0:0:
172,223,43066,1,0,0:0:0:0:
168,208,43149,1,0,0:0:0:0:
164,192,43233,1,0,0:0:0:0:
160,176,43316,6,4,P|268:196|280:232,2,142.5,6|4|6,0:0|0:0|0:0,0:0:0:0:
164,352,43983,2,0,L|196:248,1,95
320,324,44316,1,0,0:0:0:0:
416,264,44483,1,0,0:0:0:0:
336,192,44649,5,0,0:0:0:0:
320,200,44732,1,0,0:0:0:0:
304,208,44816,1,0,0:0:0:0:
288,216,44899,2,0,L|316:264,1,47.5
280,200,45066,1,0,0:0:0:0:
272,188,45149,1,0,0:0:0:0:
264,176,45233,1,0,0:0:0:0:
256,164,45316,2,0,L|196:140,1,47.5
104,264,45483,6,0,L|168:296,1,47.5
336,280,45650,2,0,L|268:252,1,47.5
192,144,45816,2,0,L|168:200,1,47.5
80,328,45983,6,4,P|148:344|208:284,2,142.5
112,176,46650,2,0,L|132:288,1,95
332,192,46983,2,0,P|260:164|296:256,1,190
384,328,47483,5,0,0:0:0:0:
388,168,47650,1,0,0:0:0:0:
224,248,47816,1,0,0:0:0:0:
448,256,47983,1,0,0:0:0:0:
348,100,48150,1,0,0:0:0:0:
356,284,48316,1,0,0:0:0:0:
208,68,48483,1,0,0:0:0:0:
306,167,48650,6,4,P|228:181|220:246,2,142.5
354,342,49317,2,0,L|297:247,1,95
163,179,49650,1,0,0:0:0:0:
130,338,49817,1,0,0:0:0:0:
276,281,49983,2,0,L|204:300,2,63.3333333333333
317,259,50317,2,0,L|264:311,2,63.3333333333333
343,219,50650,2,0,L|323:291,2,63.3333333333333
352,174,50983,1,0,0:0:0:0:
331,177,51095,1,0,0:0:0:0:
312,182,51206,1,0,0:0:0:0:
292,186,51317,6,4,P|207:198|161:157,2,142.5
249,56,51984,2,0,L|224:157,1,95
246,347,52317,2,0,L|274:235,1,95
125,253,52650,1,0,0:0:0:0:
122,271,53317,1,0,0:0:0:0:
