osu file format v14

[General]
AudioFilename: audio.mp3
AudioLeadIn: 0
PreviewTime: 65277
Countdown: 0
SampleSet: Soft
StackLeniency: 0.8
Mode: 0
LetterboxInBreaks: 0
WidescreenStoryboard: 1

[Editor]
DistanceSpacing: 0.9
BeatDivisor: 4
GridSize: 32
TimelineZoom: 2.000001

[Metadata]
Title:The World: Stars, Skies, and Paths
TitleUnicode:世界、星と空と道と
Artist:Ami
ArtistUnicode:亜美
Creator:Dubturt
Version:Normal
Source:ソフィーのアトリエ ~不思議な本の錬金術士~
Tags:atelier sophie: the alchemist of the mysterious book opening 2 gust jrpg koeitecmo sekai hoshito sorato michito hayato asano tetsu shirakawa katzuya shimizu takuma sasaki lucifa mari yoshida kazuki yanagawa
BeatmapID:1505925
BeatmapSetID:712391

[Difficulty]
HPDrainRate:4
CircleSize:3.5
OverallDifficulty:4
ApproachRate:5
SliderMultiplier:1.1
SliderTickRate:1

[Events]
//Background and Video events
0,0,"Atelier-Sophie-Title-Image.jpg",0,0
Video,394,"atelier sophie.mp4"
//Break Periods
2,44512,52657
//Storyboard Layer 0 (Background)
//Storyboard Layer 1 (Fail)
//Storyboard Layer 2 (Pass)
//Storyboard Layer 3 (Foreground)
//Storyboard Sound Samples

[TimingPoints]
-688,340.909090909091,4,2,1,50,1,0
448,-100,4,2,1,25,0,0
675,340.909090909091,4,2,1,50,1,0
675,-100,4,2,2,35,0,0
8856,-100,4,2,1,40,0,0
10220,-100,4,2,1,45,0,0
11584,-100,4,2,1,60,0,0
22493,-100,4,2,1,55,0,0
44311,-100,4,2,1,30,0,0
45334,-100,4,2,1,30,0,0
53856,-100,4,2,1,55,0,0
66129,-100,4,2,1,70,0,1
87947,-100,4,2,1,60,0,0
90675,-100,4,2,1,30,0,0
92038,-100,4,2,1,15,0,0
93402,-100,4,2,1,5,0,0

[Colours]
Combo1 : 178,178,178
Combo2 : 149,0,74
Combo3 : 140,140,198
Combo4 : 140,27,6

[HitObjects]
439,94,675,6,0,P|375:78|318:109,1,110,2|0,0:0|0:0,0:0:0:0:
387,177,1357,2,0,P|323:193|266:162,1,110,0|0,0:0|0:0,0:0:0:0:
202,120,2039,2,0,P|179:187|210:240,2,110,2|0|0,0:0|0:0|0:0,0:0:0:0:
281,61,3062,1,0,0:0:0:0:
378,73,3402,6,0,B|396:104|396:104|396:192,1,110,2|0,0:0|0:0,0:0:0:0:
303,141,4084,2,0,B|285:172|285:172|285:260,1,110,0|0,0:0|0:0,0:0:0:0:
353,318,4766,2,0,L|485:326,2,110,2|0|0,0:0|0:0|0:0,0:0:0:0:
254,349,5789,1,0,0:0:0:0:
154,346,6130,6,0,P|134:288|156:225,1,110,2|0,0:0|0:0,0:0:0:0:
223,181,6812,2,0,P|276:197|336:169,1,110,0|0,0:0|0:0,0:0:0:0:
275,93,7493,2,0,P|328:77|388:105,1,110,2|0,0:0|0:0,0:0:0:0:
453,159,8175,2,0,P|433:217|448:266,1,110,0|0,0:0|0:0,0:0:0:0:
382,339,8857,6,0,B|338:320|338:320|277:343,1,110,2|2,0:0|0:0,0:0:0:0:
307,246,9539,2,0,B|243:266|243:266|199:247,1,110,2|2,0:0|0:0,0:0:0:0:
158,337,10221,2,0,P|105:271|177:155,1,220,4|0,0:1|0:0,0:0:0:0:
258,170,11243,1,8,0:0:0:0:
311,86,11584,6,0,P|378:68|432:93,1,110,4|2,0:0|0:0,0:0:0:0:
452,112,12096,1,8,0:0:0:0:
478,207,12437,1,8,0:0:0:0:
422,288,12777,2,0,L|295:303,1,110,8|8,0:0|0:0,0:0:0:0:
275,333,13289,2,0,P|281:268|275:202,1,110,8|2,0:0|0:0,0:0:0:0:
215,146,13971,1,8,0:0:0:0:
215,146,14312,6,0,L|90:172,1,110,2|2,0:0|0:0,0:0:0:0:
58,162,14823,1,8,0:0:0:0:
28,67,15164,1,8,0:0:0:0:
119,29,15505,2,0,B|179:37|179:37|248:21,1,110,8|8,0:0|0:0,0:0:0:0:
276,23,16016,2,0,P|273:89|281:150,1,110,8|2,0:0|0:0,0:0:0:0:
343,207,16698,1,4,0:0:0:0:
343,207,17039,6,0,L|217:219,1,110,2|2,0:0|0:0,0:0:0:0:
184,212,17550,1,8,0:0:0:0:
132,296,17891,1,8,0:0:0:0:
217,346,18232,2,0,B|256:331|256:331|339:353,1,110,8|8,0:0|0:0,0:0:0:0:
369,363,18743,2,0,P|364:296|367:251,1,110,8|2,0:0|0:0,0:0:0:0:
433,183,19425,1,8,0:0:0:0:
433,183,19766,6,0,P|440:110|421:56,2,110,4|2|2,0:0|0:0|0:0,0:0:0:0:
346,133,20789,1,0,0:0:0:0:
263,78,21130,2,0,P|251:131|260:185,2,110,2|2|2,0:0|0:0|0:0,0:0:0:0:
346,133,22152,1,2,0:0:0:0:
371,230,22493,5,4,0:0:0:0:
302,301,22834,2,0,B|274:324|274:324|180:324,1,110,2|2,0:0|0:0,0:0:0:0:
106,292,23516,2,0,P|103:256|113:214,1,55,2|0,0:0|0:0,0:0:0:0:
125,192,23857,2,0,P|132:147|113:78,2,110,2|2|2,0:0|0:0|0:0,0:0:0:0:
203,252,24880,2,0,L|283:251,1,55,2|0,0:0|0:0,0:0:0:0:
304,233,25221,6,0,L|436:240,2,110,2|2|2,0:0|0:0|0:0,0:0:0:0:
225,172,26243,2,0,P|226:125|220:103,1,55,2|0,0:0|0:0,0:0:0:0:
192,79,26584,2,0,L|60:86,2,110,2|2|2,0:0|0:0|0:0,0:0:0:0:
277,29,27607,2,0,L|349:33,1,55,2|0,0:0|0:0,0:0:0:0:
378,49,27948,5,2,0:0:0:0:
461,101,28289,2,0,B|480:133|480:133|480:228,1,110,2|2,0:0|0:0,0:0:0:0:
416,281,28971,2,0,P|386:284|356:280,1,55,2|0,0:0|0:0,0:0:0:0:
318,256,29312,2,0,P|272:249|198:266,2,110,2|2|2,0:0|0:0|0:0,0:0:0:0:
377,176,30334,2,0,L|377:118,1,55,2|0,0:0|0:0,0:0:0:0:
395,74,30675,6,0,P|441:81|515:64,2,110,2|2|2,0:0|0:0|0:0,0:0:0:0:
302,37,31698,1,2,0:0:0:0:
210,73,32039,1,2,0:0:0:0:
22,234,32891,2,0,L|23:300,1,55,2|8,0:0|0:0,0:0:0:0:
113,329,33402,6,0,L|231:316,1,110,4|2,0:0|0:0,0:0:0:0:
271,323,33914,1,0,0:0:0:0:
319,333,34084,2,0,P|312:284|323:213,1,110,0|8,0:0|0:0,0:0:0:0:
282,132,34766,2,0,P|286:90|277:58,2,55,2|2|8,0:0|0:0|0:0,0:0:0:0:
246,166,35277,2,0,P|178:164|113:170,1,110,0|2,0:0|0:0,0:0:0:0:
90,187,35789,2,0,P|87:241|89:263,1,55,8|0,0:0|0:0,0:0:0:0:
112,284,36130,5,2,0:0:0:0:
195,336,36471,1,8,0:0:0:0:
239,314,36641,2,0,B|275:298|275:298|362:320,1,110,0|2,0:0|0:0,0:0:0:0:
431,268,37323,2,0,L|439:197,1,55,0|2,0:0|0:0,0:0:0:0:
370,139,37834,2,0,P|359:86|380:15,2,110,8|0|8,0:0|0:0|0:0,0:0:0:0:
437,213,38857,5,2,0:0:0:0:
354,268,39198,1,8,0:0:0:0:
264,226,39539,2,0,P|214:212|147:238,1,110,0|8,0:0|0:0,0:0:0:0:
93,302,40221,2,0,P|105:251|78:184,1,110,2|8,0:0|0:0,0:0:0:0:
10,136,40902,2,0,P|61:146|126:117,1,110,0|8,0:0|0:0,0:0:0:0:
179,52,41584,5,2,0:0:0:0:
275,29,41925,1,8,0:0:0:0:
301,70,42095,2,0,P|352:75|417:68,2,110,0|2|2,0:0|0:0|0:0,0:0:0:0:
277,114,42948,2,0,B|263:167|263:167|276:234,1,110,2|8,0:0|0:0,0:0:0:0:
343,291,43630,2,0,L|410:291,2,55,2|2|8,0:0|0:0|0:0,0:0:0:0:
257,341,44312,5,6,0:0:0:0:
166,80,53857,5,10,0:0:0:0:
254,35,54198,1,8,0:0:0:0:
345,73,54539,2,0,P|358:140|350:192,1,110,8|4,0:0|0:1,0:0:0:0:
256,204,55221,6,0,L|256:330,2,110,2|2|2,0:0|0:0|0:0,0:0:0:0:
167,160,56243,1,2,0:0:0:0:
256,118,56584,2,0,L|256:-8,2,110,2|2|2,0:0|0:0|0:0,0:0:0:0:
345,160,57607,1,2,0:0:0:0:
310,252,57948,6,0,P|278:294|225:308,1,110,2|2,0:0|0:0,0:0:0:0:
126,295,58630,2,0,P|83:263|69:210,1,110,2|2,0:0|0:0,0:0:0:0:
83,112,59312,2,0,P|114:69|167:55,1,110,2|2,0:0|0:0,0:0:0:0:
267,69,59994,2,0,P|309:100|323:153,1,110,2|2,0:0|0:0,0:0:0:0:
224,156,60675,5,4,0:0:0:0:
224,156,62039,1,0,0:0:0:0:
256,192,63402,12,2,64766,3:2:0:0:
209,140,65448,6,0,P|253:118|316:151,1,110,0|0,3:0|3:0,0:0:0:0:
399,175,66130,6,0,L|406:40,1,110,4|8,0:0|0:0,0:0:0:0:
307,38,66812,1,2,0:0:0:0:
306,138,67152,1,8,0:0:0:0:
337,231,67493,2,0,L|340:293,1,55,2|0,0:0|0:0,0:0:0:0:
317,330,67834,1,8,0:0:0:0:
269,346,68005,2,0,P|218:335|156:354,1,110,2|0,0:0|3:0,0:0:0:0:
120,259,68687,6,0,P|166:236|204:183,1,110,2|2,0:0|0:0,0:0:0:0:
225,147,69198,1,8,0:0:0:0:
286,69,69539,2,0,P|322:59|408:74,1,110,0|8,0:0|0:0,0:0:0:0:
467,136,70221,2,0,P|477:190|464:258,1,110,2|8,0:0|0:0,0:0:0:0:
446,288,70732,1,10,0:0:0:0:
355,247,71073,1,10,0:0:0:0:
276,307,71414,6,0,L|147:320,1,110,6|2,0:0|0:0,0:0:0:0:
117,323,71925,2,0,P|123:280|110:205,1,110,8|2,0:0|0:0,0:0:0:0:
84,173,72437,1,2,0:0:0:0:
129,85,72777,2,0,P|169:75|254:88,1,110,2|2,0:0|0:0,0:0:0:0:
274,113,73289,2,0,P|307:116|341:109,1,55,8|2,0:0|0:0,0:0:0:0:
408,54,73800,1,2,0:0:0:0:
434,95,73971,2,0,L|436:174,1,55,8|0,0:0|0:0,0:0:0:0:
409,192,74312,6,0,B|403:241|403:241|416:314,1,110,2|8,0:0|0:0,0:0:0:0:
370,325,74823,2,0,B|320:319|320:319|247:332,1,110,0|2,0:0|0:0,0:0:0:0:
162,336,75505,2,0,P|164:277|157:207,1,110,2|2,0:0|0:0,0:0:0:0:
129,186,76016,1,8,0:0:0:0:
206,125,76357,2,0,P|245:106|322:141,1,110,8|8,0:0|0:0,0:0:0:0:
394,169,77039,6,0,L|387:38,1,110,4|8,0:0|0:0,0:0:0:0:
294,25,77721,1,2,0:0:0:0:
237,106,78062,1,8,0:0:0:0:
256,202,78402,2,0,L|264:266,1,55,2|0,0:0|0:0,0:0:0:0:
288,298,78743,1,8,0:0:0:0:
330,324,78914,2,0,P|378:306|445:331,1,110,2|0,0:0|3:0,0:0:0:0:
465,232,79596,6,0,P|415:210|388:163,1,110,4|2,0:0|0:0,0:0:0:0:
360,122,80107,1,8,0:0:0:0:
282,60,80448,2,0,B|243:47|243:47|159:71,1,110,0|8,0:0|0:0,0:0:0:0:
78,54,81130,2,0,L|74:187,1,110,2|8,0:0|0:0,0:0:0:0:
50,207,81641,1,10,0:0:0:0:
113,283,81982,1,10,0:0:0:0:
195,220,82323,6,0,P|250:198|307:232,1,110,6|2,0:0|0:0,0:0:0:0:
336,242,82834,2,0,L|338:115,1,110,8|2,0:0|0:0,0:0:0:0:
350,83,83346,1,2,0:0:0:0:
437,36,83687,2,0,B|452:71|452:71|451:169,1,110,2|2,0:0|0:0,0:0:0:0:
448,192,84198,1,8,0:0:0:0:
425,235,84368,2,0,P|366:237|306:256,1,110,2|2,0:0|0:0,0:0:0:0:
278,282,84880,1,8,0:0:0:0:
189,326,85221,6,0,P|191:271|186:198,1,110,2|8,0:0|0:0,0:0:0:0:
156,177,85732,2,0,P|153:122|156:67,1,110,0|2,0:0|0:0,0:0:0:0:
242,18,86414,2,0,B|295:12|295:12|361:32,1,110,2|2,0:0|0:0,0:0:0:0:
382,65,86925,2,0,P|374:100|376:133,1,55,8|2,0:0|0:0,0:0:0:0:
341,156,87266,2,0,B|288:162|288:162|233:145,1,110,8|8,0:0|0:0,0:0:0:0:
158,81,87948,6,0,L|144:154,1,55,10|10,0:0|0:0,0:0:0:0:
53,165,88459,2,0,L|62:239,1,55,10|10,0:0|0:0,0:0:0:0:
10,306,88971,2,0,L|40:369,1,55,10|4,0:0|0:1,0:0:0:0:
256,192,89312,12,0,93402,0:0:0:0:
