osu file format v14

[General]
AudioFilename: audio.mp3
AudioLeadIn: 0
PreviewTime: 65277
Countdown: 0
SampleSet: Soft
StackLeniency: 0.7
Mode: 0
LetterboxInBreaks: 0
WidescreenStoryboard: 1

[Editor]
Bookmarks: 9432
DistanceSpacing: 1
BeatDivisor: 4
GridSize: 32
TimelineZoom: 2.000001

[Metadata]
Title:The World: Stars, Skies, and Paths
TitleUnicode:世界、星と空と道と
Artist:Ami
ArtistUnicode:亜美
Creator:Dubturt
Version:Hard
Source:ソフィーのアトリエ ~不思議な本の錬金術士~
Tags:atelier sophie: the alchemist of the mysterious book opening 2 gust jrpg koeitecmo sekai hoshito sorato michito hayato asano tetsu shirakawa katzuya shimizu takuma sasaki lucifa mari yoshida kazuki yanagawa
BeatmapID:1505923
BeatmapSetID:712391

[Difficulty]
HPDrainRate:5
CircleSize:3.6
OverallDifficulty:6
ApproachRate:7.5
SliderMultiplier:1.5
SliderTickRate:1

[Events]
//Background and Video events
0,0,"Atelier-Sophie-Title-Image.jpg",0,0
Video,394,"atelier sophie.mp4"
//Break Periods
//Storyboard Layer 0 (Background)
//Storyboard Layer 1 (Fail)
//Storyboard Layer 2 (Pass)
//Storyboard Layer 3 (Foreground)
//Storyboard Sound Samples

[TimingPoints]
-688,340.909090909091,4,2,1,50,1,0
448,-100,4,2,1,25,0,0
675,340.909090909091,4,2,1,50,1,0
675,-125,4,2,2,35,0,0
8856,-125,4,2,1,40,0,0
10220,-125,4,2,1,45,0,0
11584,-100,4,2,1,60,0,0
22493,-111.111111111111,4,2,1,55,0,0
44311,-111.111111111111,4,2,1,30,0,0
53856,-111.111111111111,4,2,1,55,0,0
66129,-90.9090909090909,4,2,1,70,0,1
87947,-90.9090909090909,4,2,1,60,0,0
90675,-90.9090909090909,4,2,1,30,0,0
92038,-90.9090909090909,4,2,1,15,0,0
93402,-90.9090909090909,4,2,1,5,0,0

[Colours]
Combo1 : 178,178,178
Combo2 : 149,0,74
Combo3 : 140,140,198
Combo4 : 140,27,6

[HitObjects]
65,333,675,6,0,P|126:340|210:328,1,120,2|0,0:0|0:0,0:0:0:0:
214,219,1357,2,0,P|273:212|333:217,1,120
426,302,2039,6,0,L|434:165,2,120,2|0|0,0:0|0:0|0:0,0:0:0:0:
332,372,3062,1,0,0:0:0:0:
200,303,3402,6,0,P|149:294|63:299,1,120,2|0,0:0|0:0,0:0:0:0:
7,215,4084,2,0,P|-2:164|3:78,1,120
120,41,4766,6,0,P|174:22|251:55,2,120,2|0|0,0:0|0:0|0:0,0:0:0:0:
177,161,5789,1,0,0:0:0:0:
261,121,5959,1,0,3:0:0:0:
261,121,6044,1,0,3:0:0:0:
261,121,6130,6,0,L|267:260,1,120,2|0,0:0|0:0,0:0:0:0:
325,310,6641,1,0,0:0:0:0:
325,310,6812,2,0,P|271:294|200:339,1,120,0|0,0:0|0:0,0:0:0:0:
164,377,7323,1,0,0:0:0:0:
164,377,7493,6,0,P|163:317|123:263,1,120,2|0,0:0|0:0,0:0:0:0:
68,221,8005,1,0,0:0:0:0:
68,221,8175,2,0,L|216:218,1,120,0|0,0:0|0:0,0:0:0:0:
308,28,8857,6,0,P|313:62|307:93,1,60,2|0,0:0|0:0,0:0:0:0:
215,82,9197,2,0,P|210:116|216:147,1,60,2|0,0:0|0:0,0:0:0:0:
329,177,9539,2,0,L|346:250,1,60,2|0,0:0|0:0,0:0:0:0:
191,237,9879,2,0,L|171:312,1,60,2|0,0:0|0:0,0:0:0:0:
241,346,10221,6,0,L|102:356,2,120,4|0|0,0:1|0:0|0:0,0:0:0:0:
361,351,11073,1,0,3:0:0:0:
361,351,11158,1,0,3:0:0:0:
361,351,11243,2,0,L|374:271,1,60,8|0,0:0|0:0,0:0:0:0:
348,158,11584,6,0,P|297:138|218:191,1,150,4|2,0:0|0:0,0:0:0:0:
190,262,12096,2,0,P|180:110|173:83,1,150,8|8,0:0|0:0,0:0:0:0:
94,57,12607,1,2,0:0:0:0:
179,9,12777,6,0,L|341:23,1,150,8|8,0:0|0:0,0:0:0:0:
412,88,13289,2,0,P|422:153|416:193,1,75,8|0,0:0|3:0,0:0:0:0:
325,139,13630,2,0,P|315:204|321:244,1,75,2|0,0:0|0:0,0:0:0:0:
412,275,13971,1,8,0:0:0:0:
412,275,14312,6,0,B|353:262|353:262|251:280,1,150,2|2,0:0|0:0,0:0:0:0:
179,368,14823,2,0,P|184:287|178:203,1,150,8|8,0:0|0:0,0:0:0:0:
132,125,15334,1,2,0:0:0:0:
235,61,15505,6,0,B|276:50|276:50|398:79,1,150,8|8,0:0|0:0,0:0:0:0:
360,173,16016,2,0,L|261:148,1,75,8|0,0:0|3:0,0:0:0:0:
250,161,16272,1,0,3:0:0:0:
250,161,16357,2,0,P|242:227|256:268,1,75,2|0,0:0|0:0,0:0:0:0:
311,355,16698,1,4,0:0:0:0:
311,355,17039,6,0,B|355:327|355:327|468:355,1,150,2|2,0:0|0:0,0:0:0:0:
512,240,17550,2,0,B|468:268|468:268|355:240,1,150,8|8,0:0|0:0,0:0:0:0:
285,164,18062,1,2,0:0:0:0:
331,72,18232,6,0,P|388:45|472:84,1,150,8|8,0:0|0:0,0:0:0:0:
396,152,18743,2,0,L|316:151,1,75,8|0,0:0|3:0,0:0:0:0:
285,164,18999,1,0,3:0:0:0:
251,179,19084,2,0,L|161:182,1,75,2|0,0:0|0:0,0:0:0:0:
92,262,19425,2,0,L|75:152,1,75,8|0,0:0|0:0,0:0:0:0:
8,86,19766,6,0,P|47:54|144:98,1,150,4|2,0:0|0:0,0:0:0:0:
228,207,20448,2,0,P|267:239|364:195,1,150,2|0,0:0|0:0,0:0:0:0:
438,30,21130,6,0,L|448:141,1,75,2|0,0:0|3:0,0:0:0:0:
460,138,21385,1,0,3:0:0:0:
460,138,21471,2,0,L|467:231,1,75,2|0,0:0|0:0,0:0:0:0:
421,307,21812,1,2,0:0:0:0:
347,243,21982,1,2,0:0:0:0:
292,343,22153,1,2,0:0:0:0:
292,343,22493,6,0,L|142:347,1,134.999995880127,4|2,0:0|0:0,0:0:0:0:
106,263,23005,1,0,0:0:0:0:
166,195,23175,2,0,P|200:191|246:198,1,67.4999979400635,2|0,0:0|0:0,0:0:0:0:
314,245,23516,2,0,L|314:166,1,67.4999979400635,2|0,0:0|0:0,0:0:0:0:
257,66,23857,6,0,B|234:104|234:104|233:208,1,134.999995880127,2|2,0:0|0:0,0:0:0:0:
314,245,24368,1,0,0:0:0:0:
390,189,24539,2,0,P|394:145|392:120,1,67.4999979400635,2|0,0:0|0:0,0:0:0:0:
474,48,24880,2,0,P|471:88|480:143,1,67.4999979400635,2|0,0:0|0:0,0:0:0:0:
476,199,25221,6,0,P|503:261|476:347,1,134.999995880127,2|2,0:0|0:0,0:0:0:0:
408,272,25732,1,0,0:0:0:0:
328,223,25902,2,0,P|320:168|339:136,1,67.4999979400635,2|0,0:0|0:0,0:0:0:0:
362,86,26243,2,0,P|307:78|275:97,1,67.4999979400635,2|0,0:0|0:0,0:0:0:0:
213,164,26584,6,0,L|214:9,2,134.999995880127,2|2|2,0:0|0:0|0:0,0:0:0:0:
173,293,27607,2,0,L|92:312,1,67.4999979400635,2|0,0:0|0:0,0:0:0:0:
21,226,27948,5,2,0:0:0:0:
21,226,28289,2,0,L|23:73,1,134.999995880127,2|2,0:0|0:0,0:0:0:0:
101,37,28800,1,0,0:0:0:0:
101,37,28971,2,0,B|135:26|135:26|178:35,1,67.4999979400635,2|0,0:0|0:0,0:0:0:0:
241,100,29312,5,2,0:0:0:0:
329,43,29482,1,0,0:0:0:0:
396,121,29652,2,0,P|406:173|383:258,1,134.999995880127,2|2,0:0|0:0,0:0:0:0:
235,347,30334,2,0,L|229:260,1,67.4999979400635,2|0,0:0|0:0,0:0:0:0:
150,211,30675,6,0,P|142:165|152:126,1,67.4999979400635,2|0,0:0|0:0,0:0:0:0:
206,79,31016,2,0,P|263:80|296:64,1,67.4999979400635,2|0,0:0|0:0,0:0:0:0:
356,29,31357,2,0,P|402:24|446:46,1,67.4999979400635,2|0,0:0|0:0,0:0:0:0:
486,98,31698,2,0,P|490:163|483:195,1,67.4999979400635,2|0,0:0|0:0,0:0:0:0:
423,258,32039,5,2,0:0:0:0:
423,258,32891,1,2,0:0:0:0:
358,336,33062,1,8,0:0:0:0:
220,349,33402,6,0,P|195:296|218:215,1,134.999995880127,4|2,0:0|0:0,0:0:0:0:
290,171,33914,1,0,0:0:0:0:
290,171,34084,2,0,P|300:128|282:84,1,67.4999979400635,0|2,0:0|0:0,0:0:0:0:
213,31,34425,1,8,0:0:0:0:
145,115,34596,1,2,0:0:0:0:
65,39,34766,6,0,P|24:33|-16:47,2,67.4999979400635,2|2|8,0:0|0:0|0:0,0:0:0:0:
145,115,35277,2,0,P|221:131|295:100,1,134.999995880127,0|2,0:0|0:0,0:0:0:0:
354,63,35789,1,8,0:0:0:0:
427,145,35959,1,0,0:0:0:0:
370,238,36130,6,0,B|295:244|295:244|236:208,1,134.999995880127,2|8,0:0|0:0,0:0:0:0:
312,324,36641,2,0,B|386:317|386:317|445:353,1,134.999995880127,0|2,0:0|0:0,0:0:0:0:
499,262,37152,2,0,P|500:204|499:165,1,67.4999979400635,8|0,0:0|0:0,0:0:0:0:
494,93,37493,5,2,0:0:0:0:
494,93,37834,2,0,P|451:89|420:97,1,67.4999979400635,8|0,0:0|0:0,0:0:0:0:
350,141,38175,2,0,P|345:184|353:215,1,67.4999979400635,0|2,0:0|0:0,0:0:0:0:
391,299,38516,1,8,0:0:0:0:
391,299,38857,6,0,B|356:337|356:337|243:339,1,134.999995880127,2|8,0:0|0:0,0:0:0:0:
94,355,39539,2,0,L|83:263,1,67.4999979400635,0|0,0:0|0:0,0:0:0:0:
13,231,39880,2,0,L|31:133,1,67.4999979400635,8|0,0:0|0:0,0:0:0:0:
104,92,40221,6,0,P|164:77|253:99,2,134.999995880127,2|8|0,0:0|0:0|0:0,0:0:0:0:
25,164,41073,1,2,0:0:0:0:
25,164,41243,2,0,L|27:242,1,67.4999979400635,8|0,0:0|0:0,0:0:0:0:
120,291,41584,6,0,B|180:298|180:298|255:248,1,134.999995880127,2|8,0:0|0:0,0:0:0:0:
241,361,42096,2,0,B|303:319|303:319|363:326,1,134.999995880127,0|2,0:0|0:0,0:0:0:0:
450,282,42607,1,8,0:0:0:0:
412,167,42777,1,2,0:0:0:0:
299,171,42948,6,0,L|212:177,1,67.4999979400635,2|0,0:0|3:0,0:0:0:0:
199,187,43204,1,0,3:0:0:0:
199,187,43289,2,0,P|198:134|189:96,1,67.4999979400635,8|4,0:0|0:1,0:0:0:0:
134,46,43630,2,0,P|81:47|51:68,1,67.4999979400635,2|2,0:0|0:0,0:0:0:0:
16,122,43971,1,8,0:0:0:0:
16,122,44312,6,0,P|13:194|18:272,1,134.999995880127,6|0,0:0|0:0,0:0:0:0:
100,314,44993,2,0,P|170:300|261:317,1,134.999995880127,0|0,3:0|0:0,0:0:0:0:
295,363,45505,1,2,0:0:0:0:
295,363,45675,6,0,P|283:270|292:224,1,134.999995880127,2|0,0:0|0:0,0:0:0:0:
355,150,46357,2,0,P|290:124|213:164,1,134.999995880127,0|0,3:0|0:0,0:0:0:0:
178,204,46868,1,2,3:0:0:0:
178,204,47039,6,0,L|181:55,2,134.999995880127,2|0|0,0:0|0:0|0:0,0:0:0:0:
97,305,48062,1,0,0:0:0:0:
3,220,48402,6,0,L|0:71,1,134.999995880127,2|0,0:0|0:0,0:0:0:0:
99,23,49084,2,0,P|156:5|235:37,1,134.999995880127,0|0,3:0|0:0,0:0:0:0:
270,100,49596,1,2,0:0:0:0:
270,100,49766,6,0,P|323:106|412:94,1,134.999995880127,2|0,0:0|0:0,0:0:0:0:
467,27,50448,2,0,P|497:86|469:162,1,134.999995880127,0|0,3:0|0:0,0:0:0:0:
415,196,50959,1,2,0:0:0:0:
415,196,51130,6,0,P|365:187|269:207,1,134.999995880127,2|0,0:0|0:0,0:0:0:0:
199,133,51812,2,0,P|132:142|66:128,1,134.999995880127,0|0,3:0|0:0,0:0:0:0:
36,205,52323,1,2,0:0:0:0:
36,205,52493,6,0,P|82:225|150:295,1,134.999995880127,2|0,0:0|0:0,0:0:0:0:
216,353,53175,2,0,P|235:319|219:220,1,134.999995880127,0|0,3:0|0:0,0:0:0:0:
215,142,53687,1,2,0:0:0:0:
127,108,53857,6,0,P|131:188|132:190,2,67.4999979400635,10|8|8,0:0|0:0|0:0,0:0:0:0:
186,35,54368,1,0,3:0:0:0:
186,35,54454,1,0,3:0:0:0:
186,35,54539,2,0,P|226:26|276:40,1,67.4999979400635,8|2,0:0|0:0,0:0:0:0:
325,84,54880,1,4,0:1:0:0:
257,197,55221,6,0,L|256:296,1,67.4999979400635,2|0,0:0|0:0,0:0:0:0:
187,334,55562,2,0,L|92:337,1,67.4999979400635,2|0,0:0|0:0,0:0:0:0:
52,264,55902,2,0,L|55:173,1,67.4999979400635,2|0,0:0|0:0,0:0:0:0:
123,132,56243,2,0,L|218:129,1,67.4999979400635,2|0,0:0|0:0,0:0:0:0:
273,73,56584,6,0,P|293:106|329:128,1,67.4999979400635,2|0,0:0|0:0,0:0:0:0:
318,219,56925,2,0,P|291:239|274:268,1,67.4999979400635,2|0,0:0|0:0,0:0:0:0:
177,262,57266,2,0,P|160:232|133:212,1,67.4999979400635,2|0,0:0|0:0,0:0:0:0:
133,122,57607,2,0,P|159:101|176:72,1,67.4999979400635,2|0,0:0|0:0,0:0:0:0:
294,49,57948,6,0,B|291:94|291:94|309:140,1,67.4999979400635,2|0,0:0|0:0,0:0:0:0:
222,143,58289,2,0,B|230:163|230:163|227:208,1,67.4999979400635,2|0,0:0|0:0,0:0:0:0:
310,191,58630,2,0,B|307:236|307:236|325:282,1,67.4999979400635,2|0,0:0|0:0,0:0:0:0:
232,284,58971,2,0,B|240:304|240:304|237:349,1,67.4999979400635,2|0,0:0|0:0,0:0:0:0:
95,344,59312,6,0,L|80:257,1,67.4999979400635,2|0,0:0|0:0,0:0:0:0:
142,209,59652,2,0,L|150:134,1,67.4999979400635,2|0,0:0|0:0,0:0:0:0:
85,77,59993,1,2,0:0:0:0:
149,10,60164,1,2,0:0:0:0:
218,84,60334,1,2,0:0:0:0:
281,5,60505,1,2,0:0:0:0:
347,83,60675,5,4,0:0:0:0:
347,83,62039,5,0,0:0:0:0:
206,52,63402,6,0,L|118:70,1,67.4999979400635,2|2,0:0|0:0,0:0:0:0:
306,52,63743,2,0,L|394:70,1,67.4999979400635,2|2,0:0|0:0,0:0:0:0:
207,152,64084,2,0,L|119:170,1,67.4999979400635,2|2,0:0|0:0,0:0:0:0:
307,152,64425,2,0,L|395:170,1,67.4999979400635,2|2,0:0|0:0,0:0:0:0:
256,238,64766,5,2,3:2:0:0:
170,280,64937,2,0,L|160:334,5,33.7499989700318,0|0|0|0|0|0,3:0|3:0|3:0|3:0|3:0|3:0,0:0:0:0:
143,344,65448,6,0,L|61:343,1,67.4999979400635,0|0,3:0|3:0,0:0:0:0:
89,242,65789,2,0,L|6:267,1,67.4999979400635,0|0,3:0|3:0,0:0:0:0:
84,156,66130,6,0,P|147:125|247:174,1,165.000005035401,4|8,0:0|0:0,0:0:0:0:
265,253,66641,1,0,0:0:0:0:
265,253,66812,2,0,L|277:59,1,165.000005035401,2|8,0:0|0:0,0:0:0:0:
349,38,67323,1,0,0:0:0:0:
349,38,67493,6,0,P|391:33|477:126,1,165.000005035401,2|8,0:0|0:0,0:0:0:0:
383,126,68005,2,0,P|378:171|385:215,1,82.5000025177003,2|0,0:0|0:0,0:0:0:0:
398,250,68260,1,0,3:0:0:0:
398,250,68346,2,0,P|337:253|300:278,1,82.5000025177003,0|8,3:0|0:0,0:0:0:0:
235,331,68687,6,0,P|165:351|66:335,1,165.000005035401,2|2,0:0|0:0,0:0:0:0:
43,242,69198,2,0,L|33:140,1,82.5000025177003,8|0,0:0|0:0,0:0:0:0:
96,78,69539,1,0,0:0:0:0:
96,78,69709,1,2,0:0:0:0:
187,119,69880,2,0,P|242:119|277:93,1,82.5000025177003,8|0,0:0|0:0,0:0:0:0:
303,26,70221,6,0,P|292:76|315:191,1,165.000005035401,2|8,0:0|0:0,0:0:0:0:
378,263,70732,1,10,0:0:0:0:
261,353,71073,1,10,0:0:0:0:
150,270,71414,6,0,B|86:191|170:85,1,165.000005035401,6|2,0:0|0:0,0:0:0:0:
234,73,71925,2,0,P|286:78|328:66,1,82.5000025177003,8|0,0:0|0:0,0:0:0:0:
393,117,72266,1,2,0:0:0:0:
331,189,72437,1,2,0:0:0:0:
390,266,72607,1,8,0:0:0:0:
332,345,72777,6,0,L|149:371,1,165.000005035401,2|2,0:0|0:0,0:0:0:0:
112,274,73289,2,0,L|210:261,1,82.5000025177003,8|2,0:0|0:0,0:0:0:0:
242,188,73630,2,0,L|337:203,1,82.5000025177003,0|2,0:0|0:0,0:0:0:0:
423,231,73971,1,8,0:0:0:0:
423,231,74141,1,0,0:0:0:0:
495,156,74312,6,0,P|498:95|407:43,1,165.000005035401,2|8,0:0|0:0,0:0:0:0:
326,74,74823,2,0,P|257:94|166:77,1,165.000005035401,0|2,0:0|0:0,0:0:0:0:
80,36,75334,1,8,0:0:0:0:
80,36,75505,6,0,P|9:71|3:150,1,165.000005035401,2|2,0:0|0:0,0:0:0:0:
84,122,76016,2,0,L|104:214,1,82.5000025177003,8|2,0:0|0:0,0:0:0:0:
26,241,76357,2,0,L|25:323,1,82.5000025177003,8|0,0:0|3:0,0:0:0:0:
40,370,76613,1,0,3:0:0:0:
40,370,76698,2,0,P|89:355|148:374,1,82.5000025177003,8|2,0:0|0:0,0:0:0:0:
251,355,77039,6,0,P|224:269|267:181,1,165.000005035401,4|8,0:0|0:0,0:0:0:0:
336,146,77550,1,0,0:0:0:0:
336,146,77721,2,0,P|267:171|168:141,1,165.000005035401,2|8,0:0|0:0,0:0:0:0:
140,62,78232,1,0,0:0:0:0:
140,62,78402,6,0,P|81:72|52:171,1,165.000005035401,2|8,0:0|0:0,0:0:0:0:
37,265,78914,2,0,P|96:266|131:275,1,82.5000025177003,2|0,0:0|0:0,0:0:0:0:
206,333,79255,1,0,3:0:0:0:
206,333,79340,1,0,3:0:0:0:
206,333,79425,1,8,0:0:0:0:
297,287,79596,6,0,P|337:244|318:131,1,165.000005035401,4|2,0:0|0:0,0:0:0:0:
254,71,80107,2,0,P|189:73|158:57,1,82.5000025177003,8|0,0:0|0:0,0:0:0:0:
82,45,80448,1,0,0:0:0:0:
82,45,80618,1,2,0:0:0:0:
34,128,80789,2,0,L|26:222,1,82.5000025177003,8|0,0:0|0:0,0:0:0:0:
81,295,81130,6,0,P|139:302|251:293,1,165.000005035401,2|8,0:0|0:0,0:0:0:0:
319,228,81641,1,10,0:0:0:0:
179,124,81982,1,10,0:0:0:0:
314,26,82323,6,0,P|385:28|455:116,1,165.000005035401,6|2,0:0|0:0,0:0:0:0:
352,118,82834,2,0,P|348:168|360:215,1,82.5000025177003,8|0,0:0|0:0,0:0:0:0:
440,206,83175,2,0,P|444:256|432:303,1,82.5000025177003,2|2,0:0|0:0,0:0:0:0:
350,337,83516,1,8,0:0:0:0:
350,337,83687,6,0,B|259:315|259:315|172:344,1,165.000005035401,2|2,0:0|0:0,0:0:0:0:
118,268,84198,2,0,L|229:229,1,82.5000025177003,8|2,0:0|0:0,0:0:0:0:
264,172,84539,1,0,0:0:0:0:
264,172,84709,1,2,0:0:0:0:
209,80,84880,2,0,P|165:74|113:86,1,82.5000025177003,8|0,0:0|0:0,0:0:0:0:
35,140,85221,6,0,B|20:193|20:193|20:315,1,165.000005035401,2|8,0:0|0:0,0:0:0:0:
109,337,85732,2,0,L|206:332,1,82.5000025177003,0|0,0:0|3:0,0:0:0:0:
234,315,85988,1,0,3:0:0:0:
234,315,86073,2,0,P|228:264|234:221,1,82.5000025177003,2|8,0:0|0:0,0:0:0:0:
332,252,86414,6,0,P|340:189|317:76,1,165.000005035401,2|2,0:0|0:0,0:0:0:0:
243,26,86925,1,8,0:0:0:0:
145,43,87096,2,0,P|137:102|147:145,1,82.5000025177003,2|8,0:0|0:0,0:0:0:0:
159,165,87351,1,0,0:0:0:0:
159,165,87437,2,0,P|163:224|151:265,1,82.5000025177003,0|8,3:0|0:0,0:0:0:0:
115,331,87777,1,2,0:0:0:0:
241,348,87948,5,10,0:0:0:0:
346,283,88118,1,10,0:0:0:0:
346,283,88459,5,10,0:0:0:0:
256,198,88629,1,10,0:0:0:0:
256,198,88971,5,10,0:0:0:0:
361,133,89141,1,4,0:1:0:0:
256,192,89226,12,0,93402,0:0:0:0:
