osu file format v14

[General]
AudioFilename: audio.mp3
AudioLeadIn: 0
PreviewTime: 65277
Countdown: 0
SampleSet: Soft
StackLeniency: 0.5
Mode: 0
LetterboxInBreaks: 0
WidescreenStoryboard: 0

[Editor]
DistanceSpacing: 1.2
BeatDivisor: 4
GridSize: 32
TimelineZoom: 3

[Metadata]
Title:The World: Stars, Skies, and Paths
TitleUnicode:世界、星と空と道と
Artist:Ami
ArtistUnicode:亜美
Creator:Dubturt
Version:Insane
Source:ソフィーのアトリエ ~不思議な本の錬金術士~
Tags:atelier sophie: the alchemist of the mysterious book opening 2 gust jrpg koeitecmo sekai hoshito sorato michito hayato asano tetsu shirakawa katzuya shimizu takuma sasaki lucifa mari yoshida kazuki yanagawa
BeatmapID:1505924
BeatmapSetID:712391

[Difficulty]
HPDrainRate:6
CircleSize:4
OverallDifficulty:8
ApproachRate:9
SliderMultiplier:1.7
SliderTickRate:1

[Events]
//Background and Video events
0,0,"Atelier-Sophie-Title-Image.jpg",0,0
Video,394,"atelier sophie.mp4"
//Break Periods
//Storyboard Layer 0 (Background)
//Storyboard Layer 1 (Fail)
//Storyboard Layer 2 (Pass)
//Storyboard Layer 3 (Foreground)
//Storyboard Sound Samples

[TimingPoints]
-688,340.909090909091,4,2,1,50,1,0
448,-100,4,2,1,25,0,0
675,340.909090909091,4,2,1,50,1,0
675,-125,4,2,2,35,0,0
8856,-125,4,2,1,40,0,0
10220,-125,4,2,1,45,0,0
11584,-100,4,2,1,60,0,0
22493,-111.111111111111,4,2,1,55,0,0
44311,-125,4,2,1,30,0,0
53856,-111.111111111111,4,2,1,55,0,0
66129,-90.9090909090909,4,2,1,70,0,1
87947,-90.9090909090909,4,2,1,60,0,0
90675,-90.9090909090909,4,2,1,30,0,0
92038,-90.9090909090909,4,2,1,15,0,0
93402,-90.9090909090909,4,2,1,5,0,0

[Colours]
Combo1 : 178,178,178
Combo2 : 149,0,74
Combo3 : 140,140,198
Combo4 : 140,27,6

[HitObjects]
340,262,448,6,0,L|388:257,3,28.3333333333333,2|0|0|0,3:2|3:0|3:0|3:0,0:0:0:0:
340,262,675,6,0,B|276:249|200:263,1,136,2|0,0:0|0:0,0:0:0:0:
64,146,1356,2,0,B|128:159|204:145,1,136
313,48,2039,6,0,B|381:16|448:52,2,136,2|0|0,0:0|0:0|0:0,0:0:0:0:
199,145,3062,1,0,0:0:0:0:
77,42,3402,6,0,B|56:88|56:88|56:196,1,136,2|0,0:0|0:0,0:0:0:0:
165,324,4084,2,0,B|186:278|186:278|186:170,1,136
295,156,4766,6,0,P|352:131|433:183,2,136,2|0|0,0:0|0:0|0:0,0:0:0:0:
205,335,5789,1,0,0:0:0:0:
101,326,5959,1,0,3:0:0:0:
101,326,6044,1,0,3:0:0:0:
101,326,6130,6,0,L|88:158,1,136,2|0,0:0|0:0,0:0:0:0:
171,111,6641,1,0,0:0:0:0:
171,111,6812,6,0,L|181:246,1,136
274,307,7323,1,0,0:0:0:0:
274,307,7493,6,0,L|261:139,1,136,2|0,0:0|0:0,0:0:0:0:
348,101,8005,1,0,0:0:0:0:
348,101,8176,6,0,L|358:236,1,136
358,236,8857,6,0,P|294:245|263:235,1,68,2|0,0:0|0:0,0:0:0:0:
375,119,9198,2,0,P|439:110|470:120,1,68,2|0,0:0|0:0,0:0:0:0:
259,156,9539,2,0,L|247:88,1,68,2|0,0:0|0:0,0:0:0:0:
462,196,9880,2,0,L|473:263,1,68,2|0,0:0|0:0,0:0:0:0:
473,303,10135,1,0,0:0:0:0:
473,303,10221,6,0,B|434:324|434:324|389:328,1,68,4|0,0:1|0:0,0:0:0:0:
269,163,10562,2,0,B|308:171|308:171|343:207,1,68
203,326,10902,1,0,0:0:0:0:
281,84,11073,1,0,3:0:0:0:
281,84,11158,1,0,3:0:0:0:
281,84,11243,2,0,L|374:98,1,68,8|0,0:0|0:0,0:0:0:0:
202,205,11584,5,4,0:0:0:0:
188,11,11755,1,0,0:0:0:0:
348,94,11925,1,2,0:0:0:0:
131,144,12096,2,0,L|322:178,1,170,8|8,0:0|0:0,0:0:0:0:
378,273,12607,1,2,0:0:0:0:
471,186,12777,6,0,P|501:128|440:30,1,170,8|8,0:0|0:0,0:0:0:0:
392,117,13289,1,8,0:0:0:0:
495,272,13459,1,0,3:0:0:0:
495,272,13544,1,0,3:0:0:0:
495,272,13630,2,0,L|390:244,1,85,2|0,0:0|0:0,0:0:0:0:
392,117,13971,2,0,P|337:118|259:158,1,127.5,8|0,0:0|0:0,0:0:0:0:
243,179,14312,6,0,P|250:263|241:367,1,170,2|2,0:0|0:0,0:0:0:0:
165,311,14823,2,0,P|167:250|165:207,1,85,8|0,0:0|0:0,0:0:0:0:
128,71,15164,1,8,0:0:0:0:
54,203,15334,1,2,0:0:0:0:
222,98,15505,6,0,P|283:95|335:105,1,85,8|0,0:0|0:0,0:0:0:0:
307,256,15846,2,0,P|246:259|194:249,1,85,8|8,0:0|0:0,0:0:0:0:
123,129,16187,1,0,3:0:0:0:
123,129,16272,1,0,3:0:0:0:
123,129,16357,2,0,L|115:240,1,85,2|0,0:0|0:0,0:0:0:0:
39,321,16698,2,0,L|29:217,1,85,4|0,0:0|0:0,0:0:0:0:
32,113,17039,5,2,0:0:0:0:
254,117,17209,1,0,0:0:0:0:
108,41,17380,1,2,0:0:0:0:
223,9,17550,2,0,L|203:195,1,170,8|8,0:0|0:0,0:0:0:0:
154,303,18062,1,2,0:0:0:0:
317,348,18232,6,0,P|326:284|323:173,1,170,8|8,0:0|0:0,0:0:0:0:
190,90,18743,1,8,0:0:0:0:
226,249,18913,1,0,3:0:0:0:
226,249,18999,1,0,3:0:0:0:
226,249,19084,1,2,0:0:0:0:
315,71,19255,1,0,0:0:0:0:
139,194,19425,2,0,L|147:282,1,85,8|0,0:0|0:0,0:0:0:0:
321,370,19766,6,0,L|307:182,1,170,4|2,0:0|0:0,0:0:0:0:
242,112,20277,1,2,0:0:0:0:
242,112,20448,2,0,L|337:104,1,85,2|0,0:0|0:0,0:0:0:0:
224,209,20789,1,0,0:0:0:0:
149,75,20959,1,0,0:0:0:0:
56,157,21130,6,0,P|51:203|59:252,1,85,2|0,0:0|3:0,0:0:0:0:
74,279,21385,1,0,3:0:0:0:
74,279,21471,2,0,L|188:293,1,85,2|0,0:0|0:0,0:0:0:0:
255,355,21812,1,2,0:0:0:0:
292,228,21982,1,2,0:0:0:0:
418,348,22152,1,2,0:0:0:0:
418,348,22493,6,0,L|421:249,1,76.4999976654053,4|0,0:0|0:0,0:0:0:0:
487,181,22834,1,2,0:0:0:0:
412,54,23005,1,0,0:0:0:0:
299,98,23175,2,0,L|291:201,1,76.4999976654053,2|0,0:0|0:0,0:0:0:0:
274,280,23516,1,2,0:0:0:0:
364,227,23687,1,0,0:0:0:0:
164,264,23857,5,2,0:0:0:0:
269,362,24027,1,0,0:0:0:0:
164,264,24198,2,0,L|164:159,1,76.4999976654053,2|0,0:0|0:0,0:0:0:0:
246,81,24539,2,0,L|246:178,1,76.4999976654053,2|0,0:0|0:0,0:0:0:0:
124,74,24880,1,2,0:0:0:0:
232,0,25051,1,0,0:0:0:0:
326,158,25221,6,0,P|331:121|316:58,1,76.4999976654053,2|0,0:0|0:0,0:0:0:0:
165,158,25562,2,0,P|160:195|165:233,1,76.4999976654053,2|0,0:0|0:0,0:0:0:0:
255,311,25902,2,0,P|327:322|430:300,1,152.999995330811,2|2,0:0|0:0,0:0:0:0:
425,204,26414,1,0,0:0:0:0:
425,204,26584,6,0,P|369:211|324:202,1,76.4999976654053,2|0,0:0|0:0,0:0:0:0:
264,138,26925,1,2,0:0:0:0:
264,138,27096,1,0,0:0:0:0:
349,46,27266,2,0,P|404:38|449:47,1,76.4999976654053,2|0,0:0|0:0,0:0:0:0:
264,138,27606,2,0,P|208:145|163:136,1,76.4999976654053,2|0,0:0|0:0,0:0:0:0:
90,21,27948,5,2,0:0:0:0:
90,21,28289,1,2,0:0:0:0:
13,109,28459,1,0,0:0:0:0:
89,190,28630,2,0,P|91:240|89:293,1,76.4999976654053,2|0,0:0|0:0,0:0:0:0:
192,235,28971,2,0,P|191:273|193:311,1,76.4999976654053,2|0,0:0|0:0,0:0:0:0:
296,214,29312,5,2,0:0:0:0:
187,115,29482,1,0,0:0:0:0:
296,214,29652,2,0,L|409:214,1,76.4999976654053,2|0,0:0|0:0,0:0:0:0:
332,343,29993,2,0,L|219:343,1,76.4999976654053,2|0,0:0|0:0,0:0:0:0:
177,254,30334,1,2,0:0:0:0:
108,369,30505,1,0,0:0:0:0:
268,222,30675,6,0,L|101:213,1,152.999995330811,2|2,0:0|0:0,0:0:0:0:
25,164,31187,1,0,0:0:0:0:
25,164,31357,2,0,L|13:270,1,76.4999976654053,2|0,0:0|0:0,0:0:0:0:
166,144,31698,2,0,L|178:38,1,76.4999976654053,2|0,0:0|0:0,0:0:0:0:
95,188,32039,6,0,P|122:219|246:136,1,229.499992996216,2|0,0:0|3:0,0:0:0:0:
16,240,32891,1,2,0:0:0:0:
98,55,33062,1,8,0:0:0:0:
98,55,33402,6,0,P|145:49|200:58,1,76.4999976654053,4|0,0:0|0:0,0:0:0:0:
239,130,33743,1,2,0:0:0:0:
239,130,33914,1,0,0:0:0:0:
376,89,34084,2,0,L|388:-10,1,76.4999976654053,0|2,0:0|0:0,0:0:0:0:
257,109,34425,1,8,0:0:0:0:
330,240,34596,1,2,0:0:0:0:
469,69,34766,5,2,0:0:0:0:
333,154,34937,1,2,0:0:0:0:
351,23,35107,1,8,0:0:0:0:
493,159,35277,2,0,P|456:198|348:246,1,152.999995330811,0|2,0:0|0:0,0:0:0:0:
249,260,35789,1,8,0:0:0:0:
464,340,35958,1,0,0:0:0:0:
374,166,36130,6,0,L|360:328,1,152.999995330811,2|8,0:0|0:0,0:0:0:0:
459,251,36641,1,0,0:0:0:0:
405,94,36812,2,0,P|357:90|306:126,1,76.4999976654053,0|2,0:0|0:0,0:0:0:0:
293,199,37152,2,0,P|241:196|204:175,1,76.4999976654053,8|0,0:0|0:0,0:0:0:0:
160,85,37493,5,2,0:0:0:0:
45,63,37664,1,2,0:0:0:0:
1,168,37834,2,0,P|-5:224|15:272,1,76.4999976654053,8|0,0:0|0:0,0:0:0:0:
155,324,38175,2,0,P|161:268|141:220,1,76.4999976654053,0|2,0:0|0:0,0:0:0:0:
10,339,38516,1,8,0:0:0:0:
10,339,38857,6,0,L|98:352,1,76.4999976654053,2|0,0:0|0:0,0:0:0:0:
232,286,39198,2,0,L|144:299,1,76.4999976654053,8|0,0:0|0:0,0:0:0:0:
288,354,39539,2,0,P|319:289|262:205,1,152.999995330811,0|8,0:0|0:0,0:0:0:0:
173,196,40050,1,0,0:0:0:0:
194,94,40221,6,0,P|243:82|297:100,1,76.4999976654053,2|2,0:0|0:0,0:0:0:0:
360,168,40562,1,8,0:0:0:0:
458,92,40732,1,0,0:0:0:0:
360,4,40902,2,0,L|360:92,1,76.4999976654053,0|2,0:0|0:0,0:0:0:0:
455,246,41243,2,0,L|455:169,1,76.4999976654053,8|0,0:0|0:0,0:0:0:0:
325,249,41584,6,0,P|282:257|231:241,1,76.4999976654053,2|0,0:0|0:0,0:0:0:0:
281,81,41925,1,8,0:0:0:0:
359,153,42096,2,0,P|312:173|203:154,1,152.999995330811,0|2,0:0|0:0,0:0:0:0:
161,53,42607,1,8,0:0:0:0:
62,101,42778,1,2,0:0:0:0:
66,204,42948,6,0,P|72:244|97:299,1,76.4999976654053,2|0,0:0|3:0,0:0:0:0:
84,277,43204,1,0,3:0:0:0:
84,277,43289,1,8,0:0:0:0:
215,358,43459,1,4,0:1:0:0:
343,186,43630,1,2,0:0:0:0:
150,71,43800,1,2,0:0:0:0:
190,229,43971,1,8,0:0:0:0:
190,229,44312,6,0,P|262:221|328:231,1,136,6|0,0:0|0:0,0:0:0:0:
424,118,44993,2,0,P|352:126|286:116,1,136,0|0,3:0|0:0,0:0:0:0:
222,82,45505,1,2,0:0:0:0:
149,99,45675,6,0,L|136:251,1,136,2|0,0:0|0:0,0:0:0:0:
253,329,46357,2,0,L|266:177,1,136,0|0,3:0|0:0,0:0:0:0:
310,134,46868,1,2,3:0:0:0:
376,167,47039,6,0,L|461:172,1,68,2|0,0:0|0:0,0:0:0:0:
345,239,47380,2,0,L|260:244,1,68
413,274,47721,2,0,L|498:279,1,68
382,346,48062,2,0,L|297:351,1,68
253,306,48402,6,0,L|110:318,2,136,2|0|0,0:0|0:0|3:0,0:0:0:0:
312,259,49255,1,2,0:0:0:0:
312,259,49596,1,2,0:0:0:0:
356,195,49766,6,0,P|369:130|349:65,1,136,2|0,0:0|0:0,0:0:0:0:
162,65,50448,2,0,P|142:130|156:196,1,136,0|0,3:0|0:0,0:0:0:0:
218,237,50959,1,2,0:0:0:0:
192,307,51130,6,0,L|49:329,1,136,2|0,0:0|0:0,0:0:0:0:
218,237,51812,2,0,L|361:259,1,136,0|0,3:0|0:0,0:0:0:0:
424,237,52323,1,2,0:0:0:0:
490,203,52493,6,0,P|496:158|479:112,1,68,2|0,0:0|0:0,0:0:0:0:
418,116,52834,2,0,P|383:120|339:111,1,68
302,57,53175,2,0,P|254:43|170:62,1,136,0|0,3:0|0:0,0:0:0:0:
171,61,53687,1,2,0:0:0:0:
67,138,53857,5,10,0:0:0:0:
110,326,54027,1,8,0:0:0:0:
258,185,54197,1,8,0:0:0:0:
37,168,54368,1,0,3:0:0:0:
37,168,54454,1,0,3:0:0:0:
37,168,54539,1,8,0:0:0:0:
202,340,54709,1,2,0:0:0:0:
278,87,54880,1,4,0:1:0:0:
278,87,55221,6,0,L|273:193,1,76.4999976654053,2|0,0:0|0:0,0:0:0:0:
412,276,55562,2,0,L|415:199,1,76.4999976654053,2|0,0:0|0:0,0:0:0:0:
247,49,55902,2,0,L|242:155,1,76.4999976654053,2|0,0:0|0:0,0:0:0:0:
447,307,56243,2,0,L|450:230,1,76.4999976654053,2|0,0:0|0:0,0:0:0:0:
239,285,56584,6,0,P|172:292|135:272,1,76.4999976654053,2|0,0:0|0:0,0:0:0:0:
265,118,56925,2,0,P|332:111|369:131,1,76.4999976654053,2|0,0:0|0:0,0:0:0:0:
219,311,57266,2,0,P|152:318|115:298,1,76.4999976654053,2|0,0:0|0:0,0:0:0:0:
286,90,57607,2,0,P|353:83|390:103,1,76.4999976654053,2|0,0:0|0:0,0:0:0:0:
157,237,57948,6,0,B|148:160,1,76.4999976654053,2|0,0:0|0:0,0:0:0:0:
363,161,58288,2,0,B|355:237,1,76.4999976654053,2|0,0:0|0:0,0:0:0:0:
117,237,58630,2,0,B|108:160,1,76.4999976654053,2|0,0:0|0:0,0:0:0:0:
403,161,58970,2,0,B|395:237,1,76.4999976654053,2|0,0:0|0:0,0:0:0:0:
181,369,59312,6,0,B|163:338|163:338|160:276,1,76.4999976654053,2|0,0:0|0:0,0:0:0:0:
350,297,59652,2,0,B|349:338|349:338|331:369,1,76.4999976654053,2|0,0:0|0:0,0:0:0:0:
256,277,59993,1,2,0:0:0:0:
169,190,60164,1,2,0:0:0:0:
256,103,60334,1,2,0:0:0:0:
342,190,60505,1,2,0:0:0:0:
256,192,60675,5,4,0:0:0:0:
256,192,62039,5,0,0:0:0:0:
51,61,63402,5,2,0:0:0:0:
50,175,63573,1,2,0:0:0:0:
153,51,63743,1,2,0:0:0:0:
154,215,63914,1,2,0:0:0:0:
262,41,64084,1,2,0:0:0:0:
257,255,64255,1,2,0:0:0:0:
385,31,64425,1,2,0:0:0:0:
384,295,64596,1,2,0:0:0:0:
496,19,64766,5,2,3:2:0:0:
496,19,64851,1,0,3:0:0:0:
496,19,64937,1,0,3:0:0:0:
496,19,65022,1,0,3:0:0:0:
496,19,65107,2,0,L|502:91,1,38.2499988327027,0|0,3:0|3:0,0:0:0:0:
453,164,65277,6,0,L|448:104,1,38.2499988327027,0|0,3:0|3:0,0:0:0:0:
374,48,65448,2,0,L|375:110,1,38.2499988327027,0|0,3:0|3:0,0:0:0:0:
311,175,65618,2,0,L|306:125,1,38.2499988327027,0|0,3:0|3:0,0:0:0:0:
241,37,65789,1,0,3:0:0:0:
214,69,65874,1,0,3:0:0:0:
202,109,65959,1,0,3:0:0:0:
209,150,66044,1,0,3:0:0:0:
226,193,66130,6,0,P|222:244|90:292,1,187.000005706787,4|8,0:0|0:0,0:0:0:0:
11,218,66641,1,0,0:0:0:0:
70,83,66812,2,0,P|126:70|168:86,1,93.5000028533936,2|2,0:0|0:0,0:0:0:0:
275,170,67152,1,8,0:0:0:0:
389,92,67323,1,0,0:0:0:0:
200,5,67493,6,0,B|185:46|208:84|208:84|181:118|181:118|196:153|182:220,1,187.000005706787,2|8,0:0|0:0,0:0:0:0:
324,339,68005,2,0,L|338:227,1,93.5000028533936,2|0,0:0|0:0,0:0:0:0:
335,246,68260,1,0,3:0:0:0:
335,246,68346,1,0,3:0:0:0:
221,300,68516,1,8,0:0:0:0:
437,200,68687,6,0,P|385:163|254:179,1,187.000005706787,2|2,0:0|0:0,0:0:0:0:
313,339,69198,2,0,P|337:295|342:242,1,93.5000028533936,8|0,0:0|0:0,0:0:0:0:
192,306,69539,1,0,0:0:0:0:
84,190,69709,1,2,0:0:0:0:
192,121,69880,2,0,L|193:224,1,93.5000028533936,8|0,0:0|0:0,0:0:0:0:
115,80,70221,6,0,P|155:37|274:94,1,187.000005706787,2|8,0:0|0:0,0:0:0:0:
385,157,70732,1,10,0:0:0:0:
97,199,71073,1,10,0:0:0:0:
97,199,71414,6,0,B|139:221|173:205|173:205|201:238|201:238|255:217|287:249,1,187.000005706787,6|2,0:0|0:0,0:0:0:0:
418,159,71925,2,0,P|351:126|297:142,1,93.5000028533936,8|0,0:0|0:0,0:0:0:0:
370,270,72266,1,2,0:0:0:0:
512,237,72436,1,2,0:0:0:0:
486,86,72607,1,8,0:0:0:0:
248,38,72777,6,0,B|209:125|307:125|243:239,1,187.000005706787,2|2,0:0|0:0,0:0:0:0:
164,275,73289,2,0,P|156:197|180:163,1,93.5000028533936,8|2,0:0|0:0,0:0:0:0:
341,49,73630,2,0,P|348:126|324:160,1,93.5000028533936,0|2,0:0|0:0,0:0:0:0:
161,186,73971,1,8,0:0:0:0:
338,224,74141,1,0,0:0:0:0:
244,380,74312,6,0,L|244:247,1,93.5000028533936,2|2,0:0|0:0,0:0:0:0:
86,151,74652,2,0,L|86:259,1,93.5000028533936,8|0,0:0|0:0,0:0:0:0:
164,317,74993,1,0,0:0:0:0:
174,152,75164,1,2,0:0:0:0:
13,253,75334,1,8,0:0:0:0:
102,130,75505,6,0,P|156:122|302:130,1,187.000005706787,2|2,0:0|0:0,0:0:0:0:
409,240,76016,1,8,0:0:0:0:
512,119,76187,1,2,0:0:0:0:
383,16,76357,1,8,0:0:0:0:
258,215,76527,1,0,3:0:0:0:
258,215,76613,1,0,3:0:0:0:
258,215,76698,2,0,P|254:284|260:327,1,93.5000028533936,8|2,0:0|0:0,0:0:0:0:
388,125,77039,6,0,B|294:169|294:73|179:144,1,187.000005706787,4|8,0:0|0:0,0:0:0:0:
153,219,77550,1,0,0:0:0:0:
153,219,77635,1,0,0:0:0:0:
153,219,77721,2,0,L|148:341,1,93.5000028533936,2|2,0:0|0:0,0:0:0:0:
73,176,78062,1,8,0:0:0:0:
239,259,78232,1,0,0:0:0:0:
21,238,78402,6,0,P|4:129|92:99,1,187.000005706787,2|8,0:0|0:0,0:0:0:0:
152,157,78914,2,0,P|201:161|253:137,1,93.5000028533936,2|0,0:0|0:0,0:0:0:0:
278,127,79169,1,0,3:0:0:0:
318,113,79254,1,0,3:0:0:0:
359,119,79339,1,0,3:0:0:0:
390,140,79424,1,8,0:0:0:0:
415,259,79596,6,0,L|437:40,1,187.000005706787,4|2,0:0|0:0,0:0:0:0:
308,216,80107,2,0,L|297:315,1,93.5000028533936,8|0,0:0|0:0,0:0:0:0:
415,259,80448,1,0,0:0:0:0:
325,108,80618,1,2,0:0:0:0:
198,202,80789,2,0,P|141:200|85:164,1,93.5000028533936,8|0,0:0|0:0,0:0:0:0:
188,117,81130,6,0,P|243:131|258:262,1,187.000005706787,2|8,0:0|0:0,0:0:0:0:
101,349,81641,1,10,0:0:0:0:
26,113,81982,1,10,0:0:0:0:
101,349,82323,6,0,B|147:340|170:362|170:362|203:335|203:335|235:366|295:343,1,187.000005706787,6|2,0:0|0:0,0:0:0:0:
387,376,82834,2,0,P|398:326|390:281,1,93.5000028533936,8|0,0:0|0:0,0:0:0:0:
316,101,83175,1,2,0:0:0:0:
259,255,83346,1,2,0:0:0:0:
427,198,83516,1,8,0:0:0:0:
249,42,83687,6,0,P|192:38|50:51,1,187.000005706787,2|2,0:0|0:0,0:0:0:0:
22,154,84198,1,8,0:0:0:0:
183,309,84368,1,2,0:0:0:0:
136,164,84538,1,0,0:0:0:0:
30,269,84709,1,2,0:0:0:0:
216,151,84880,2,0,P|197:111|156:85,1,93.5000028533936,8|0,0:0|0:0,0:0:0:0:
268,246,85221,6,0,P|346:249|392:149,1,187.000005706787,2|8,0:0|0:0,0:0:0:0:
291,64,85732,2,0,P|294:143|305:171,1,93.5000028533936,0|0,0:0|3:0,0:0:0:0:
298,155,85988,1,0,3:0:0:0:
298,155,86073,1,2,0:0:0:0:
381,281,86243,1,8,0:0:0:0:
490,204,86414,6,0,L|502:12,1,187.000005706787,2|2,0:0|0:0,0:0:0:0:
337,39,86925,1,8,0:0:0:0:
282,195,87096,2,0,P|358:203|391:189,1,93.5000028533936,2|8,0:0|0:0,0:0:0:0:
372,198,87351,1,0,0:0:0:0:
372,198,87437,1,0,3:0:0:0:
225,51,87607,1,8,0:0:0:0:
200,238,87777,1,2,0:0:0:0:
460,305,87948,5,10,0:0:0:0:
356,253,88118,2,0,L|338:117,1,93.5000028533936,10|0,0:0|0:0,0:0:0:0:
108,196,88459,5,10,0:0:0:0:
212,143,88629,2,0,L|230:7,1,93.5000028533936,10|0,0:0|0:0,0:0:0:0:
357,116,88971,5,10,0:0:0:0:
157,279,89141,1,4,0:1:0:0:
256,192,89226,12,0,93402,0:0:0:0:
