osu file format v14

[General]
AudioFilename: audio.mp3
AudioLeadIn: 0
PreviewTime: 65277
Countdown: 0
SampleSet: Soft
StackLeniency: 0.9
Mode: 0
LetterboxInBreaks: 0
WidescreenStoryboard: 1

[Editor]
DistanceSpacing: 0.9
BeatDivisor: 4
GridSize: 32
TimelineZoom: 1.200001

[Metadata]
Title:The World: Stars, Skies, and Paths
TitleUnicode:世界、星と空と道と
Artist:Ami
ArtistUnicode:亜美
Creator:Dubturt
Version:Easy
Source:ソフィーのアトリエ ~不思議な本の錬金術士~
Tags:atelier sophie: the alchemist of the mysterious book opening 2 gust jrpg koeitecmo sekai hoshito sorato michito hayato asano tetsu shirakawa katzuya shimizu takuma sasaki lucifa mari yoshida kazuki yanagawa
BeatmapID:1505922
BeatmapSetID:712391

[Difficulty]
HPDrainRate:3
CircleSize:3
OverallDifficulty:3
ApproachRate:3
SliderMultiplier:1
SliderTickRate:1

[Events]
//Background and Video events
0,0,"Atelier-Sophie-Title-Image.jpg",0,0
Video,394,"atelier sophie.mp4"
//Break Periods
2,44512,53781
//Storyboard Layer 0 (Background)
//Storyboard Layer 1 (Fail)
//Storyboard Layer 2 (Pass)
//Storyboard Layer 3 (Foreground)
//Storyboard Sound Samples

[TimingPoints]
-688,340.909090909091,4,2,1,50,1,0
448,-100,4,2,1,25,0,0
675,340.909090909091,4,2,1,50,1,0
675,-100,4,2,2,35,0,0
8856,-100,4,2,1,40,0,0
10220,-100,4,2,1,45,0,0
11584,-100,4,2,1,60,0,0
22493,-100,4,2,1,55,0,0
44311,-100,4,2,1,30,0,0
45334,-100,4,2,1,30,0,0
53856,-100,4,2,1,55,0,0
66129,-100,4,2,1,70,0,1
87947,-100,4,2,1,60,0,0
90675,-100,4,2,1,30,0,0
92038,-100,4,2,1,15,0,0
93402,-100,4,2,1,5,0,0

[Colours]
Combo1 : 178,178,178
Combo2 : 149,0,74
Combo3 : 140,140,198
Combo4 : 140,27,6

[HitObjects]
52,29,675,6,0,P|24:84|58:233,1,200,2|0,0:0|0:0,0:0:0:0:
85,296,1698,1,0,0:0:0:0:
155,239,2039,2,0,P|257:225|352:241,1,200,2|0,0:0|0:0,0:0:0:0:
420,299,3062,1,0,0:0:0:0:
486,241,3402,6,0,P|512:146|478:53,1,200,2|0,0:0|0:0,0:0:0:0:
401,100,4425,1,0,0:0:0:0:
336,36,4766,2,0,P|239:24|127:44,1,200,2|0,0:0|0:0,0:0:0:0:
139,130,5789,1,0,0:0:0:0:
49,142,6130,6,0,P|27:220|98:346,1,200,2|0,0:0|0:0,0:0:0:0:
249,352,7493,2,0,P|306:332|355:199,1,200,2|0,0:0|0:0,0:0:0:0:
390,127,8516,1,0,0:0:0:0:
436,49,8856,6,0,P|382:34|335:56,1,100,2|2,0:0|0:0,0:0:0:0:
287,121,9539,2,0,P|228:132|162:111,1,100,2|2,0:0|0:0,0:0:0:0:
134,52,10221,2,0,P|49:60|88:219,1,300,4|8,0:1|0:0,0:0:0:0:
159,272,11584,6,0,B|237:278|237:278|291:335,1,150,4|8,0:0|0:0,0:0:0:0:
376,325,12437,1,8,0:0:0:0:
388,239,12777,2,0,B|310:233|310:233|256:176,1,150,8|8,0:0|0:0,0:0:0:0:
175,149,13630,2,0,P|161:85|181:45,1,100,2|8,0:0|0:0,0:0:0:0:
259,23,14312,6,0,P|326:9|419:75,1,150,2|8,0:0|0:0,0:0:0:0:
438,123,15164,1,8,0:0:0:0:
374,186,15505,2,0,P|306:199|213:133,1,150,8|8,0:0|0:0,0:0:0:0:
146,154,16357,2,0,P|93:179|32:183,1,100,2|4,0:0|0:0,0:0:0:0:
10,105,17039,6,0,P|96:81|162:21,1,150,2|8,0:0|0:0,0:0:0:0:
233,40,17891,1,8,0:0:0:0:
309,87,18232,2,0,P|309:161|339:229,1,150,8|8,0:0|0:0,0:0:0:0:
329,318,19084,2,0,P|264:308|226:315,1,100,2|8,0:0|0:0,0:0:0:0:
149,271,19766,6,0,P|120:177|143:81,1,200,4|2,0:0|0:0,0:0:0:0:
323,81,21130,2,0,P|345:177|316:271,1,200,2|2,0:0|0:0,0:0:0:0:
144,327,22493,6,0,P|134:278|142:228,1,100,4|2,0:0|0:0,0:0:0:0:
222,272,23175,2,0,P|277:256|334:291,1,100,2|2,0:0|0:0,0:0:0:0:
391,319,23857,2,0,P|450:302|403:122,1,300,2|2,0:0|0:0,0:0:0:0:
323,154,25221,6,0,L|220:140,1,100,2|2,0:0|0:0,0:0:0:0:
224,50,25902,2,0,L|336:39,1,100,2|2,0:0|0:0,0:0:0:0:
413,39,26584,2,0,P|429:84|428:157,1,100,2|2,0:0|0:0,0:0:0:0:
381,211,27266,2,0,P|369:252|377:322,1,100,2|2,0:0|0:0,0:0:0:0:
289,343,27948,6,0,P|183:335|159:346,1,100,2|2,0:0|0:0,0:0:0:0:
183,242,28630,2,0,P|285:213|304:194,1,100,2|2,0:0|0:0,0:0:0:0:
337,150,29312,2,0,P|300:74|110:120,1,300,2|2,0:0|0:0,0:0:0:0:
89,189,30675,6,0,L|75:295,2,100,2|2|2,0:0|0:0|0:0,0:0:0:0:
117,103,31698,1,2,0:0:0:0:
200,136,32039,1,2,0:0:0:0:
465,39,33402,6,0,P|476:127|467:162,1,100,4|2,0:0|0:0,0:0:0:0:
414,205,34084,2,0,P|346:217|294:187,1,100,0|8,0:0|0:0,0:0:0:0:
361,127,34766,2,0,P|297:53|201:58,1,200,2|0,0:0|0:0,0:0:0:0:
111,52,35789,1,8,0:0:0:0:
48,116,36130,6,0,P|36:191|69:279,1,150,2|0,0:0|0:0,0:0:0:0:
126,317,36982,1,2,0:0:0:0:
198,264,37323,2,0,P|270:249|346:301,1,150,0|8,0:0|0:0,0:0:0:0:
396,219,38175,2,0,P|352:172|341:112,1,100,0|8,0:0|0:0,0:0:0:0:
251,148,38857,6,0,L|150:139,1,100,2|8,0:0|0:0,0:0:0:0:
150,48,39539,2,0,L|258:30,1,100,0|8,0:0|0:0,0:0:0:0:
338,39,40221,2,0,P|347:113|339:159,1,100,2|8,0:0|0:0,0:0:0:0:
260,172,40902,2,0,P|251:246|259:292,1,100,0|8,0:0|0:0,0:0:0:0:
313,338,41584,6,0,P|257:321|160:348,1,150,2|0,0:0|0:0,0:0:0:0:
79,341,42436,1,2,0:0:0:0:
20,272,42777,2,0,P|1:201|27:110,1,150,2|8,0:0|0:0,0:0:0:0:
100,94,43630,2,0,P|161:102|217:82,1,100,2|8,0:0|0:0,0:0:0:0:
281,59,44312,5,6,0:0:0:0:
171,64,55221,6,0,P|110:78|54:38,1,100,2|2,0:0|0:0,0:0:0:0:
24,136,55902,2,0,P|38:196|-2:252,1,100,2|2,0:0|0:0,0:0:0:0:
81,298,56584,2,0,P|127:282|174:297,1,100,2|2,0:0|0:0,0:0:0:0:
230,226,57266,2,0,P|214:179|229:132,1,100,2|2,0:0|0:0,0:0:0:0:
303,81,57948,6,0,B|357:87|357:87|394:152,1,100,2|2,0:0|0:0,0:0:0:0:
391,216,58630,2,0,B|385:270|385:270|320:307,1,100,2|2,0:0|0:0,0:0:0:0:
255,300,59312,2,0,B|200:294|200:294|164:229,1,100,2|2,0:0|0:0,0:0:0:0:
163,165,59993,2,0,B|169:110|169:110|234:74,1,100,2|2,0:0|0:0,0:0:0:0:
303,81,60675,5,4,0:0:0:0:
303,81,62039,1,0,0:0:0:0:
256,192,63402,12,2,64766,3:2:0:0:
196,232,66130,6,0,L|82:257,1,100,4|8,0:0|0:0,0:0:0:0:
28,195,66812,2,0,P|15:116|44:76,1,100,2|8,0:0|0:0,0:0:0:0:
85,36,67493,1,2,0:0:0:0:
157,90,67834,2,0,B|222:103|222:103|318:47,1,150,8|0,0:0|3:0,0:0:0:0:
335,143,68687,6,0,B|279:179|279:179|251:287,1,150,2|8,0:0|0:0,0:0:0:0:
322,322,69539,2,0,P|403:326|444:302,1,100,0|8,0:0|0:0,0:0:0:0:
480,253,70221,2,0,P|491:164|467:89,1,150,2|10,0:0|0:0,0:0:0:0:
386,115,71073,1,10,0:0:0:0:
310,65,71414,6,0,P|245:50|141:86,1,150,6|8,0:0|0:0,0:0:0:0:
84,108,72266,2,0,B|100:150|100:150|100:225,1,100,2|8,0:0|0:0,0:0:0:0:
112,294,72948,2,0,P|175:307|228:285,1,100,0|8,0:0|0:0,0:0:0:0:
266,229,73630,2,0,P|329:216|382:238,1,100,0|8,0:0|0:0,0:0:0:0:
444,262,74312,6,0,L|457:94,1,150,2|0,0:0|3:0,0:0:0:0:
396,44,75164,1,2,0:0:0:0:
313,78,75505,2,0,P|246:104|159:74,1,150,2|8,0:0|0:0,0:0:0:0:
88,54,76357,2,0,P|70:122|88:180,1,100,8|8,0:0|0:0,0:0:0:0:
149,200,77039,6,0,P|159:258|143:310,1,100,4|8,0:0|0:0,0:0:0:0:
220,353,77721,2,0,L|346:360,1,100,2|8,0:0|0:0,0:0:0:0:
394,308,78402,2,0,P|408:233|343:171,1,150,2|2,0:0|0:0,0:0:0:0:
285,221,79255,1,0,3:0:0:0:
195,196,79596,6,0,P|155:130|196:50,1,150,4|8,0:0|0:0,0:0:0:0:
247,10,80448,2,0,P|313:-4|356:15,1,100,0|8,0:0|0:0,0:0:0:0:
298,84,81130,2,0,P|371:100|453:76,1,150,2|10,0:0|0:0,0:0:0:0:
501,149,81982,1,10,0:0:0:0:
444,218,82323,6,0,P|370:200|288:222,1,150,6|8,0:0|0:0,0:0:0:0:
239,285,83175,2,0,B|198:315|198:315|133:315,1,100,2|8,0:0|0:0,0:0:0:0:
61,293,83857,2,0,P|49:245|57:186,1,100,0|8,0:0|0:0,0:0:0:0:
119,133,84539,2,0,P|126:86|112:31,1,100,0|8,0:0|0:0,0:0:0:0:
201,14,85221,6,0,P|264:38|356:-1,1,150,2|0,0:0|3:0,0:0:0:0:
427,34,86073,1,2,0:0:0:0:
470,112,86414,2,0,P|476:186|463:272,1,150,2|8,0:0|0:0,0:0:0:0:
394,315,87266,2,0,P|347:302|279:324,1,100,8|8,0:0|0:0,0:0:0:0:
213,343,87948,6,0,P|126:343|164:143,1,350,10|4,0:0|0:1,0:0:0:0:
256,192,89312,12,0,93402,0:0:0:0:
