osu file format v14

[General]
AudioFilename: audio.mp3
AudioLeadIn: 0
PreviewTime: 11279
Countdown: 0
SampleSet: Drum
StackLeniency: 0.2
Mode: 0
LetterboxInBreaks: 0
WidescreenStoryboard: 1

[Editor]
Bookmarks: 10062,38393,38498,38604,38709,38814,38919,39025,39130,39235,39341,39446,39551,39656,39762,39867,48713,48819,48924,49136,49347,49558,49769,50086,50192,50403,50615,50826,51037,52520,75192,75295,75399,75502,75606,75709,75813,75916,76020,76123,76226,76330,92468,100033,100191,100350,100455,100614,100719,100878,100983,101089,112780,132955,134623,134778,134881,135035,135139,135242,136221,136324,136427,136530,136633,136736,136840,170960,174001,174104,174258,174361,174464,179239,184478,184582,184686,184790,184894,184998,185103,185207,185311,185936,193627,193781,193935,194088,194191,194344,196516,196622,196833,196939,197044,197150,197256,197361,203959,204114,204270,204426,204582,204685,205834,226078,231885,232095,232200,232306,232411,232516,232621,241103,246137,251163,256166,256270,256373,256477,256580,261119,266089
DistanceSpacing: 0.6
BeatDivisor: 4
GridSize: 32
TimelineZoom: 2.300001

[Metadata]
Title:Never Meant
TitleUnicode:Never Meant
Artist:American Football
ArtistUnicode:American Football
Creator:vrnl
Version:Insane
Source:
Tags:midwest emo math indie rock lp1
BeatmapID:1943670
BeatmapSetID:930569

[Difficulty]
HPDrainRate:6
CircleSize:4.5
OverallDifficulty:6
ApproachRate:8
SliderMultiplier:1.4
SliderTickRate:1

[Events]
//Background and Video events
0,0,"im not crying youre crying.jpg",0,0
Video,-2710,"video.avi" F,0,0,1000,0,1 F,0,281490,282490,1,0
//Break Periods
//Storyboard Layer 0 (Background)
//Storyboard Layer 1 (Fail)
//Storyboard Layer 2 (Pass)
//Storyboard Layer 3 (Foreground)
//Storyboard Layer 4 (Overlay)
//Storyboard Sound Samples

[TimingPoints]
9483,400.801603206413,6,3,1,55,1,0
11086,387.096774193548,6,3,1,55,1,0
11473,408.163265306122,6,3,1,65,1,0
11902,416.666666666667,6,3,1,55,1,0
13342,416.666666666667,6,3,1,55,1,0
14381,408.163265306122,6,3,1,55,1,0
16830,416.666666666667,6,3,1,55,1,0
20153,416.666666666667,6,3,1,55,1,0
21194,-100,6,3,1,25,0,0
21403,387.096774193548,6,3,1,55,1,0
21790,416.666666666667,6,3,1,55,1,0
26773,416.666666666667,6,3,1,55,1,0
31148,-100,6,3,1,25,0,0
31356,387.096774193548,6,3,1,55,1,0
31761,418.605624664243,6,3,1,55,1,0
31761,-100,6,3,1,55,0,0
36773,425.531914893617,6,3,1,55,1,0
39510,425.531914893617,6,3,1,55,1,0
41212,-100,6,3,1,30,0,0
41403,400,6,3,1,55,1,0
42033,421.052631578947,6,3,1,55,1,0
44348,419.58041958042,6,3,1,55,1,0
46866,428.571428571429,6,3,1,55,1,0
49643,422.535211267606,6,3,1,55,1,0
51016,-100,6,3,1,45,0,0
51943,422.535211267606,6,3,1,55,1,0
51943,-133.333333333333,6,3,1,55,0,0
54686,415.22491349481,6,3,1,55,1,0
54686,-133.333333333333,6,3,1,55,0,0
56969,422.535211267606,6,3,1,55,1,0
56969,-133.333333333333,6,3,1,55,0,0
59683,419.58041958042,6,3,1,55,1,0
59683,-133.333333333333,6,3,1,55,0,0
60933,410.958904109589,6,3,1,55,1,0
60933,-133.333333333333,6,3,1,55,0,0
61369,357.142857142857,6,3,1,25,1,0
61547,410.958904109589,6,3,1,55,1,0
61547,-133.333333333333,6,3,1,55,0,0
61968,422.535211267606,6,3,1,55,1,0
61968,-133.333333333333,6,3,1,55,0,0
64700,422.535211267606,6,3,1,55,1,0
64700,-133.333333333333,6,3,1,55,0,0
65545,405.405405405405,6,3,1,55,1,0
65545,-133.333333333333,6,3,1,55,0,0
66558,412.654745529574,6,3,1,55,1,0
66970,422.535211267606,6,3,1,55,1,0
66970,-133.333333333333,6,3,1,55,0,0
69498,422.535211267606,6,3,1,55,1,0
69498,-133.333333333333,6,3,1,55,0,0
71188,410.958904109589,6,3,1,55,1,0
71188,-133.333333333333,6,3,1,55,0,0
71988,419.58041958042,6,3,1,50,1,0
71988,-200,6,3,1,50,0,0
74505,-200,6,3,1,55,0,0
74708,410.958904109589,6,3,1,55,1,0
74708,-200,6,3,1,55,0,0
75118,-133.333333333333,6,3,1,55,0,0
76987,413.793103448276,6,3,1,55,1,0
76987,-133.333333333333,6,3,1,55,0,0
79262,-200,6,3,1,55,0,0
80090,416.666666666667,6,3,1,55,1,0
80504,-133.333333333333,6,3,1,55,0,0
81740,416.666666666667,6,3,1,55,1,0
81948,-200,6,3,1,55,0,0
83406,-133.333333333333,6,3,1,55,0,0
83615,410.958904109589,6,3,1,55,1,0
83615,-133.333333333333,6,3,1,55,0,0
84847,412.371134020619,6,3,1,55,1,0
84847,-133.333333333333,6,3,1,55,0,0
86702,-100,6,3,1,55,0,0
86908,415.22491349481,6,3,1,55,1,0
86908,-133.333333333333,6,3,1,55,0,0
89606,-200,6,3,1,55,0,0
91884,418.118466898955,6,3,1,55,1,0
92093,-133.333333333333,6,3,1,47,0,0
94392,-100,6,3,1,47,0,0
96065,-83.3333333333333,6,3,1,47,0,0
96918,422.535211267606,6,3,1,47,1,0
97129,-133.333333333333,6,3,1,47,0,0
97777,419.58041958042,6,3,1,47,1,0
97777,-133.333333333333,6,3,1,47,0,0
98630,419.58041958042,6,3,1,47,1,0
98630,-133.333333333333,6,3,1,47,0,0
99468,425.531914893617,6,3,1,47,1,0
100319,422.535211267606,6,3,1,47,1,0
101164,-83.3333333333333,6,3,1,47,0,0
102021,419.58041958042,6,3,1,47,1,0
102198,-133.333333333333,6,3,1,47,0,0
103699,422.535211267606,6,3,1,47,1,0
103699,-133.333333333333,6,3,1,47,0,0
104544,425.531914893617,6,3,1,47,1,0
106246,-83.3333333333333,6,3,1,47,0,0
107091,425.531914893617,6,3,1,47,1,0
107300,-133.333333333333,6,3,1,47,0,0
108793,422.535211267606,6,3,1,47,1,0
108793,-133.333333333333,6,3,1,47,0,0
109638,431.654676258993,6,3,1,47,1,0
111364,-83.3333333333333,6,3,1,47,0,0
112227,419.58041958042,6,3,1,47,1,0
112646,-125,6,3,1,47,0,0
114767,422.535211267606,6,3,1,47,1,0
114767,-111.111111111111,6,3,1,47,0,0
116457,-100,6,3,1,47,0,0
117302,419.58041958042,6,3,1,47,1,0
117721,-125,6,3,1,47,0,0
119819,-111.111111111111,6,3,1,47,0,0
121497,-100,6,3,1,47,0,0
123176,-125,6,3,1,47,0,0
124854,-111.111111111111,6,3,1,47,0,0
126532,-100,6,3,1,47,0,0
127581,-125,6,3,1,47,0,0
129889,413.793103448276,6,3,1,47,1,0
129889,-111.111111111111,6,3,1,47,0,0
131544,422.535211267606,6,3,1,47,1,0
131751,-100,6,3,1,47,0,0
132389,416.666666666667,6,3,1,47,1,0
133787,476.190476190476,4,3,1,55,1,0
134025,408.163265306122,4,3,1,55,1,0
135688,408.163265306122,4,3,1,55,1,0
137320,412.371134020619,4,3,1,55,1,0
146804,397.350993377483,4,3,1,55,1,0
147201,413.793103448276,4,3,1,55,1,0
153821,410.958904109589,4,3,1,60,1,0
153821,-83.3333333333333,4,3,1,60,0,0
157108,419.58041958042,4,3,1,60,1,0
157108,-83.3333333333333,4,3,1,60,0,0
158786,416.666666666667,4,3,1,60,1,0
159202,-83.3333333333333,6,3,1,60,0,0
161494,397.350993377483,6,3,1,35,1,0
161892,408.163265306122,6,3,1,60,1,0
163728,428.571428571429,4,3,1,60,1,0
164585,408.163265306122,4,3,1,60,1,0
165401,417.536534446764,4,3,1,60,1,0
169785,397.350993377483,4,3,1,35,1,0
170182,410.958904109589,4,3,1,60,1,0
173058,402.684563758389,4,3,1,60,1,0
173439,422.535211267606,4,3,1,60,1,0
175327,417.536534446764,4,3,1,60,1,0
178660,428.571428571429,4,3,1,55,1,0
178660,-83.3333333333333,4,3,1,55,0,0
180160,413.793103448276,4,3,1,55,1,0
180160,-100,4,3,1,55,0,0
182022,416.666666666667,4,3,1,55,1,0
182022,-125,4,3,1,55,0,0
183272,432.588320115357,4,3,1,55,1,0
184966,416.666666666667,4,3,1,55,1,0
185174,416.666666666667,4,3,1,55,1,0
185174,-83.3333333333333,4,3,1,55,0,0
185799,387.096774193548,4,3,1,55,1,0
185992,451.127819548872,4,3,1,55,1,0
186217,410.958904109589,4,3,1,55,1,0
187038,-100,4,3,1,55,0,0
187886,397.350993377483,4,3,1,55,1,0
188084,-100,4,3,1,25,0,0
188482,-100,4,3,1,55,0,0
188689,416.666666666667,4,3,1,55,1,0
188689,-125,4,3,1,55,0,0
189939,425.531914893617,4,3,1,55,1,0
191602,428.571428571429,4,3,1,55,1,0
192030,392.156862745098,4,3,1,55,1,0
192030,-83.3333333333333,4,3,1,55,0,0
192831,410.958904109589,4,3,1,55,1,0
193447,422.535211267606,4,3,1,55,1,0
193869,-83.3333333333333,4,3,1,55,0,0
194484,409.556313993174,4,3,1,55,1,0
194484,-83.3333333333333,4,3,1,55,0,0
195303,422.535211267606,4,3,1,55,1,0
196756,444.444444444444,4,3,1,55,1,0
196756,-125,4,3,1,55,0,0
197838,397.350993377483,4,3,1,55,1,0
198235,419.58041958042,4,3,1,55,1,0
198670,384.615384615385,4,3,1,55,1,0
198670,-83.3333333333333,4,3,1,55,0,0
199054,389.61038961039,4,3,1,55,1,0
199248,444.444444444444,4,3,1,55,1,0
199470,416.666666666667,4,3,1,55,1,0
199886,389.61038961039,4,3,1,55,1,0
200080,444.444444444444,4,3,1,55,1,0
200302,419.58041958042,4,3,1,55,1,0
200918,410.958904109589,4,3,1,55,1,0
201534,402.684563758389,4,3,1,55,1,0
201731,402.684563758389,4,3,1,55,1,0
201928,415.22491349481,4,3,1,55,1,0
202343,-125,4,3,1,55,0,0
203401,415.22491349481,4,3,1,55,1,0
203401,-125,4,3,1,55,0,0
204004,415.22491349481,4,3,1,55,1,0
204419,-125,4,3,1,55,0,0
204834,389.61038961039,4,3,1,55,1,0
205244,419.58041958042,6,3,1,55,1,0
205684,420.462508759636,6,3,1,55,1,0
210309,420.31523642732,6,3,1,55,1,0
215352,423.280423280423,6,3,1,55,1,0
217891,425.531914893617,6,3,1,55,1,0
219380,413.793103448276,6,3,1,55,1,0
220414,425.531914893617,6,3,1,55,1,0
224881,-100,6,3,1,25,0,0
225094,480,6,3,1,55,1,0
225495,414.651002073255,6,3,1,55,1,0
229655,419.58041958042,6,3,1,55,1,0
230284,-100,6,3,1,25,0,0
230494,419.58041958042,6,3,1,55,1,0
233200,418.118466898955,6,3,1,55,1,0
235499,422.535211267606,6,3,1,55,1,0
238229,416.666666666667,6,3,1,55,1,0
240520,428.571428571429,6,3,1,55,1,0
242020,413.793103448276,6,3,1,55,1,0
243261,419.58041958042,6,3,1,45,1,0
243261,-111.111111111111,6,3,1,45,0,0
244939,-111.111111111111,6,3,1,25,0,0
245149,-111.111111111111,6,3,1,45,0,0
245568,421.052631578947,6,3,1,45,1,0
248094,416.666666666667,6,3,1,35,1,0
248302,-125,6,3,1,35,0,0
250594,419.58041958042,6,3,1,25,1,0
250594,-142.857142857143,6,3,1,25,0,0
252691,408.163265306122,6,3,1,25,1,0
252691,-142.857142857143,6,3,1,25,0,0
253289,419.58041958042,6,3,1,20,1,0
253289,-166.666666666667,6,3,1,20,0,0
254735,416.666666666667,6,3,1,20,1,0
254735,-166.666666666667,6,3,1,20,0,0
255568,413.793103448276,6,3,1,15,1,0
258050,-100,6,3,1,10,0,0
260533,-100,6,3,1,5,0,0
264749,413.793103448276,6,3,1,5,1,0

[Colours]
Combo1 : 255,192,4
Combo2 : 0,149,0
Combo3 : 196,196,0
Combo4 : 0,100,0

[HitObjects]
415,162,9482,5,2,0:0:0:0:
415,162,9882,1,2,0:0:0:0:
415,162,10283,1,2,0:0:0:0:
415,162,10684,1,2,0:0:0:0:
415,162,11085,1,2,0:0:0:0:
120,289,11473,2,0,B|142:290|142:290|170:304|170:304|182:295|195:298|204:308,1,70,10|0,0:0|0:0,0:0:0:0:
415,338,11902,5,4,0:0:0:0:
289,175,12110,1,0,0:0:0:0:
289,175,12214,1,0,0:0:0:0:
289,175,12318,2,0,B|270:201|269:219|269:219|272:252,1,70,2|0,0:0|0:0,0:0:0:0:
327,351,12735,2,0,B|285:345|285:345|268:353|268:353|239:354|239:354|215:362|181:362,1,140,8|0,0:0|0:0,0:0:0:0:
45,182,13342,1,2,0:0:0:0:
111,229,13550,2,0,B|137:242|164:247|164:247|182:242,2,70,2|0|8,0:0|0:0|0:0,0:0:0:0:
169,153,14175,1,0,0:0:0:0:
291,75,14382,6,0,B|317:104|322:134|322:134|326:156|368:200,1,140
361,193,14992,1,0,0:0:0:0:
310,328,15196,2,0,B|268:344|233:343|233:343|162:313,1,140,8|2,0:0|0:0,0:0:0:0:
95,168,15808,2,0,B|103:186|103:186|107:194|109:206,1,35,2|0,0:0|0:0,0:0:0:0:
97,226,16012,2,0,B|148:213|165:199|165:199|185:154|184:133,1,140,0|8,0:0|0:0,0:0:0:0:
180,221,16624,1,0,0:0:0:0:
141,375,16828,5,4,0:0:0:0:
284,360,17037,1,0,0:0:0:0:
284,360,17141,1,0,0:0:0:0:
284,360,17246,2,0,B|316:341|316:341|327:331|327:331|332:319|350:311,1,70,2|0,0:0|0:0,0:0:0:0:
243,94,17663,2,0,B|196:102|172:103|172:103|142:114|112:146,1,140,8|0,0:0|0:0,0:0:0:0:
247,275,18287,1,2,0:0:0:0:
309,202,18496,2,0,B|332:183|363:182|363:182|397:193,2,70,2|0|8,0:0|0:0|0:0,0:0:0:0:
367,278,19120,1,0,0:0:0:0:
475,348,19329,6,0,B|495:304|483:279|483:279|490:249|477:208,1,140
478,211,19954,1,0,0:0:0:0:
377,54,20153,1,8,0:0:0:0:
323,123,20361,2,0,B|291:143|291:143|267:143|267:143|255:136|183:128,1,140,2|0,0:0|0:0,0:0:0:0:
70,58,20985,1,8,0:0:0:0:
63,209,21194,2,0,L|46:186,2,23.3333333333333,8|8|8,0:0|0:0|0:0,0:0:0:0:
85,235,21403,2,0,B|56:262|56:262|40:268|7:274,1,70,8|0,0:0|0:0,0:0:0:0:
193,340,21789,5,4,0:0:0:0:
310,212,21997,1,0,0:0:0:0:
337,197,22101,1,0,0:0:0:0:
365,184,22206,2,0,B|375:164|375:164|406:154|424:133,1,70,2|0,0:0|0:0,0:0:0:0:
194,71,22623,2,0,B|165:68|148:70|148:70|129:59|109:57|109:57|81:63|52:59,1,140,8|0,0:0|0:0,0:0:0:0:
124,217,23247,1,2,0:0:0:0:
180,279,23456,2,0,B|199:314|199:325|199:325|192:350,2,70,2|0|8,0:0|0:0|0:0,0:0:0:0:
254,213,24080,1,0,0:0:0:0:
394,119,24289,6,0,B|404:152|404:152|409:175|409:175|422:209|439:227|439:227|451:259,1,140
446,247,24914,1,0,0:0:0:0:
298,349,25122,2,0,B|274:336|274:336|248:335|217:342|217:342,1,70,8|2,0:0|0:0,0:0:0:0:
143,379,25539,1,0,0:0:0:0:
146,177,25747,2,0,B|152:168|161:154|161:154|180:140,1,35
245,85,25955,1,6,0:0:0:0:
245,85,26372,1,6,0:0:0:0:
295,153,26580,1,0,0:0:0:0:
97,230,26773,5,4,0:0:0:0:
157,332,26980,1,0,0:0:0:0:
185,347,27084,1,0,0:0:0:0:
211,362,27189,2,0,B|244:374|262:375|262:375|279:387,1,70,2|0,0:0|0:0,0:0:0:0:
415,309,27606,2,0,B|361:298|353:291|353:291|312:229,1,140,8|0,0:0|0:0,0:0:0:0:
317,44,28230,1,2,0:0:0:0:
356,81,28439,2,0,B|324:76|324:76|304:74|267:59,2,70,2|0|8,0:0|0:0|0:0,0:0:0:0:
481,41,29063,1,0,0:0:0:0:
454,226,29272,6,0,B|407:256|395:289|395:289|394:309|374:345,1,140
377,337,29897,1,0,0:0:0:0:
155,282,30105,1,8,0:0:0:0:
79,273,30314,2,0,B|123:266|123:266|149:253|194:194,1,140,2|0,0:0|0:0,0:0:0:0:
247,56,30938,1,8,0:0:0:0:
351,119,31147,1,8,0:0:0:0:
363,125,31216,1,8,0:0:0:0:
374,131,31285,1,8,0:0:0:0:
382,138,31356,2,0,B|408:161|408:161|420:169|444:177,1,70,8|0,0:0|0:0,0:0:0:0:
321,334,31761,6,0,B|286:337|268:340|268:340|243:333,1,70,4|0,0:0|0:0,0:0:0:0:
119,260,32073,1,0,0:0:0:0:
98,245,32178,2,0,B|74:220|74:220|77:191|99:172,1,70,2|0,0:0|0:0,0:0:0:0:
171,25,32597,2,0,B|124:28|93:28|93:28|48:55|47:79,1,140,8|0,0:0|0:0,0:0:0:0:
193,141,33225,2,0,B|241:130|256:132|256:132|285:144,2,70,2|0|0,0:0|0:0|0:0,0:0:0:0:
367,307,33853,1,8,0:0:0:0:
367,307,34062,2,0,B|385:281|385:281|396:268|419:257,1,70
332,107,34481,6,0,B|284:92|284:92|256:92|215:93|170:78,1,140,2|0,0:0|0:0,0:0:0:0:
57,259,35108,1,8,0:0:0:0:
144,229,35318,2,0,B|182:231|196:239|196:239|212:266,1,70,2|0,0:0|0:0,0:0:0:0:
217,357,35736,1,0,0:0:0:0:
409,153,35946,1,6,0:0:0:0:
409,153,36364,1,6,0:0:0:0:
332,107,36573,1,0,0:0:0:0:
104,246,36773,6,0,B|78:214|73:201|73:201|75:171,1,70,4|0,0:0|0:0,0:0:0:0:
149,42,37091,1,0,0:0:0:0:
165,69,37198,2,0,B|171:110|171:110|171:131|160:157,1,70,2|0,0:0|0:0,0:0:0:0:
213,355,37623,2,0,B|253:340|260:327|260:327|280:323,2,70,8|0|0,0:0|0:0|0:0,0:0:0:0:
318,196,38261,1,2,0:0:0:0:
392,258,38474,2,0,B|418:231|422:214|422:214|422:176,1,70
206,38,38899,1,8,0:0:0:0:
206,38,39113,2,0,B|182:71|182:71|170:78|170:78|159:87|146:89,1,70
325,305,39510,6,0,B|346:289|376:286|376:286|401:294|401:294|416:283|441:282|441:282|478:313,1,140,2|0,0:0|0:0,0:0:0:0:
357,57,40147,1,8,0:0:0:0:
301,120,40360,2,0,B|309:145|309:145|293:189|277:175|277:175|246:183|205:168,1,140,2|0,0:0|0:0,0:0:0:0:
71,27,40999,2,0,B|57:70|57:70|55:82|54:105,1,70,8|8,0:0|0:0,0:0:0:0:
98,174,41318,1,8,0:0:0:0:
106,190,41403,2,0,B|93:219|79:232|79:232|56:247,1,70,8|0,0:0|0:0,0:0:0:0:
262,322,41802,5,4,0:0:0:0:
242,145,42033,2,0,B|248:136|257:134|257:134|273:132,1,35
205,127,42243,2,0,B|216:91|214:72|214:72|210:31,1,70,2|0,0:0|0:0,0:0:0:0:
52,154,42663,1,8,0:0:0:0:
97,220,42874,1,0,0:0:0:0:
38,275,43084,1,0,0:0:0:0:
222,225,43295,2,0,B|263:215|275:217|275:217|296:229,2,70,2|0|0,0:0|0:0|0:0,0:0:0:0:
20,57,43927,2,0,B|67:42|67:42|85:44|85:44|92:46|106:68,1,70,8|0,0:0|0:0,0:0:0:0:
188,80,44347,1,0,0:0:0:0:
168,240,44557,6,0,B|197:225|219:204|219:204|255:191|289:225|289:225|299:251,1,140,2|0,0:0|0:0,0:0:0:0:
93,365,45186,1,8,0:0:0:0:
23,286,45396,2,0,B|5:256|3:243|3:243|10:206,1,70,2|0,0:0|0:0,0:0:0:0:
310,337,45816,2,0,B|325:344|325:344|334:348|343:347,1,35
442,307,46025,1,6,0:0:0:0:
442,307,46445,1,6,0:0:0:0:
509,361,46655,1,0,0:0:0:0:
428,181,46864,5,4,0:0:0:0:
222,87,47079,2,0,B|213:64|213:57|221:44,1,35
200,108,47293,2,0,B|189:142|189:142|189:154|189:154|190:157|190:157|197:178,1,70,2|0,0:0|0:0,0:0:0:0:
140,329,47722,2,0,B|114:345|93:349|93:349|66:347,2,70,8|0|0,0:0|0:0|0:0,0:0:0:0:
325,272,48365,2,0,B|365:265|384:257|384:257|402:261,1,70,2|0,0:0|0:0,0:0:0:0:
456,325,48793,1,0,0:0:0:0:
381,78,49007,1,8,0:0:0:0:
381,78,49222,2,0,B|369:98|370:110|370:110|365:124|365:124|354:148,1,70
90,324,49643,6,0,B|130:311|130:311|166:315|207:330|207:330|243:353,1,140,2|0,0:0|0:0,0:0:0:0:
419,316,50275,1,8,0:0:0:0:
328,253,50487,2,0,B|306:286|306:296|307:296|319:337,2,70,0|2|0,0:0|0:0|0:0,0:0:0:0:
208,86,51120,1,2,0:0:0:0:
156,139,51332,1,0,0:0:0:0:
155,184,51543,1,2,0:0:0:0:
140,195,51754,1,0,0:0:0:0:
173,289,51943,6,0,B|198:291|198:291|214:296|233:302,1,52.5000020027161,6|0,0:0|0:0,0:0:0:0:
469,313,52365,2,0,B|434:310|424:319|424:319|386:349|386:349|361:360|317:357,1,157.500006008148,2|0,0:0|0:0,0:0:0:0:
130,325,53209,1,0,0:0:0:0:
58,357,53421,2,0,B|33:373|23:357|23:357|28:328,1,52.5000020027161
131,237,53843,1,2,0:0:0:0:
110,122,54055,2,0,B|129:111|146:110|146:110|177:114,2,52.5000020027161,8|0|0,0:0|0:0|0:0,0:0:0:0:
271,211,54686,6,0,B|304:202|315:206|340:211|354:215|354:215|374:228|385:225,1,105.000004005432,2|0,0:0|0:0,0:0:0:0:
187,70,55308,2,0,B|154:65|109:76|109:76|70:104,1,105.000004005432,8|0,0:0|0:0,0:0:0:0:
169,189,55930,1,0,0:0:0:0:
330,45,56138,1,8,0:0:0:0:
389,158,56346,2,0,B|399:184|399:184|413:207|429:215,2,52.5000020027161,0|2|0,0:0|0:0|0:0,0:0:0:0:
344,330,56968,5,6,0:0:0:0:
174,319,57179,1,2,0:0:0:0:
39,179,57390,2,0,B|55:133|82:120|106:103|106:103|126:151|124:173|124:173|100:202|100:202,1,210.000008010865,2|0,0:0|0:0,0:0:0:0:
23,343,58447,2,0,B|34:319|34:319|46:308|68:302,1,52.5000020027161,2|0,0:0|0:0,0:0:0:0:
152,327,58869,1,2,0:0:0:0:
320,199,59081,2,0,B|309:183|283:178|283:178|265:181,2,52.5000020027161,8|0|0,0:0|0:0|0:0,0:0:0:0:
455,293,59683,6,0,B|421:293|406:302|406:302|395:318|377:340|377:340|364:349,1,105.000004005432,2|0,0:0|0:0,0:0:0:0:
182,299,60312,2,0,B|158:279|147:277|147:277|128:280,1,52.5000020027161,8|0,0:0|0:0,0:0:0:0:
64,321,60730,1,0,0:0:0:0:
109,196,60933,1,0,0:0:0:0:
262,83,61137,1,8,0:0:0:0:
390,71,61369,1,8,0:0:0:0:
425,78,61457,1,8,0:0:0:0:
447,100,61547,2,0,B|447:123|439:137|439:137|426:157,1,52.5000020027161,8|0,0:0|0:0,0:0:0:0:
166,258,61968,6,0,B|148:265|127:262|127:262|114:252,1,52.5000020027161,6|0,0:0|0:0,0:0:0:0:
257,120,62389,1,2,0:0:0:0:
327,260,62601,2,0,B|359:275|377:280|377:280|392:281,1,52.5000020027161,2|8,0:0|0:0,0:0:0:0:
479,297,63023,1,2,0:0:0:0:
301,344,63234,2,0,B|278:353|262:341|246:337|229:336|229:336|213:355|199:366|199:366|185:364|167:370|142:366|142:366|131:356|96:353,1,210.000008010865,2|8,0:0|0:0,0:0:0:0:
32,238,64291,2,0,B|56:215|66:214|66:214|86:199,1,52.5000020027161
295,76,64700,6,0,B|280:69|247:81|222:87|222:87|246:93|258:116,1,105.000004005432,2|0,0:0|0:0,0:0:0:0:
387,241,65332,1,8,0:0:0:0:
306,297,65545,2,0,B|273:312|264:312|264:312|234:308,2,52.5000020027161
134,111,66152,1,8,0:0:0:0:
134,111,66558,1,8,0:0:0:0:
65,175,66764,1,0,0:0:0:0:
134,325,66970,6,0,B|164:325|172:319|172:319|184:306,1,52.5000020027161,6|0,0:0|0:0,0:0:0:0:
304,69,67391,2,0,B|336:51|368:91|368:91|327:144|282:101|233:127|233:127|256:139|265:162,1,262.500010013581,2|2,0:0|0:0,0:0:0:0:
428,256,68659,1,0,0:0:0:0:
470,151,68871,2,0,B|461:143|461:143|451:138|437:134,1,26.2500010013581,2|0,0:0|0:0,0:0:0:0:
304,69,69082,1,8,0:0:0:0:
266,238,69293,1,2,0:0:0:0:
211,301,69498,6,0,B|186:298|165:302|165:302|148:306,1,52.5000020027161,2|2,0:0|0:0,0:0:0:0:
56,370,69919,2,0,B|32:332|38:280|38:280|66:225|49:168,1,210.000008010865,2|2,0:0|0:0,0:0:0:0:
149,99,70976,2,0,B|157:88|163:86|163:86|178:84,1,26.2500010013581,2|0,0:0|0:0,0:0:0:0:
177,53,71188,2,0,B|205:70|207:99|207:99|220:119|220:119|193:153|190:191,1,157.500006008148,8|2,0:0|0:0,0:0:0:0:
249,275,71907,1,0,0:0:0:0:
264,285,71988,6,0,L|407:293,1,140,4|8,0:0|0:0,0:0:0:0:
499,358,73036,2,0,L|469:389,1,35
288,367,73456,2,0,L|99:384,1,175,2|0,0:0|0:0,0:0:0:0:
56,273,74708,2,0,L|105:282,1,35,2|0,0:0|0:0,0:0:0:0:
176,298,75117,1,0,0:0:0:0:
211,96,75324,2,0,B|189:94|174:96|174:96|149:111,2,52.5000020027161,8|2|0,0:0|0:0|0:0,0:0:0:0:
298,138,75939,1,0,0:0:0:0:
476,291,76145,2,0,B|475:307|471:320|457:343,1,52.5000020027161,2|0,0:0|0:0,0:0:0:0:
284,368,76556,1,2,0:0:0:0:
383,282,76762,2,0,L|406:299,2,17.500000667572,2|2|0,0:0|0:0|0:0,0:0:0:0:
388,247,76987,6,0,B|396:214|394:199|394:199|384:182,1,52.5000020027161
370,172,77296,1,0,0:0:0:0:
339,161,77400,2,0,B|321:140|314:121|314:121|312:100,1,52.5000020027161,2|0,0:0|0:0,0:0:0:0:
109,40,77814,2,0,B|84:64|69:86|69:86|63:108|51:131,1,105.000004005432,8|0,0:0|0:0,0:0:0:0:
117,299,78435,2,0,B|125:267|137:264|137:264|158:261,1,52.5000020027161,2|0,0:0|0:0,0:0:0:0:
224,296,78848,1,2,0:0:0:0:
368,285,79054,1,2,0:0:0:0:
487,139,79262,6,0,B|465:117|444:115|444:115|410:125|410:125,2,70,2|2|2,0:0|0:0|0:0,0:0:0:0:
471,248,80297,1,2,0:0:0:0:
282,174,80506,2,0,B|263:166|245:165|226:167,1,52.5000020027161,2|0,0:0|0:0,0:0:0:0:
116,212,80922,2,0,B|118:236|107:246|107:246|98:268,1,52.5000020027161,0|8,0:0|0:0,0:0:0:0:
39,320,81339,1,2,0:0:0:0:
127,344,81547,1,2,0:0:0:0:
341,265,81740,2,0,L|334:237,2,23.3333333333333,2|2|0,0:0|0:0|0:0,0:0:0:0:
392,251,81948,6,0,B|403:219|406:191|406:191|374:159,2,105,6|2|2,0:0|0:0|0:0,0:0:0:0:
382,370,83406,2,0,B|396:359|396:359|406:353|430:356,1,52.5000020027161,2|0,0:0|0:0,0:0:0:0:
490,299,83819,1,0,0:0:0:0:
435,143,84024,1,8,0:0:0:0:
356,29,84231,2,0,B|341:30|323:38|323:38|307:56,2,52.5000020027161,0|0|2,0:0|0:0|0:0,0:0:0:0:
464,22,84847,2,0,B|473:48|476:55|470:77,1,52.5000020027161
367,166,85258,1,8,0:0:0:0:
282,215,85464,2,0,B|264:212|264:212|251:217|226:217,1,52.5000020027161,2|0,0:0|0:0,0:0:0:0:
181,120,85877,2,0,L|169:97,1,26.2500010013581
191,73,86083,2,0,B|181:74|181:79|166:75|166:75|137:82,1,52.5000020027161,2|0,0:0|0:0,0:0:0:0:
55,47,86495,1,2,0:0:0:0:
29,152,86702,2,0,L|12:179,2,23.3333333333333,2|2|0,0:0|0:0|0:0,0:0:0:0:
34,200,86908,6,0,B|62:232|82:233|82:233|107:234|125:242|134:256|140:264|141:267|141:267|164:275|175:290|175:290|197:305|225:303,1,210.000008010865,6|8,0:0|0:0,0:0:0:0:
334,261,87945,1,0,0:0:0:0:
324,110,88152,1,0,0:0:0:0:
230,65,88360,2,0,B|197:73|190:74|190:74|167:72,1,52.5000020027161,2|0,0:0|0:0,0:0:0:0:
101,36,88775,1,0,0:0:0:0:
225,180,88983,1,10,0:0:0:0:
281,250,89190,1,0,0:0:0:0:
264,340,89398,1,2,0:0:0:0:
349,300,89606,2,0,B|379:287|393:287|393:287|423:298,1,70,2|0,0:0|0:0,0:0:0:0:
204,93,90229,6,0,B|175:89|175:89|153:91|153:91|125:106,1,70,2|0,0:0|0:0,0:0:0:0:
266,174,90852,2,0,B|285:166|302:137|302:137|285:112|314:74|314:74|343:66,1,140,2|0,0:0|0:0,0:0:0:0:
408,319,91884,1,6,0:0:0:0:
227,357,92093,6,0,L|196:370,2,26.2500010013581
165,301,92510,1,0,0:0:0:0:
102,259,92719,2,0,B|69:250|69:250|52:244|52:244|25:245|25:245|11:244|8:236|-12:248,1,105.000004005432,2|0,0:0|0:0,0:0:0:0:
45,211,93346,1,2,0:0:0:0:
111,172,93555,2,0,B|143:166|165:166|165:166|182:183|223:172,1,105.000004005432,2|0,0:0|0:0,0:0:0:0:
298,140,94182,1,2,0:0:0:0:
370,84,94392,6,0,B|407:73|434:85|434:85|464:67|482:60|482:60|499:75,1,140,2|0,0:0|0:0,0:0:0:0:
432,106,95018,1,2,0:0:0:0:
268,57,95228,2,0,B|218:43|195:28|195:28|167:22|167:22|152:25|131:26,1,140,2|0,0:0|0:0,0:0:0:0:
49,70,95855,1,2,0:0:0:0:
135,182,96065,2,0,B|182:149|193:130|193:130|194:101|160:21,1,167.999994873047,2|0,0:0|0:0,0:0:0:0:
213,157,96691,1,2,0:0:0:0:
267,257,96918,1,2,0:0:0:0:
285,357,97129,6,0,L|319:372,2,26.2500010013581
347,301,97550,1,2,0:0:0:0:
409,260,97777,2,0,B|442:250|442:250|459:244|459:244|486:245|486:245|500:244|504:236|524:245,1,105.000004005432,2|0,0:0|0:0,0:0:0:0:
467,211,98405,1,2,0:0:0:0:
400,171,98630,2,0,B|368:165|346:165|346:165|329:182|291:174,1,105.000004005432,2|0,0:0|0:0,0:0:0:0:
214,140,99258,1,2,0:0:0:0:
142,84,99468,6,0,B|105:73|78:85|78:85|48:67|30:60|30:60|7:77,1,140,2|0,0:0|0:0,0:0:0:0:
80,106,100105,1,2,0:0:0:0:
247,55,100319,2,0,B|295:43|318:28|318:28|346:22|346:22|361:25|382:26,1,140,2|0,0:0|0:0,0:0:0:0:
463,70,100951,1,2,0:0:0:0:
382,174,101164,2,0,B|330:149|319:130|319:130|318:101|338:24,1,167.999994873047,2|0,0:0|0:0,0:0:0:0:
299,157,101796,1,2,0:0:0:0:
222,279,102021,1,2,0:0:0:0:
135,243,102230,6,0,L|97:233,2,26.2500010013581
98,155,102649,1,2,0:0:0:0:
52,68,102860,2,0,B|76:41|76:41|111:39|154:76,1,105.000004005432,2|0,0:0|0:0,0:0:0:0:
203,135,103488,1,2,0:0:0:0:
281,193,103699,2,0,B|313:194|339:181|339:181|354:156|342:129,1,105.000004005432,2|0,0:0|0:0,0:0:0:0:
305,53,104331,1,2,0:0:0:0:
390,12,104544,6,0,B|422:28|453:35|453:35|492:24|526:10,1,140,2|0,0:0|0:0,0:0:0:0:
486,108,105181,1,2,0:0:0:0:
423,181,105395,2,0,B|414:203|389:216|389:216|348:229|333:307,1,140,2|0,0:0|0:0,0:0:0:0:
377,375,106032,1,2,0:0:0:0:
263,357,106246,2,0,B|217:346|217:346|189:329|189:329|165:310|95:331,1,167.999994873047,2|0,0:0|0:0,0:0:0:0:
23,359,106883,1,2,0:0:0:0:
1,263,107091,1,2,0:0:0:0:
101,149,107303,6,0,L|132:138,2,26.2500010013581
98,229,107728,1,2,0:0:0:0:
49,318,107942,2,0,B|76:343|76:343|111:345|151:318,1,105.000004005432,2|0,0:0|0:0,0:0:0:0:
203,253,108580,1,2,0:0:0:0:
288,191,108793,2,0,B|312:191|338:204|338:204|353:229|332:277,1,105.000004005432,2|0,0:0|0:0,0:0:0:0:
311,335,109425,1,2,0:0:0:0:
390,372,109638,6,0,B|422:356|453:349|453:349|492:360|525:376,1,140,2|0,0:0|0:0,0:0:0:0:
487,272,110284,1,2,0:0:0:0:
424,205,110501,2,0,B|415:183|390:170|390:170|349:157|329:86,1,140,2|0,0:0|0:0,0:0:0:0:
366,5,111147,1,2,0:0:0:0:
257,33,111364,2,0,B|216:43|216:43|188:60|188:60|164:79|83:58,1,167.999994873047,2|0,0:0|0:0,0:0:0:0:
19,23,112011,1,2,0:0:0:0:
0,131,112226,1,2,0:0:0:0:
87,226,112435,5,2,0:0:0:0:
87,226,112540,1,0,0:0:0:0:
87,226,112646,2,0,B|115:251|120:265|120:265|129:286,1,56,2|2,0:0|0:0,0:0:0:0:
210,326,113066,2,0,B|236:333|244:351|244:351|266:360,2,56,2|0|0,0:0|0:0|0:0,0:0:0:0:
270,250,113694,1,2,0:0:0:0:
351,215,113905,2,0,B|369:208|397:212|397:212|408:224,1,56,2|0,0:0|0:0,0:0:0:0:
477,260,114323,1,0,0:0:0:0:
392,174,114533,1,2,0:0:0:0:
301,99,114767,6,0,B|285:70|289:54|289:54|304:33,1,62.9999980773926,2|0,0:0|0:0,0:0:0:0:
389,34,115188,1,0,0:0:0:0:
331,140,115399,1,2,0:0:0:0:
247,188,115612,2,0,B|219:200|213:213|213:213|210:252,1,62.9999980773926,2|0,0:0|0:0,0:0:0:0:
233,322,116033,1,0,0:0:0:0:
170,218,116244,1,2,0:0:0:0:
80,122,116457,2,0,B|44:104|27:103|27:103|-2:115,1,70,2|0,0:0|0:0,0:0:0:0:
29,289,116879,2,0,B|66:258|68:245|68:245|74:210,1,70,0|2,0:0|0:0,0:0:0:0:
42,83,117301,1,2,0:0:0:0:
172,36,117510,5,2,0:0:0:0:
172,36,117615,1,0,0:0:0:0:
172,36,117721,2,0,B|196:45|206:61|206:61|224:80,1,56,2|2,0:0|0:0,0:0:0:0:
313,92,118141,2,0,B|331:89|342:64|342:64|370:56,2,56,2|0|0,0:0|0:0|0:0,0:0:0:0:
302,173,118769,1,2,0:0:0:0:
335,258,118980,2,0,B|353:278|365:282|365:282|400:284,1,56,2|0,0:0|0:0,0:0:0:0:
466,269,119398,1,0,0:0:0:0:
357,321,119608,1,2,0:0:0:0:
248,353,119819,6,0,B|205:359|199:359|199:359|168:341,1,62.9999980773926,2|0,0:0|0:0,0:0:0:0:
120,285,120238,1,0,0:0:0:0:
85,198,120447,1,2,0:0:0:0:
119,98,120658,2,0,B|144:92|162:99|162:99|186:86,1,62.9999980773926,2|0,0:0|0:0,0:0:0:0:
276,57,121077,1,0,0:0:0:0:
366,135,121287,1,2,0:0:0:0:
297,223,121497,2,0,B|281:217|281:217|267:234|233:237,1,70,2|0,0:0|0:0,0:0:0:0:
191,380,121917,2,0,B|210:367|210:367|216:348|253:331,1,70,0|2,0:0|0:0,0:0:0:0:
341,384,122335,1,2,0:0:0:0:
437,308,122545,5,2,0:0:0:0:
437,308,122650,1,0,0:0:0:0:
437,308,122755,1,2,0:0:0:0:
475,228,122965,1,2,0:0:0:0:
423,159,123176,2,0,B|401:147|376:146|376:146|363:154,1,56,2|0,0:0|0:0,0:0:0:0:
277,173,123595,2,0,B|254:187|253:203|253:203|258:235,1,56,0|2,0:0|0:0,0:0:0:0:
268,328,124014,1,2,0:0:0:0:
170,299,124224,1,0,0:0:0:0:
88,231,124434,2,0,B|58:223|54:216|54:216|48:198,1,56,0|2,0:0|0:0,0:0:0:0:
157,109,124854,6,0,B|185:101|205:107|205:107|229:95,1,62.9999980773926,2|0,0:0|0:0,0:0:0:0:
304,56,125273,1,0,0:0:0:0:
400,100,125482,1,2,0:0:0:0:
411,209,125693,2,0,B|406:234|407:251|407:251|422:276,1,62.9999980773926,2|0,0:0|0:0,0:0:0:0:
472,339,126112,1,0,0:0:0:0:
374,256,126321,1,2,0:0:0:0:
245,275,126532,2,0,B|208:283|201:291|201:291|171:279,1,70,2|0,0:0|0:0,0:0:0:0:
42,153,126952,2,0,B|79:181|92:191|99:201|99:221,1,70,0|2,0:0|0:0,0:0:0:0:
72,321,127370,1,2,0:0:0:0:
187,183,127581,6,0,B|192:176|204:168|204:168|214:168,1,28,2|0,0:0|0:0,0:0:0:0:
277,172,127790,1,2,0:0:0:0:
347,230,128000,1,2,0:0:0:0:
415,183,128211,2,0,B|425:162|426:152|426:152|424:141|438:112,1,56,2|0,0:0|0:0,0:0:0:0:
387,41,128630,2,0,B|373:48|373:48|342:45|315:53,1,56,0|2,0:0|0:0,0:0:0:0:
243,65,129049,1,2,0:0:0:0:
179,119,129259,1,0,0:0:0:0:
150,205,129469,2,0,B|153:231|164:246|164:246|191:255,1,56,0|2,0:0|0:0,0:0:0:0:
293,334,129889,6,0,B|294:307|289:297|289:297|262:278,1,62.9999980773926,2|0,0:0|0:0,0:0:0:0:
151,320,130301,1,0,0:0:0:0:
67,254,130508,1,2,0:0:0:0:
90,142,130716,2,0,B|120:147|129:132|129:132|158:148,1,62.9999980773926,2|0,0:0|0:0,0:0:0:0:
246,199,131130,2,0,B|263:203|263:203|281:203|281:203|290:207|317:222,1,62.9999980773926,2|2,0:0|0:0,0:0:0:0:
398,278,131544,5,2,0:0:0:0:
348,108,131755,1,2,0:0:0:0:
256,192,131859,12,2,132960,0:0:0:0:
308,366,133787,6,0,L|350:339,1,35,4|0,0:0|0:0,0:0:0:0:
428,292,134025,6,0,B|407:241|378:236|378:236|319:264,1,140,2|8,0:0|0:0,0:0:0:0:
32,184,134840,2,0,B|53:133|82:128|82:128|154:165,1,140,2|8,0:0|0:0,0:0:0:0:
98,260,135452,2,0,L|129:288,1,35
185,342,135688,5,0,0:0:0:0:
235,226,135891,1,2,0:0:0:0:
206,346,136095,1,0,0:0:0:0:
213,223,136299,1,2,0:0:0:0:
279,352,136503,2,0,B|325:363|334:365|334:365|345:374,1,70,2|0,0:0|0:0,0:0:0:0:
458,209,136911,1,8,0:0:0:0:
486,286,137115,1,2,0:0:0:0:
355,149,137320,6,0,B|350:133|328:126|328:126|299:149|255:152|255:152|215:123,1,140,2|8,0:0|0:0,0:0:0:0:
148,79,137937,1,0,0:0:0:0:
28,296,138144,2,0,B|32:280|55:273|55:273|84:296|128:299|128:299|168:270,1,140,2|8,0:0|0:0,0:0:0:0:
235,226,138762,1,2,0:0:0:0:
360,349,138968,5,0,0:0:0:0:
324,218,139174,1,2,0:0:0:0:
382,341,139380,1,0,0:0:0:0:
300,225,139587,2,0,B|264:207|264:207|246:194|234:159,1,70,2|0,0:0|0:0,0:0:0:0:
194,0,139999,2,0,B|232:15|232:15|241:25|258:45,1,70,2|8,0:0|0:0,0:0:0:0:
148,228,140412,2,0,B|119:250|99:281|99:281|60:291|60:291|25:315,1,140,2|0,0:0|0:0,0:0:0:0:
325,334,141030,6,0,B|351:341|374:331|374:331|418:343,2,70,10|0|2,0:0|0:0|0:0,0:0:0:0:
164,309,141648,1,0,0:0:0:0:
297,182,141855,2,0,B|322:172|334:150|334:150|377:134,1,70,8|4,0:0|0:0,0:0:0:0:
158,197,142267,5,0,0:0:0:0:
235,67,142473,1,2,0:0:0:0:
135,191,142679,1,0,0:0:0:0:
197,50,142886,1,2,0:0:0:0:
106,187,143092,2,0,B|88:232|88:232|83:241|82:271,1,70,0|2,0:0|0:0,0:0:0:0:
195,338,143504,1,8,0:0:0:0:
300,285,143710,1,2,0:0:0:0:
276,123,143917,6,0,B|254:102|234:91|234:91|198:100,2,70,2|0|8,0:0|0:0|0:0,0:0:0:0:
230,275,144535,1,0,0:0:0:0:
369,129,144742,2,0,B|373:98|371:76|371:76|343:51,2,70,2|0|8,0:0|0:0|0:0,0:0:0:0:
218,178,145360,6,0,B|139:165|139:165|105:146|105:146|80:144|15:165,1,210,2|8,0:0|0:0,0:0:0:0:
157,309,146185,2,0,B|202:297|223:300|223:300|257:318|284:337|284:337|323:358|363:351,1,210,2|0,0:0|0:0,0:0:0:0:
412,251,147001,1,8,0:0:0:0:
162,134,147201,6,0,B|122:125|122:125|88:106|88:106|63:104|16:129,1,140,2|8,0:0|0:0,0:0:0:0:
195,335,147821,2,0,B|240:323|261:326|261:326|295:344|322:363|322:363|361:384|397:379,1,210,2|0,0:0|0:0,0:0:0:0:
438,304,148648,1,8,0:0:0:0:
345,208,148855,5,0,0:0:0:0:
183,190,149062,1,2,0:0:0:0:
350,177,149268,1,0,0:0:0:0:
189,163,149475,1,2,0:0:0:0:
351,147,149683,2,0,B|310:170|304:183|304:183|293:224,1,70,2|0,0:0|0:0,0:0:0:0:
219,344,150096,5,2,0:0:0:0:
31,216,150304,2,0,B|72:188|88:189|88:189|105:192,1,70,2|0,0:0|0:0,0:0:0:0:
384,49,150717,2,0,B|342:43|319:58|319:58|288:39|283:39|237:31|237:31|206:59|159:60|159:60|110:40|110:40,1,280,2|0,0:0|0:0,0:0:0:0:
276,72,151752,2,0,B|316:75|323:78|323:78|348:98,1,70,8|2,0:0|0:0,0:0:0:0:
102,209,152165,5,0,0:0:0:0:
277,161,152372,1,2,0:0:0:0:
97,184,152579,1,0,0:0:0:0:
276,188,152786,1,2,0:0:0:0:
94,157,152994,2,0,B|139:171|150:181|150:181|160:205,1,70,2|0,0:0|0:0,0:0:0:0:
127,349,153406,1,0,0:0:0:0:
328,314,153613,1,12,0:0:0:0:
412,177,153821,6,0,P|399:187|385:218,2,41.9999987182618,2|2|2,0:0|0:0|0:0,0:0:0:0:
296,64,154230,1,8,0:0:0:0:
181,113,154436,1,2,0:0:0:0:
170,131,154539,1,2,0:0:0:0:
164,150,154642,2,0,P|160:181|166:215,2,41.9999987182618,2|2|2,0:0|0:0|0:0,0:0:0:0:
39,37,155053,2,0,B|25:73|30:90|33:104|33:104|45:127,1,83.9999974365235,8|0,0:0|0:0,0:0:0:0:
126,298,155463,5,0,0:0:0:0:
305,258,155669,1,2,0:0:0:0:
133,325,155874,1,8,0:0:0:0:
292,233,156080,1,2,0:0:0:0:
157,349,156285,1,2,0:0:0:0:
202,263,156491,1,0,0:0:0:0:
213,155,156696,1,8,0:0:0:0:
163,61,156902,1,2,0:0:0:0:
109,25,157108,6,0,B|138:34|159:27|159:27,2,41.9999987182618,2|2|2,0:0|0:0|0:0,0:0:0:0:
304,1,157527,2,0,B|350:5|372:11|372:11|403:37,1,83.9999974365235,8|2,0:0|0:0,0:0:0:0:
213,115,157841,1,2,0:0:0:0:
197,124,157947,2,0,B|180:134|180:134|152:132,2,41.9999987182618,2|2|2,0:0|0:0|0:0,0:0:0:0:
350,143,158365,1,8,0:0:0:0:
287,301,158575,1,2,0:0:0:0:
38,255,158785,5,0,0:0:0:0:
200,205,158993,1,0,0:0:0:0:
37,217,159202,2,0,B|2:191|3:173|3:173|6:135,1,83.9999974365235,10|0,0:0|0:0,0:0:0:0:
106,37,159618,1,2,0:0:0:0:
259,84,159827,2,0,B|305:106|305:106|312:120|312:120|320:128|346:154,1,83.9999974365235,2|0,0:0|0:0,0:0:0:0:
305,344,160244,2,0,B|366:340|393:347|393:347|425:348|439:342|439:342|468:302,1,167.999994873047,2|0,0:0|0:0,0:0:0:0:
502,79,160868,5,8,0:0:0:0:
459,223,161076,1,0,0:0:0:0:
420,28,161285,1,8,0:0:0:0:
299,147,161493,1,8,0:0:0:0:
287,155,161592,1,8,0:0:0:0:
264,170,161691,1,8,0:0:0:0:
223,176,161791,1,8,0:0:0:0:
168,157,161891,1,8,0:0:0:0:
162,34,162095,5,0,0:0:0:0:
31,134,162299,1,2,0:0:0:0:
143,14,162503,1,8,0:0:0:0:
43,153,162707,1,2,0:0:0:0:
113,0,162911,1,2,0:0:0:0:
105,97,163115,1,0,0:0:0:0:
129,193,163319,1,8,0:0:0:0:
196,273,163523,1,0,0:0:0:0:
256,332,163728,6,0,B|270:325|256:336|221:335,2,35,2|2|2,0:0|0:0|0:0,0:0:0:0:
413,222,164155,1,8,0:0:0:0:
229,172,164369,1,2,0:0:0:0:
209,181,164477,1,2,0:0:0:0:
194,196,164585,2,0,P|181:211|170:241,2,35,0|2|2,0:0|0:0|0:0,0:0:0:0:
79,50,164992,2,0,B|44:81|46:103|46:103|49:125,1,70,8|2,0:0|0:0,0:0:0:0:
109,259,165400,5,0,0:0:0:0:
231,338,165608,1,2,0:0:0:0:
129,233,165818,2,0,B|165:247|180:249|180:249|202:245,1,70,8|2,0:0|0:0,0:0:0:0:
350,233,166235,1,2,0:0:0:0:
421,170,166444,2,0,B|451:148|468:144|468:144|488:144,1,70,0|8,0:0|0:0,0:0:0:0:
457,12,166861,2,0,B|408:12|393:23|393:23|372:48|307:46,1,140,2|0,0:0|0:0,0:0:0:0:
150,60,167487,1,10,0:0:0:0:
150,60,167592,1,0,0:0:0:0:
150,60,167696,2,0,B|155:95|150:117|150:117|92:192,1,140,2|0,0:0|0:0,0:0:0:0:
228,291,168323,2,8,P|243:301|263:306,1,35,10|2,0:0|0:0,0:0:0:0:
267,342,168532,2,0,B|271:303|281:289|281:289|302:253|354:219,1,140,2|0,0:0|0:0,0:0:0:0:
475,152,169157,5,8,0:0:0:0:
282,167,169366,1,0,0:0:0:0:
492,65,169575,1,8,0:0:0:0:
309,45,169784,1,8,0:0:0:0:
299,51,169883,1,8,0:0:0:0:
275,60,169982,1,8,0:0:0:0:
234,66,170082,1,8,0:0:0:0:
183,43,170181,1,8,0:0:0:0:
77,172,170386,5,2,0:0:0:0:
77,172,170489,1,2,0:0:0:0:
77,172,170592,2,0,B|73:199|79:215|79:215|106:245,1,70,0|8,0:0|0:0,0:0:0:0:
246,328,171002,1,2,0:0:0:0:
261,337,171105,1,2,0:0:0:0:
277,342,171208,1,2,0:0:0:0:
297,341,171311,1,2,0:0:0:0:
316,335,171413,1,2,0:0:0:0:
447,222,171619,2,0,B|400:227|394:235|394:235|384:260,1,70,8|2,0:0|0:0,0:0:0:0:
426,319,172030,5,0,0:0:0:0:
299,239,172235,1,2,0:0:0:0:
476,270,172441,1,0,0:0:0:0:
286,273,172646,1,2,0:0:0:0:
498,151,172852,1,2,0:0:0:0:
287,79,173058,2,8,B|270:77|270:77|257:70|257:70|247:67,1,35
132,16,173259,1,8,0:0:0:0:
174,292,173439,6,0,B|203:286|234:301|234:301|268:282|295:299|295:299|309:309,1,140,4|0,0:0|0:0,0:0:0:0:
85,206,174072,2,0,B|46:191|30:200|30:200|4:214,1,70,8|2,0:0|0:0,0:0:0:0:
138,122,174389,1,2,0:0:0:0:
175,134,174494,2,0,P|190:149|197:165,2,35,2|2|2,0:0|0:0|0:0,0:0:0:0:
437,114,174917,2,0,B|437:128|437:128|436:145|413:177,1,70,8|0,0:0|0:0,0:0:0:0:
361,61,175327,5,0,0:0:0:0:
166,85,175534,1,2,0:0:0:0:
349,37,175743,1,8,0:0:0:0:
176,119,175952,1,2,0:0:0:0:
329,11,176161,1,2,0:0:0:0:
260,88,176369,1,0,0:0:0:0:
259,201,176578,1,8,0:0:0:0:
300,296,176787,1,0,0:0:0:0:
369,336,176996,6,0,B|324:325|297:328|297:328|274:346|236:360,1,140,0|8,0:0|0:0,0:0:0:0:
74,321,177622,1,0,0:0:0:0:
26,200,177831,2,0,B|57:174|70:167|70:167|92:162,1,70,2|0,0:0|0:0,0:0:0:0:
198,155,178249,2,0,B|190:193|176:212|176:212|152:228,1,70,10|0,0:0|0:0,0:0:0:0:
342,80,178660,5,6,0:0:0:0:
423,47,178874,2,0,B|472:49|481:68|481:68|477:121|428:164,1,167.999994873047,2|0,0:0|0:0,0:0:0:0:
218,180,179516,1,10,0:0:0:0:
273,303,179730,1,2,0:0:0:0:
114,231,179944,1,8,0:0:0:0:
258,329,180159,1,0,0:0:0:0:
362,319,180365,1,0,0:0:0:0:
448,149,180573,2,0,B|423:109|403:113|386:95|386:95|359:110|339:143,1,140,8|0,0:0|0:0,0:0:0:0:
405,291,181194,2,0,B|396:333|396:333|384:346|368:371,1,70,8|0,0:0|0:0,0:0:0:0:
219,348,181607,1,8,0:0:0:0:
185,330,181710,1,8,0:0:0:0:
155,281,181814,1,6,0:0:0:0:
165,113,182022,6,0,B|190:105|190:105|210:106|210:106|232:100,1,56,2|0,0:0|0:0,0:0:0:0:
302,18,182438,2,0,B|347:24|347:24|353:20|371:21|399:47|427:46|427:46|438:58|457:96|428:143,1,224,2|0,0:0|0:0,0:0:0:0:
424,157,183703,1,2,0:0:0:0:
413,181,184136,1,2,0:0:0:0:
401,208,184568,1,2,0:0:0:0:
125,47,184966,1,8,0:0:0:0:
54,124,185174,6,0,B|8:110|-16:140|-16:140|-8:221|46:247,1,167.999994873047,2|0,0:0|0:0,0:0:0:0:
119,359,185798,1,2,0:0:0:0:
211,326,185991,1,0,0:0:0:0:
171,205,186216,1,8,0:0:0:0:
351,283,186421,1,0,0:0:0:0:
188,101,186626,1,8,0:0:0:0:
331,249,186832,1,0,0:0:0:0:
254,346,187037,1,0,0:0:0:0:
161,155,187244,2,0,B|192:115|213:106|213:106|241:110|260:126|260:126|259:149,1,140,8|0,0:0|0:0,0:0:0:0:
401,285,187886,1,8,0:0:0:0:
434,146,188083,1,8,0:0:0:0:
434,122,188183,1,8,0:0:0:0:
419,92,188282,1,8,0:0:0:0:
385,62,188381,1,8,0:0:0:0:
330,44,188481,1,14,0:0:0:0:
188,49,188689,6,0,B|185:74|185:74|186:92|186:92|174:112,1,56,2|0,0:0|0:0,0:0:0:0:
130,202,189105,2,0,B|108:223|93:225|93:225|72:228|53:214|34:207|34:207|20:232|29:258|29:258|46:300|88:290,1,224,2|2,0:0|0:0,0:0:0:0:
91,294,190363,1,2,0:0:0:0:
116,290,190789,1,2,0:0:0:0:
141,285,191214,1,2,0:0:0:0:
436,82,191602,1,8,0:0:0:0:
383,172,191815,5,2,0:0:0:0:
501,217,192030,2,0,B|520:261|468:283|468:283|448:275|416:290|383:256,1,167.999994873047,2|2,0:0|0:0,0:0:0:0:
275,201,192617,1,0,0:0:0:0:
115,250,192831,1,8,0:0:0:0:
257,165,193035,1,0,0:0:0:0:
150,318,193240,1,8,0:0:0:0:
220,139,193446,1,0,0:0:0:0:
317,102,193658,1,0,0:0:0:0:
446,191,193869,2,0,B|424:233|395:247|395:247|360:227|337:221|337:221|300:230,1,167.999994873047,8|0,0:0|0:0,0:0:0:0:
17,266,194484,2,0,B|53:289|79:278|79:278|108:297,1,83.9999974365235,8|0,0:0|0:0,0:0:0:0:
266,362,194892,1,8,0:0:0:0:
300,347,194994,1,8,0:0:0:0:
328,301,195097,1,12,0:0:0:0:
220,129,195303,6,0,B|186:130|179:134|179:134|163:142|163:142|145:161,1,70,2|0,0:0|0:0,0:0:0:0:
315,206,195724,2,0,B|356:203|376:198|376:198|390:191,1,70,2|0,0:0|0:0,0:0:0:0:
286,62,196147,2,0,B|254:38|249:25|249:25|245:-4,2,70,2|2|0,0:0|0:0|0:0,0:0:0:0:
475,167,196756,2,0,B|476:212|466:234|466:234|417:268|417:268|391:312|361:311|361:311|324:319,1,224,2|2,0:0|0:0,0:0:0:0:
318,320,197838,1,2,0:0:0:0:
70,86,198234,1,8,0:0:0:0:
168,38,198443,5,4,0:0:0:0:
249,92,198670,2,0,B|262:128|247:174|247:174|213:180|151:161,1,167.999994873047,2|2,0:0|0:0,0:0:0:0:
332,119,199247,1,2,0:0:0:0:
397,277,199469,1,8,0:0:0:0:
371,119,199677,1,0,0:0:0:0:
319,296,199885,1,8,0:0:0:0:
407,142,200079,1,0,0:0:0:0:
341,43,200301,1,2,0:0:0:0:
166,125,200511,2,0,B|140:163|141:183|141:183|144:200,1,70,8|2,0:0|0:0,0:0:0:0:
188,308,200918,1,0,0:0:0:0:
86,29,201122,2,0,B|63:67|63:67|57:79|58:108,1,70,8|0,0:0|0:0,0:0:0:0:
222,214,201534,1,8,0:0:0:0:
253,227,201634,1,8,0:0:0:0:
302,222,201731,1,14,0:0:0:0:
412,55,201928,6,0,B|371:58|367:62|367:62|343:74,1,70,2|0,0:0|0:0,0:0:0:0:
422,171,202343,2,0,B|432:210|432:229|432:229|429:260|429:260|407:275|396:312|396:312|361:330|346:369,1,224,2|0,0:0|0:0,0:0:0:0:
192,343,203401,6,0,B|152:336|152:336|134:346|134:346|114:339|83:348|83:348,1,112,4|0,0:0|0:0,0:0:0:0:
83,347,204004,1,2,0:0:0:0:
141,249,204210,1,2,0:0:0:0:
235,161,204419,2,0,B|263:148|286:145|286:145|312:148,1,56,2|0,0:0|0:0,0:0:0:0:
487,251,204834,2,0,B|468:268|468:268|461:291|461:291|449:292|439:306,1,70,8|0,0:0|0:0,0:0:0:0:
310,352,205244,5,4,0:0:0:0:
109,243,205452,1,0,0:0:0:0:
100,214,205557,1,0,0:0:0:0:
104,178,205684,2,0,B|131:151|142:144|142:144|176:143,1,70,2|0,0:0|0:0,0:0:0:0:
344,94,206103,2,0,B|337:132|342:140|342:140|341:155|325:175,2,70,8|0|0,0:0|0:0|0:0,0:0:0:0:
479,9,206734,2,0,B|499:41|497:71|497:71|472:94|460:111|460:111|449:143|449:143,1,140,2|0,0:0|0:0,0:0:0:0:
338,270,207364,1,8,0:0:0:0:
338,270,207575,2,0,B|308:282|320:303|320:303|327:316|327:316|332:349,1,70
35,363,207996,6,0,B|41:328|41:328|48:308|87:288|87:288|115:293|153:286,1,140,2|0,0:0|0:0,0:0:0:0:
281,178,208626,2,0,B|244:182|218:200|218:200|202:220,2,70,8|0|2,0:0|0:0|0:0,0:0:0:0:
388,199,209256,1,0,0:0:0:0:
439,360,209467,1,8,0:0:0:0:
295,343,209677,2,0,B|264:357|243:360|243:360|210:356,2,70,2|0|0,0:0|0:0|0:0,0:0:0:0:
126,153,210308,5,4,0:0:0:0:
273,38,210518,2,0,B|280:32|280:32|288:22|292:9,1,35
316,47,210728,2,0,B|303:68|303:90|303:90|312:135,1,70,2|0,0:0|0:0,0:0:0:0:
356,234,211148,1,8,0:0:0:0:
300,289,211358,1,0,0:0:0:0:
229,252,211568,1,0,0:0:0:0:
32,291,211779,2,0,B|75:282|97:290|117:296|117:296|141:316|141:316|173:336,1,140,2|0,0:0|0:0,0:0:0:0:
323,358,212409,2,0,B|363:344|368:332|368:332|376:300,2,70,8|0|0,0:0|0:0|0:0,0:0:0:0:
77,123,213040,6,0,B|117:100|162:106|162:106|160:133|160:133|122:158,1,140,2|0,0:0|0:0,0:0:0:0:
216,312,213670,1,8,0:0:0:0:
286,344,213880,1,0,0:0:0:0:
372,266,214090,2,0,B|400:239|416:239|416:239|445:252,1,70,2|0,0:0|0:0,0:0:0:0:
287,150,214511,1,10,0:0:0:0:
193,233,214721,1,0,0:0:0:0:
237,77,214931,1,8,0:0:0:0:
171,222,215141,1,0,0:0:0:0:
64,60,215351,5,6,0:0:0:0:
153,306,215562,1,0,0:0:0:0:
189,327,215668,1,0,0:0:0:0:
226,337,215774,2,0,B|254:330|268:321|272:323|277:323|277:323|305:334,1,70,2|0,0:0|0:0,0:0:0:0:
440,363,216198,2,0,B|486:382|496:380|496:380|522:370,1,70,8|0,0:0|0:0,0:0:0:0:
491,275,216620,1,0,0:0:0:0:
438,60,216832,1,2,0:0:0:0:
490,145,217044,2,0,B|475:181|465:187|465:187|427:176,1,70
218,112,217467,1,8,0:0:0:0:
218,112,217679,2,0,B|193:129|186:146|186:146|194:158|199:178,1,70
300,303,218103,6,0,B|333:318|345:318|345:318|377:298,2,70,2|0|0,0:0|0:0|0:0,0:0:0:0:
116,179,218741,1,8,0:0:0:0:
61,121,218953,1,0,0:0:0:0:
118,67,219166,1,2,0:0:0:0:
257,35,219379,1,0,0:0:0:0:
394,80,219585,1,8,0:0:0:0:
215,184,219793,2,0,B|243:212|254:219|254:219|288:203|288:203|316:205|340:196,1,140,2|0,0:0|0:0,0:0:0:0:
179,351,220413,5,4,0:0:0:0:
20,215,220625,1,0,0:0:0:0:
19,178,220732,1,0,0:0:0:0:
41,146,220838,1,2,0:0:0:0:
153,94,221051,1,0,0:0:0:0:
382,150,221264,2,0,B|369:186|358:191|358:191|327:199,1,70,8|0,0:0|0:0,0:0:0:0:
231,175,221689,1,0,0:0:0:0:
324,43,221903,2,0,B|354:39|377:48|377:48|408:34,1,70,2|0,0:0|0:0,0:0:0:0:
482,87,222327,1,0,0:0:0:0:
351,260,222540,1,8,0:0:0:0:
351,260,222754,2,0,B|333:289|333:306|333:306|343:330,1,70
70,209,223179,6,0,B|108:197|122:204|122:204|140:230,2,70,2|0|0,0:0|0:0|0:0,0:0:0:0:
145,70,223817,1,8,0:0:0:0:
204,123,224030,1,0,0:0:0:0:
274,62,224242,1,2,0:0:0:0:
383,135,224455,1,0,0:0:0:0:
506,34,224668,1,10,0:0:0:0:
448,223,224882,1,8,0:0:0:0:
442,235,224953,1,8,0:0:0:0:
436,248,225023,1,8,0:0:0:0:
430,260,225094,2,0,B|402:291|381:298|381:298|342:301,1,70,8|8,0:0|0:0,0:0:0:0:
278,329,225494,5,6,0:0:0:0:
110,148,225701,1,2,0:0:0:0:
145,153,225804,1,2,0:0:0:0:
173,174,225909,2,0,B|180:189|182:201|182:201|183:214,2,35,2|2|2,0:0|0:0|0:0,0:0:0:0:
315,108,226323,2,0,B|348:97|365:97|365:97|389:107,2,70,8|0|2,0:0|0:0|0:0,0:0:0:0:
347,226,226945,1,2,0:0:0:0:
449,288,227152,1,0,0:0:0:0:
332,249,227359,1,2,0:0:0:0:
386,382,227567,1,8,0:0:0:0:
240,322,227774,2,0,B|216:312|197:314|197:314|166:322,1,70
217,65,228189,6,0,B|266:64|285:71|285:71|314:100|365:91,1,140,2|2,0:0|0:0,0:0:0:0:
86,199,228811,1,8,0:0:0:0:
112,294,229019,2,0,B|137:319|150:327|150:327|181:334,2,70,0|2|0,0:0|0:0|0:0,0:0:0:0:
207,106,229655,1,10,0:0:0:0:
209,212,229863,1,0,0:0:0:0:
302,75,230073,1,8,0:0:0:0:
273,267,230283,1,8,0:0:0:0:
278,280,230353,1,8,0:0:0:0:
284,292,230423,1,8,0:0:0:0:
291,303,230493,6,0,B|306:328|320:341|320:341|342:348,1,70,6|2,0:0|0:0,0:0:0:0:
432,285,230807,1,2,0:0:0:0:
456,260,230913,2,0,B|450:250|450:250|446:239|450:223|450:223,2,35,2|2|2,0:0|0:0|0:0,0:0:0:0:
418,50,231332,1,8,0:0:0:0:
357,111,231542,2,0,B|332:136|316:134|316:134|284:121,1,70,2|0,0:0|0:0,0:0:0:0:
51,139,231962,2,0,B|55:174|64:187|64:187|95:202,2,70,2|0|2,0:0|0:0|0:0,0:0:0:0:
126,4,232590,1,8,0:0:0:0:
211,83,232801,2,0,B|222:110|236:117|236:129|236:130|243:152,1,70
88,351,233200,6,0,B|125:327|164:347|164:347|211:350|221:338|221:338|241:329,1,140,2|0,0:0|0:0,0:0:0:0:
397,188,233826,1,8,0:0:0:0:
460,276,234035,2,0,B|434:309|423:312|423:312|389:319,1,70,0|2,0:0|0:0,0:0:0:0:
292,260,234453,1,0,0:0:0:0:
112,270,234662,2,0,B|90:239|86:227|86:227|90:200,1,70,8|8,0:0|0:0,0:0:0:0:
144,100,234976,1,8,0:0:0:0:
179,75,235080,2,0,B|215:59|232:63|232:63|270:75,1,70,8|0,0:0|0:0,0:0:0:0:
349,229,235499,6,0,B|322:215|296:212|296:212|283:215,1,70,4|2,0:0|0:0,0:0:0:0:
174,305,235814,1,2,0:0:0:0:
196,339,235921,2,0,B|220:343|228:349|228:349|241:360|241:360,2,35,2|2|2,0:0|0:0|0:0,0:0:0:0:
436,319,236343,2,0,B|455:295|458:267|458:267|448:244,1,70,8|0,0:0|0:0,0:0:0:0:
387,183,236765,1,2,0:0:0:0:
153,101,236977,2,0,B|146:136|165:164|165:164|183:189|186:215|186:215|162:244,1,140
18,60,237610,1,8,0:0:0:0:
122,21,237822,2,0,B|165:17|187:19|187:19|213:28,1,70
391,118,238229,6,0,B|357:142|349:166|349:166|358:203|358:203|365:227|384:243,1,140,2|0,0:0|0:0,0:0:0:0:
163,346,238853,1,8,0:0:0:0:
224,274,239062,2,0,B|258:288|258:288|273:302|281:330,2,70,0|2|0,0:0|0:0|0:0,0:0:0:0:
86,189,239686,1,8,0:0:0:0:
32,72,239894,1,0,0:0:0:0:
182,157,240103,1,8,0:0:0:0:
47,58,240311,1,0,0:0:0:0:
266,29,240519,5,6,0:0:0:0:
373,132,240733,1,2,0:0:0:0:
364,151,240840,1,2,0:0:0:0:
353,166,240947,2,0,B|337:181|337:181|332:190|331:204,1,35,2|2,0:0|0:0,0:0:0:0:
335,264,241161,1,2,0:0:0:0:
429,345,241376,2,0,B|452:360|480:373|480:373|494:373,1,70,8|0,0:0|0:0,0:0:0:0:
478,267,241804,1,2,0:0:0:0:
230,162,242020,2,0,B|191:179|181:194|181:194|176:216,2,70,2|0|2,0:0|0:0|0:0,0:0:0:0:
433,78,242639,1,8,0:0:0:0:
341,38,242847,2,0,B|303:27|281:27|281:27|262:30,1,70
15,112,243261,6,0,B|48:139|53:165|53:165|50:192|50:192|45:209|20:229|19:230,1,125.999996154785,2|0,0:0|0:0,0:0:0:0:
95,303,243889,1,8,0:0:0:0:
157,344,244099,1,0,0:0:0:0:
208,286,244309,2,0,B|242:295|254:302|257:306|257:306|260:320,1,62.9999980773926,2|0,0:0|0:0,0:0:0:0:
476,326,244728,1,8,0:0:0:0:
391,223,244939,2,0,L|376:246,2,20.9999993591309,8|8|8,0:0|0:0|0:0,0:0:0:0:
383,186,245148,2,0,B|368:160|350:149|350:149|325:142,1,62.9999980773926,8|0,0:0|0:0,0:0:0:0:
90,202,245567,5,6,0:0:0:0:
183,103,245777,1,2,0:0:0:0:
183,103,245882,1,2,0:0:0:0:
183,103,245988,2,0,B|223:87|233:75|233:75|248:35,1,70,2|0,0:0|0:0,0:0:0:0:
444,105,246409,2,0,B|465:133|466:139|466:139|454:171,2,70,8|0|2,0:0|0:0|0:0,0:0:0:0:
266,176,247041,2,0,B|240:205|231:222|231:223|228:248,1,70,2|0,0:0|0:0,0:0:0:0:
253,324,247461,1,2,0:0:0:0:
119,112,247672,1,8,0:0:0:0:
119,112,247883,2,0,B|78:96|66:100|66:100|41:102,1,70
42,250,248302,6,0,B|61:248|94:262|94:262|113:285|137:301|137:301|154:302,1,112,2|0,0:0|0:0,0:0:0:0:
325,352,248927,2,0,B|302:335|299:322|299:322|304:296,1,56,8|0,0:0|0:0,0:0:0:0:
381,157,249344,2,0,B|397:184|397:194|397:194|388:215,1,56,2|0,0:0|0:0,0:0:0:0:
199,82,249759,1,6,0:0:0:0:
199,82,250176,1,6,0:0:0:0:
148,151,250384,1,0,0:0:0:0:
180,244,250594,6,0,B|201:253|219:268|219:268|225:273,1,48.9999985046387,6|2,0:0|0:0,0:0:0:0:
247,341,250908,1,2,0:0:0:0:
247,341,251013,2,0,B|270:353|294:353|294:353|312:348,1,48.9999985046387,2|0,0:0|0:0,0:0:0:0:
408,304,251433,2,0,B|425:297|447:300|447:300|468:308,2,48.9999985046387,8|0|0,0:0|0:0|0:0,0:0:0:0:
344,223,252062,2,0,B|314:200|292:197|292:197|234:203,1,97.9999970092774,2|2,0:0|0:0,0:0:0:0:
156,257,252691,2,0,L|139:287,2,24.4999992523194,8|8|8,0:0|0:0|0:0,0:0:0:0:
108,118,253098,1,0,0:0:0:0:
108,118,253289,6,0,B|130:100|142:96|142:96,2,41.9999987182618,2|8|0,0:0|0:0|0:0,0:0:0:0:
208,170,253918,2,0,B|235:184|247:180|247:180|263:170,1,41.9999987182618,2|0,0:0|0:0,0:0:0:0:
299,82,254337,2,0,B|295:53|283:47|283:47|267:39,1,41.9999987182618,6|0,0:0|0:0,0:0:0:0:
152,24,254735,2,0,B|139:30|120:37|108:35,3,41.9999987182618,2|0|2|0,0:0|0:0|0:0|0:0,0:0:0:0:
59,109,255568,1,6,0:0:0:0:
256,192,255671,12,0,264749,0:0:0:0:
