osu file format v14

[General]
AudioFilename: audio.mp3
AudioLeadIn: 0
PreviewTime: 144479
Countdown: 0
SampleSet: Normal
StackLeniency: 0.7
Mode: 1
LetterboxInBreaks: 0
WidescreenStoryboard: 1

[Editor]
Bookmarks: 75383
DistanceSpacing: 0.8
BeatDivisor: 4
GridSize: 8
TimelineZoom: 2.2

[Metadata]
Title:Never Meant (Sewerslvt & Sadfem Remix)
TitleUnicode:Never Meant (Sewerslvt & Sadfem Remix)
Artist:American Football
ArtistUnicode:American Football
Creator:Horiiizon
Version:Oni
Source:
Tags:sewerslut atmospheric drum and bass dnb breakcore english electronic experimental emo jungle rave
BeatmapID:2523902
BeatmapSetID:1210059

[Difficulty]
HPDrainRate:6
CircleSize:5
OverallDifficulty:5.5
ApproachRate:5
SliderMultiplier:1.4
SliderTickRate:1

[Events]
//Background and Video events
0,0,"Forget.jpg",0,-100
//Break Periods
//Storyboard Layer 0 (Background)
//Storyboard Layer 1 (Fail)
//Storyboard Layer 2 (Pass)
//Storyboard Layer 3 (Foreground)
//Storyboard Layer 4 (Overlay)
//Storyboard Sound Samples

[TimingPoints]
479,387.096774193548,32,1,0,5,1,8
10541,-133.333333333333,5,1,0,50,0,0
12431,-133.333333333333,5,1,0,70,0,0
12478,-100,4,1,0,70,0,8
12867,387.096774193548,4,1,0,70,1,0
13012,-100,4,1,0,80,0,0
31254,-92.5925925925926,4,1,0,90,0,0
31447,-92.5925925925926,4,1,0,90,0,0
49834,-100,4,1,0,90,0,0
49979,-100,4,1,0,80,0,0
66866,-102.040816326531,4,1,0,80,0,0
67060,-104.166666666667,4,1,0,80,0,0
67254,-106.382978723404,4,1,0,80,0,0
67447,-108.695652173913,4,1,0,80,0,0
67544,-109.89010989011,4,1,0,80,0,0
67641,-111.111111111111,4,1,0,80,0,0
67834,-113.636363636364,4,1,0,80,0,0
68028,-116.279069767442,4,1,0,80,0,0
68221,-119.047619047619,4,1,0,80,0,0
68318,-120.481927710843,4,1,0,80,0,0
68415,-121.951219512195,4,1,0,80,0,0
68560,-121.951219512195,4,1,0,60,0,0
68608,-125,4,1,0,60,0,0
87141,-111.111111111111,4,1,0,70,0,0
104415,-108.695652173913,4,1,0,70,0,0
104608,-107.52688172043,4,1,0,70,0,0
104802,-106.382978723404,4,1,0,70,0,0
104899,-105.820105820106,4,1,0,70,0,0
104996,-105.263157894737,4,1,0,70,0,0
105092,-104.712041884817,4,1,0,70,0,0
105189,-104.166666666667,4,1,0,70,0,0
105576,-101.522842639594,4,1,0,70,0,0
105721,-100,4,1,0,80,0,0
123963,-102.040816326531,4,1,0,80,0,0
124157,-104.166666666667,4,1,0,80,0,0
124254,-105.263157894737,4,1,0,80,0,0
125850,-100,4,1,0,70,0,0
142930,-98.4455958549223,5,1,0,70,0,8
143124,-97.4358974358974,5,1,0,70,0,8
143317,-96.4467005076142,5,1,0,70,0,8
143414,-95.9595959595959,5,1,0,70,0,8
143511,-95.4773869346734,5,1,0,70,0,8
143704,-94.5273631840796,5,1,0,70,0,8
143898,-93.5960591133005,5,1,0,70,0,8
144091,-92.6829268292683,5,1,0,70,0,8
144188,-92.2330097087379,5,1,0,70,0,8
144285,-91.7874396135266,5,1,0,70,0,8
144431,-91.7874396135266,5,1,0,90,0,8
144479,-90.9090909090909,5,1,0,90,0,9
166157,-91.8918918918919,5,1,0,90,0,9
166350,-93.9226519337017,5,1,0,90,0,9
166447,-94.9720670391062,5,1,0,90,0,9
166544,-96.045197740113,5,1,0,90,0,9
166737,-98.2658959537572,5,1,0,90,0,9
166834,-99.4152046783626,5,1,0,90,0,9
166931,-100.591715976331,5,1,0,90,0,9
167124,-103.030303030303,5,1,0,90,0,9
167318,-105.590062111801,5,1,0,90,0,9
167415,-106.918238993711,5,1,0,90,0,9
167511,-108.28025477707,5,1,0,90,0,9
167657,-111.111111111111,4,1,0,60,0,1
167705,-110.940755417792,4,1,0,60,0,0
192431,-100,4,1,0,90,0,0
209899,-99.009900990099,4,1,0,90,0,0
209996,-98.5221674876847,4,1,0,90,0,0
210092,-98.0392156862745,4,1,0,90,0,0
210286,-97.0873786407767,4,1,0,90,0,0
210479,-96.1538461538461,4,1,0,90,0,0
210673,-95.2380952380952,4,1,0,90,0,0
210770,-94.7867298578199,4,1,0,90,0,0
210866,-94.3396226415094,4,1,0,90,0,0
211060,-93.4579439252336,4,1,0,90,0,0
246673,-96.5250965250965,5,1,0,90,0,8
246866,-98.135426889107,5,1,0,90,0,8
247060,-99.8003992015968,5,1,0,90,0,8
247253,-101.522842639594,5,1,0,90,0,8
247350,-102.406554019457,5,1,0,90,0,8
247447,-103.305785123967,5,1,0,90,0,8
247544,-104.220948410631,5,1,0,90,0,8
247641,-105.15247108307,5,1,0,90,0,8
247834,-107.066381156317,5,1,0,90,0,8
247931,-108.049702863317,5,1,0,90,0,8
248028,-109.051254089422,5,1,0,90,0,8
248221,-111.111111111111,5,1,0,60,0,8
285334,-111.111111111111,5,1,0,40,0,8
285383,387.096774193548,32,1,0,40,1,8
285383,-111.111111111111,32,1,0,40,0,8
285770,-111.111111111111,32,1,0,39,0,8
286157,-111.111111111111,32,1,0,38,0,8
286544,-111.111111111111,32,1,0,37,0,8
286931,-111.111111111111,32,1,0,36,0,8
287318,-111.111111111111,32,1,0,35,0,8
287705,-111.111111111111,32,1,0,34,0,8
288092,-111.111111111111,32,1,0,33,0,8
288479,-111.111111111111,32,1,0,32,0,8
288866,-111.111111111111,32,1,0,31,0,8
289253,-111.111111111111,32,1,0,30,0,8
289641,-111.111111111111,32,1,0,29,0,8
290028,-111.111111111111,32,1,0,28,0,8
290415,-111.111111111111,32,1,0,27,0,8
290802,-111.111111111111,32,1,0,26,0,8
291189,-111.111111111111,32,1,0,25,0,8

[HitObjects]
224,186,10543,5,0,0:0:0:0:
193,157,10930,1,0,0:0:0:0:
197,159,11317,1,0,0:0:0:0:
217,139,11704,1,0,0:0:0:0:
221,159,12091,1,0,0:0:0:0:
235,180,12478,1,12,0:0:0:0:
202,147,12672,1,0,0:0:0:0:
202,147,12867,1,0,0:0:0:0:
227,194,13060,1,8,0:0:0:0:
224,198,13157,1,8,0:0:0:0:
226,199,13254,1,0,0:0:0:0:
226,199,13447,1,0,0:0:0:0:
213,237,13641,1,8,0:0:0:0:
220,224,13737,1,0,0:0:0:0:
220,224,13834,1,0,0:0:0:0:
224,224,14028,1,8,0:0:0:0:
218,215,14221,1,0,0:0:0:0:
218,215,14318,1,8,0:0:0:0:
218,215,14415,1,0,0:0:0:0:
225,218,14608,1,8,0:0:0:0:
225,218,14705,1,8,0:0:0:0:
226,218,14802,1,0,0:0:0:0:
203,130,14996,1,0,0:0:0:0:
207,160,15189,1,8,0:0:0:0:
215,177,15286,1,8,0:0:0:0:
215,177,15383,1,8,0:0:0:0:
204,230,15576,1,8,0:0:0:0:
206,233,15770,1,0,0:0:0:0:
204,204,15963,1,8,0:0:0:0:
211,169,16157,1,8,0:0:0:0:
210,204,16350,1,0,0:0:0:0:
210,204,16447,1,0,0:0:0:0:
234,214,16544,1,8,0:0:0:0:
231,174,16737,1,0,0:0:0:0:
236,173,16931,1,8,0:0:0:0:
204,166,17318,1,0,0:0:0:0:
227,168,17512,1,0,0:0:0:0:
196,160,17705,1,8,0:0:0:0:
200,183,17802,1,0,0:0:0:0:
200,183,17899,1,8,0:0:0:0:
200,183,18092,1,8,0:0:0:0:
200,183,18189,1,8,0:0:0:0:
200,183,18286,1,0,0:0:0:0:
203,166,18479,1,0,0:0:0:0:
205,163,18673,1,8,0:0:0:0:
205,163,18866,1,8,0:0:0:0:
203,162,18963,1,0,0:0:0:0:
203,162,19060,1,0,0:0:0:0:
203,162,19254,1,0,0:0:0:0:
206,148,19447,1,8,0:0:0:0:
217,144,19544,1,8,0:0:0:0:
209,165,19641,1,8,0:0:0:0:
216,160,19834,1,0,0:0:0:0:
216,160,19931,1,0,0:0:0:0:
216,160,20028,1,0,0:0:0:0:
217,161,20221,1,8,0:0:0:0:
228,207,20415,1,0,0:0:0:0:
214,163,20608,1,8,0:0:0:0:
226,198,20802,1,8,0:0:0:0:
236,232,20996,1,8,0:0:0:0:
226,198,21092,1,0,0:0:0:0:
206,220,21189,1,8,0:0:0:0:
206,220,21383,1,0,0:0:0:0:
222,190,21576,1,8,0:0:0:0:
211,201,21963,1,0,0:0:0:0:
197,196,22157,1,0,0:0:0:0:
253,227,22350,1,8,0:0:0:0:
223,159,22447,1,8,0:0:0:0:
223,159,22544,1,0,0:0:0:0:
247,212,22737,1,8,0:0:0:0:
237,236,22834,1,0,0:0:0:0:
237,236,22931,1,8,0:0:0:0:
237,237,23125,1,0,0:0:0:0:
230,220,23318,1,8,0:0:0:0:
222,226,23512,1,8,0:0:0:0:
227,230,23608,1,0,0:0:0:0:
222,226,23705,1,0,0:0:0:0:
194,198,23899,1,8,0:0:0:0:
194,198,23996,1,8,0:0:0:0:
194,198,24092,1,0,0:0:0:0:
194,198,24286,1,8,0:0:0:0:
211,207,24479,1,0,0:0:0:0:
209,226,24673,1,8,0:0:0:0:
209,225,24770,1,8,0:0:0:0:
209,225,24866,1,8,0:0:0:0:
228,223,25060,1,0,0:0:0:0:
228,223,25254,1,8,0:0:0:0:
228,223,25447,1,8,0:0:0:0:
209,226,25641,1,0,0:0:0:0:
207,206,25737,1,0,0:0:0:0:
206,206,25834,1,8,0:0:0:0:
239,255,26028,1,0,0:0:0:0:
380,156,26221,1,8,0:0:0:0:
204,200,26608,1,0,0:0:0:0:
200,200,26802,1,0,0:0:0:0:
204,200,26996,1,8,0:0:0:0:
215,190,27092,1,0,0:0:0:0:
215,190,27189,1,8,0:0:0:0:
213,224,27383,1,0,0:0:0:0:
222,258,27479,1,0,0:0:0:0:
213,224,27576,1,8,0:0:0:0:
226,231,27770,1,0,0:0:0:0:
224,228,27963,1,8,0:0:0:0:
210,229,28157,1,8,0:0:0:0:
206,214,28254,1,0,0:0:0:0:
210,229,28350,1,0,0:0:0:0:
201,204,28544,1,0,0:0:0:0:
201,204,28641,1,8,0:0:0:0:
204,209,28737,1,8,0:0:0:0:
201,204,28931,1,8,0:0:0:0:
222,243,29125,1,8,0:0:0:0:
216,258,29221,1,0,0:0:0:0:
264,237,29318,1,8,0:0:0:0:
216,258,29512,1,8,0:0:0:0:
245,210,29705,1,0,0:0:0:0:
219,187,29899,1,8,0:0:0:0:
217,155,30092,1,8,0:0:0:0:
196,222,30286,1,0,0:0:0:0:
196,222,30383,1,0,0:0:0:0:
196,222,30479,1,8,0:0:0:0:
196,222,30673,1,0,0:0:0:0:
219,226,30866,1,8,0:0:0:0:
233,165,31254,1,0,0:0:0:0:
213,210,31447,1,4,0:0:0:0:
237,198,31641,1,8,0:0:0:0:
213,210,31737,1,0,0:0:0:0:
206,186,31834,1,0,0:0:0:0:
211,229,32028,1,0,0:0:0:0:
193,197,32221,1,8,0:0:0:0:
194,199,32318,1,0,0:0:0:0:
194,199,32415,1,8,0:0:0:0:
211,229,32608,1,8,0:0:0:0:
211,229,32802,1,0,0:0:0:0:
204,185,32899,1,8,0:0:0:0:
204,185,32996,1,0,0:0:0:0:
206,222,33189,1,8,0:0:0:0:
206,222,33286,1,8,0:0:0:0:
191,195,33383,1,8,0:0:0:0:
206,236,33576,1,0,0:0:0:0:
206,203,33770,1,8,0:0:0:0:
211,212,33963,1,0,0:0:0:0:
231,258,34060,1,0,0:0:0:0:
204,199,34157,1,8,0:0:0:0:
220,237,34350,1,0,0:0:0:0:
198,236,34544,1,8,0:0:0:0:
219,268,34737,1,0,0:0:0:0:
219,268,34834,1,0,0:0:0:0:
214,217,34931,1,0,0:0:0:0:
216,170,35125,1,0,0:0:0:0:
218,175,35318,1,8,0:0:0:0:
236,172,35512,1,8,0:0:0:0:
245,176,35899,1,0,0:0:0:0:
195,178,36092,1,0,0:0:0:0:
181,217,36286,1,8,0:0:0:0:
200,193,36383,1,8,0:0:0:0:
200,192,36479,1,0,0:0:0:0:
197,227,36673,1,0,0:0:0:0:
214,232,36770,1,0,0:0:0:0:
214,232,36866,1,8,0:0:0:0:
259,312,37060,1,0,0:0:0:0:
228,305,37254,1,8,0:0:0:0:
212,232,37447,1,8,0:0:0:0:
243,238,37544,1,0,0:0:0:0:
212,232,37641,1,0,0:0:0:0:
222,241,37834,1,8,0:0:0:0:
221,227,38028,1,8,0:0:0:0:
206,219,38125,1,8,0:0:0:0:
206,207,38221,1,0,0:0:0:0:
212,232,38415,1,8,0:0:0:0:
212,232,38608,1,0,0:0:0:0:
215,214,38705,1,8,0:0:0:0:
230,214,38802,1,8,0:0:0:0:
247,217,38996,1,0,0:0:0:0:
203,218,39189,1,0,0:0:0:0:
221,222,39383,1,8,0:0:0:0:
200,217,39576,1,8,0:0:0:0:
221,222,39770,1,0,0:0:0:0:
221,222,39866,1,0,0:0:0:0:
221,222,39963,1,8,0:0:0:0:
239,199,40157,1,8,0:0:0:0:
252,231,40544,1,0,0:0:0:0:
296,159,40737,1,0,0:0:0:0:
221,222,40931,1,8,0:0:0:0:
221,222,41028,1,0,0:0:0:0:
221,222,41125,1,8,0:0:0:0:
212,235,41318,1,0,0:0:0:0:
236,253,41512,1,8,0:0:0:0:
236,253,41608,1,8,0:0:0:0:
229,243,41705,1,8,0:0:0:0:
184,219,41899,1,8,0:0:0:0:
200,214,41996,1,8,0:0:0:0:
184,219,42092,1,0,0:0:0:0:
213,217,42286,1,0,0:0:0:0:
210,211,42479,1,8,0:0:0:0:
206,205,42576,1,0,0:0:0:0:
206,206,42673,1,8,0:0:0:0:
232,185,42866,1,0,0:0:0:0:
230,190,43060,1,8,0:0:0:0:
221,182,43254,1,0,0:0:0:0:
194,160,43350,1,0,0:0:0:0:
238,217,43447,1,8,0:0:0:0:
212,272,43641,1,0,0:0:0:0:
194,246,43834,1,8,0:0:0:0:
204,237,44028,1,8,0:0:0:0:
209,231,44221,1,0,0:0:0:0:
249,254,44415,1,0,0:0:0:0:
194,160,44512,1,8,0:0:0:0:
199,220,44608,1,8,0:0:0:0:
205,212,44802,1,8,0:0:0:0:
167,202,45189,1,0,0:0:0:0:
167,202,45383,1,0,0:0:0:0:
169,181,45576,1,8,0:0:0:0:
169,181,45673,1,8,0:0:0:0:
169,181,45770,1,0,0:0:0:0:
192,184,45963,1,0,0:0:0:0:
192,184,46060,1,0,0:0:0:0:
201,195,46157,1,8,0:0:0:0:
190,196,46350,1,0,0:0:0:0:
190,196,46544,1,8,0:0:0:0:
190,196,46737,1,0,0:0:0:0:
190,196,46834,1,0,0:0:0:0:
190,196,46931,1,0,0:0:0:0:
217,191,47125,1,8,0:0:0:0:
217,191,47221,1,0,0:0:0:0:
217,191,47318,1,0,0:0:0:0:
194,167,47512,1,0,0:0:0:0:
194,167,47705,1,8,0:0:0:0:
200,146,47899,1,0,0:0:0:0:
200,146,47996,1,8,0:0:0:0:
200,146,48092,1,8,0:0:0:0:
200,164,48286,1,0,0:0:0:0:
179,139,48479,1,0,0:0:0:0:
180,122,48673,1,8,0:0:0:0:
204,173,48866,1,8,0:0:0:0:
196,172,48963,1,0,0:0:0:0:
196,172,49060,1,0,0:0:0:0:
196,172,49254,1,8,0:0:0:0:
252,187,49447,1,0,0:0:0:0:
211,220,49834,1,0,0:0:0:0:
220,227,50028,1,0,0:0:0:0:
222,181,50221,1,8,0:0:0:0:
226,183,50415,1,8,0:0:0:0:
226,183,50512,1,0,0:0:0:0:
227,184,50608,1,0,0:0:0:0:
228,206,50802,1,8,0:0:0:0:
223,209,50899,1,8,0:0:0:0:
223,209,50996,1,0,0:0:0:0:
230,193,51189,1,8,0:0:0:0:
205,205,51383,1,0,0:0:0:0:
205,205,51479,1,0,0:0:0:0:
230,193,51576,1,0,0:0:0:0:
219,225,51770,1,8,0:0:0:0:
209,207,51866,1,0,0:0:0:0:
209,207,51963,1,0,0:0:0:0:
221,163,52157,1,8,0:0:0:0:
190,206,52350,1,0,0:0:0:0:
201,212,52544,1,0,0:0:0:0:
201,212,52641,1,0,0:0:0:0:
201,212,52737,1,8,0:0:0:0:
226,158,52931,1,8,0:0:0:0:
226,158,53125,1,0,0:0:0:0:
230,186,53318,1,8,0:0:0:0:
230,186,53415,1,0,0:0:0:0:
230,186,53512,1,0,0:0:0:0:
219,215,53705,1,0,0:0:0:0:
230,186,53899,1,8,0:0:0:0:
196,191,54092,1,8,0:0:0:0:
213,263,54479,1,0,0:0:0:0:
201,215,54673,1,0,0:0:0:0:
226,246,54866,1,8,0:0:0:0:
211,220,55060,1,0,0:0:0:0:
245,234,55254,1,0,0:0:0:0:
245,234,55350,1,0,0:0:0:0:
245,234,55447,1,8,0:0:0:0:
245,234,55641,1,0,0:0:0:0:
245,234,55834,1,8,0:0:0:0:
245,234,55931,1,8,0:0:0:0:
245,234,56028,1,0,0:0:0:0:
245,234,56221,1,0,0:0:0:0:
212,237,56415,1,8,0:0:0:0:
212,237,56512,1,0,0:0:0:0:
208,187,56608,1,0,0:0:0:0:
213,198,56802,1,8,0:0:0:0:
213,198,56996,1,0,0:0:0:0:
187,163,57189,1,0,0:0:0:0:
187,163,57286,1,8,0:0:0:0:
182,165,57383,1,8,0:0:0:0:
198,173,57576,1,0,0:0:0:0:
198,173,57770,1,8,0:0:0:0:
180,225,57963,1,8,0:0:0:0:
193,225,58060,1,8,0:0:0:0:
193,225,58157,1,0,0:0:0:0:
203,218,58350,1,0,0:0:0:0:
228,220,58544,1,8,0:0:0:0:
196,190,58737,1,8,0:0:0:0:
228,220,59125,1,0,0:0:0:0:
200,172,59318,1,0,0:0:0:0:
196,198,59512,1,8,0:0:0:0:
199,214,59705,1,0,0:0:0:0:
192,227,59899,1,0,0:0:0:0:
197,227,59996,1,0,0:0:0:0:
197,227,60092,1,8,0:0:0:0:
188,231,60286,1,0,0:0:0:0:
192,227,60479,1,8,0:0:0:0:
192,227,60576,1,0,0:0:0:0:
192,227,60673,1,8,0:0:0:0:
192,227,60866,1,0,0:0:0:0:
185,211,61060,1,8,0:0:0:0:
187,211,61157,1,0,0:0:0:0:
187,211,61254,1,0,0:0:0:0:
207,212,61447,1,0,0:0:0:0:
207,212,61641,1,8,0:0:0:0:
207,212,61834,1,0,0:0:0:0:
222,171,61931,1,0,0:0:0:0:
214,191,62028,1,8,0:0:0:0:
207,176,62221,1,0,0:0:0:0:
207,176,62415,1,0,0:0:0:0:
207,212,62608,1,8,0:0:0:0:
232,234,62705,1,8,0:0:0:0:
232,234,62802,1,0,0:0:0:0:
227,250,62996,1,0,0:0:0:0:
202,206,63189,1,8,0:0:0:0:
223,222,63383,1,8,0:0:0:0:
223,189,63770,1,0,0:0:0:0:
197,172,63963,1,0,0:0:0:0:
223,189,64157,1,8,0:0:0:0:
223,189,64350,1,0,0:0:0:0:
224,219,64544,1,0,0:0:0:0:
224,219,64641,1,0,0:0:0:0:
224,219,64737,1,8,0:0:0:0:
224,219,64931,1,0,0:0:0:0:
224,219,65125,1,8,0:0:0:0:
224,219,65318,1,8,0:0:0:0:
224,219,65415,1,0,0:0:0:0:
224,219,65512,1,0,0:0:0:0:
224,219,65705,1,8,0:0:0:0:
230,219,65802,1,8,0:0:0:0:
224,219,65899,1,0,0:0:0:0:
208,205,66092,1,8,0:0:0:0:
230,219,66286,1,8,0:0:0:0:
230,219,66479,1,0,0:0:0:0:
230,219,66576,1,0,0:0:0:0:
230,219,66673,1,8,0:0:0:0:
219,174,66866,1,0,0:0:0:0:
227,182,67060,1,8,0:0:0:0:
241,144,67254,1,8,0:0:0:0:
221,227,67447,1,8,0:0:0:0:
202,173,67544,1,0,0:0:0:0:
221,227,67641,1,0,0:0:0:0:
215,180,67834,1,8,0:0:0:0:
227,182,68028,1,0,0:0:0:0:
199,186,68221,1,8,0:0:0:0:
199,186,68318,1,8,0:0:0:0:
199,186,68415,1,0,0:0:0:0:
221,191,68608,1,8,0:0:0:0:
209,227,69963,1,8,0:0:0:0:
225,196,70544,1,0,0:0:0:0:
256,232,70641,1,0,0:0:0:0:
254,229,70737,1,0,0:0:0:0:
219,207,70931,1,8,0:0:0:0:
178,194,71125,1,0,0:0:0:0:
205,218,71318,1,8,0:0:0:0:
230,238,71705,1,0,0:0:0:0:
236,247,72092,1,0,0:0:0:0:
236,247,72286,1,0,0:0:0:0:
244,246,72479,1,8,0:0:0:0:
244,246,72866,1,8,0:0:0:0:
249,245,73060,1,0,0:0:0:0:
207,198,73447,1,8,0:0:0:0:
218,218,73544,1,0,0:0:0:0:
203,202,73641,1,0,0:0:0:0:
211,195,73834,1,8,0:0:0:0:
213,207,74028,1,0,0:0:0:0:
248,213,74415,1,8,0:0:0:0:
229,196,74608,1,0,0:0:0:0:
229,196,74802,1,0,0:0:0:0:
209,190,74996,1,8,0:0:0:0:
204,224,75383,1,0,0:0:0:0:
204,224,75770,1,8,0:0:0:0:
204,224,76157,1,0,0:0:0:0:
227,228,77512,1,0,0:0:0:0:
227,228,77899,1,8,0:0:0:0:
231,216,78479,1,8,0:0:0:0:
234,232,79060,1,0,0:0:0:0:
219,207,80221,1,8,0:0:0:0:
178,194,80415,1,0,0:0:0:0:
205,218,80608,1,8,0:0:0:0:
230,238,80996,1,0,0:0:0:0:
236,247,81383,1,0,0:0:0:0:
236,247,81576,1,0,0:0:0:0:
244,246,81770,1,8,0:0:0:0:
244,246,82157,1,8,0:0:0:0:
249,245,82350,1,0,0:0:0:0:
214,223,82737,1,0,0:0:0:0:
201,201,82834,1,0,0:0:0:0:
203,202,82931,1,0,0:0:0:0:
211,195,83125,1,8,0:0:0:0:
213,207,83318,1,0,0:0:0:0:
248,213,83705,1,8,0:0:0:0:
229,196,83899,1,0,0:0:0:0:
229,196,84092,1,0,0:0:0:0:
221,172,84479,1,8,0:0:0:0:
221,172,84673,1,8,0:0:0:0:
220,162,85060,1,0,0:0:0:0:
220,162,85641,1,8,0:0:0:0:
220,162,86221,1,8,0:0:0:0:
221,170,86415,1,8,0:0:0:0:
228,173,87189,1,0,0:0:0:0:
194,223,87383,1,8,0:0:0:0:
192,219,87576,1,8,0:0:0:0:
191,216,87770,1,0,0:0:0:0:
196,229,87866,1,0,0:0:0:0:
233,205,87963,1,8,0:0:0:0:
219,136,88157,1,0,0:0:0:0:
178,142,88350,1,0,0:0:0:0:
219,136,88544,1,8,0:0:0:0:
219,136,88737,1,0,0:0:0:0:
203,157,88931,1,8,0:0:0:0:
203,140,89125,1,0,0:0:0:0:
209,149,89318,1,8,0:0:0:0:
202,150,89415,1,8,0:0:0:0:
198,149,89512,1,0,0:0:0:0:
200,149,89705,1,8,0:0:0:0:
199,148,89899,1,0,0:0:0:0:
206,169,90092,1,8,0:0:0:0:
201,170,90479,1,8,0:0:0:0:
204,184,90673,1,8,0:0:0:0:
201,160,90866,1,0,0:0:0:0:
221,187,90963,1,8,0:0:0:0:
201,160,91060,1,0,0:0:0:0:
216,208,91254,1,8,0:0:0:0:
192,180,91447,1,0,0:0:0:0:
185,146,91641,1,8,0:0:0:0:
238,231,92028,1,0,0:0:0:0:
211,183,92221,1,8,0:0:0:0:
213,197,92415,1,0,0:0:0:0:
213,197,92512,1,8,0:0:0:0:
213,197,92608,1,8,0:0:0:0:
186,174,92802,1,8,0:0:0:0:
186,174,92996,1,0,0:0:0:0:
190,187,93189,1,0,0:0:0:0:
204,171,93576,1,0,0:0:0:0:
186,174,93770,1,8,0:0:0:0:
187,199,93963,1,0,0:0:0:0:
180,194,94060,1,0,0:0:0:0:
192,191,94157,1,8,0:0:0:0:
179,196,94350,1,8,0:0:0:0:
179,196,94544,1,0,0:0:0:0:
205,227,94737,1,8,0:0:0:0:
216,236,95125,1,0,0:0:0:0:
216,236,95318,1,8,0:0:0:0:
216,211,95512,1,8,0:0:0:0:
216,211,95608,1,0,0:0:0:0:
216,211,95705,1,0,0:0:0:0:
224,216,95899,1,8,0:0:0:0:
216,211,96092,1,0,0:0:0:0:
213,177,96286,1,0,0:0:0:0:
235,181,96673,1,0,0:0:0:0:
235,181,96866,1,8,0:0:0:0:
229,215,97060,1,0,0:0:0:0:
229,215,97157,1,8,0:0:0:0:
229,215,97254,1,0,0:0:0:0:
203,177,97447,1,8,0:0:0:0:
226,203,97641,1,0,0:0:0:0:
233,202,97834,1,8,0:0:0:0:
215,173,98221,1,0,0:0:0:0:
207,167,98415,1,8,0:0:0:0:
226,215,98608,1,8,0:0:0:0:
246,221,98705,1,0,0:0:0:0:
232,218,98802,1,8,0:0:0:0:
187,193,98996,1,8,0:0:0:0:
187,183,99189,1,0,0:0:0:0:
187,183,99383,1,0,0:0:0:0:
193,190,99770,1,0,0:0:0:0:
193,190,99963,1,8,0:0:0:0:
215,226,100157,1,0,0:0:0:0:
215,226,100254,1,0,0:0:0:0:
220,248,100350,1,0,0:0:0:0:
215,226,100544,1,8,0:0:0:0:
185,220,100737,1,0,0:0:0:0:
193,221,100931,1,8,0:0:0:0:
190,217,101318,1,0,0:0:0:0:
185,213,101512,1,8,0:0:0:0:
227,170,101705,1,0,0:0:0:0:
220,249,101802,1,0,0:0:0:0:
237,228,101899,1,8,0:0:0:0:
215,218,102092,1,8,0:0:0:0:
215,218,102286,1,0,0:0:0:0:
215,218,102479,1,0,0:0:0:0:
197,196,102866,1,0,0:0:0:0:
197,196,103060,1,8,0:0:0:0:
206,227,103254,1,0,0:0:0:0:
213,224,103350,1,8,0:0:0:0:
219,282,103447,1,8,0:0:0:0:
219,282,103641,1,0,0:0:0:0:
204,278,103834,1,0,0:0:0:0:
203,278,104028,1,8,0:0:0:0:
211,271,104415,1,0,0:0:0:0:
221,263,104608,1,8,0:0:0:0:
249,293,104802,1,0,0:0:0:0:
254,286,104899,1,0,0:0:0:0:
254,286,104996,1,8,0:0:0:0:
254,286,105092,1,8,0:0:0:0:
230,281,105189,1,0,0:0:0:0:
221,263,105576,1,8,0:0:0:0:
213,272,105770,1,0,0:0:0:0:
232,215,105963,1,8,0:0:0:0:
232,215,106157,1,8,0:0:0:0:
232,215,106350,1,0,0:0:0:0:
232,215,106447,1,0,0:0:0:0:
232,215,106544,1,8,0:0:0:0:
221,214,106737,1,0,0:0:0:0:
221,214,106931,1,8,0:0:0:0:
221,214,107028,1,8,0:0:0:0:
221,214,107125,1,0,0:0:0:0:
225,216,107318,1,0,0:0:0:0:
225,216,107512,1,8,0:0:0:0:
225,216,107705,1,0,0:0:0:0:
200,174,107899,1,8,0:0:0:0:
230,184,107996,1,8,0:0:0:0:
234,217,108092,1,8,0:0:0:0:
215,186,108286,1,0,0:0:0:0:
195,167,108383,1,8,0:0:0:0:
249,190,108479,1,8,0:0:0:0:
254,248,108673,1,8,0:0:0:0:
188,222,108866,1,0,0:0:0:0:
194,182,109060,1,0,0:0:0:0:
170,169,109254,1,8,0:0:0:0:
205,199,109447,1,0,0:0:0:0:
205,199,109544,1,0,0:0:0:0:
177,149,109641,1,8,0:0:0:0:
181,151,109834,1,8,0:0:0:0:
194,170,110221,1,0,0:0:0:0:
194,170,110318,1,0,0:0:0:0:
194,170,110415,1,0,0:0:0:0:
194,170,110608,1,8,0:0:0:0:
187,222,110705,1,0,0:0:0:0:
199,187,110802,1,8,0:0:0:0:
231,196,110996,1,0,0:0:0:0:
231,196,111092,1,0,0:0:0:0:
231,196,111189,1,8,0:0:0:0:
244,198,111383,1,0,0:0:0:0:
244,198,111576,1,8,0:0:0:0:
218,184,111770,1,8,0:0:0:0:
218,184,111866,1,0,0:0:0:0:
218,184,111963,1,0,0:0:0:0:
207,187,112157,1,8,0:0:0:0:
207,187,112350,1,0,0:0:0:0:
197,188,112544,1,0,0:0:0:0:
197,188,112641,1,8,0:0:0:0:
195,182,112737,1,8,0:0:0:0:
194,184,112931,1,0,0:0:0:0:
194,184,113028,1,0,0:0:0:0:
194,184,113125,1,8,0:0:0:0:
197,186,113318,1,8,0:0:0:0:
173,177,113512,1,0,0:0:0:0:
172,168,113705,1,8,0:0:0:0:
173,168,113899,1,0,0:0:0:0:
174,168,114092,1,0,0:0:0:0:
187,180,114189,1,0,0:0:0:0:
181,168,114286,1,8,0:0:0:0:
197,186,114479,1,8,0:0:0:0:
189,165,114866,1,0,0:0:0:0:
187,206,115060,1,0,0:0:0:0:
172,175,115254,1,8,0:0:0:0:
171,176,115350,1,8,0:0:0:0:
171,176,115447,1,0,0:0:0:0:
249,220,115641,1,0,0:0:0:0:
216,221,115737,1,0,0:0:0:0:
216,221,115834,1,8,0:0:0:0:
216,221,116028,1,0,0:0:0:0:
216,221,116221,1,8,0:0:0:0:
216,221,116318,1,8,0:0:0:0:
216,221,116415,1,0,0:0:0:0:
223,220,116608,1,0,0:0:0:0:
239,256,116802,1,8,0:0:0:0:
239,256,116996,1,0,0:0:0:0:
239,256,117189,1,8,0:0:0:0:
222,217,117286,1,0,0:0:0:0:
222,217,117383,1,8,0:0:0:0:
223,220,117576,1,0,0:0:0:0:
239,256,117673,1,8,0:0:0:0:
239,256,117770,1,8,0:0:0:0:
239,235,117963,1,0,0:0:0:0:
244,225,118157,1,8,0:0:0:0:
219,224,118350,1,0,0:0:0:0:
219,224,118447,1,0,0:0:0:0:
219,224,118544,1,8,0:0:0:0:
225,222,118737,1,0,0:0:0:0:
225,222,118931,1,8,0:0:0:0:
271,176,119125,1,8,0:0:0:0:
239,251,119512,1,8,0:0:0:0:
241,217,119705,1,0,0:0:0:0:
198,263,119899,1,8,0:0:0:0:
210,246,119996,1,0,0:0:0:0:
210,246,120092,1,8,0:0:0:0:
207,220,120286,1,0,0:0:0:0:
207,220,120383,1,0,0:0:0:0:
207,220,120479,1,8,0:0:0:0:
176,207,120673,1,8,0:0:0:0:
184,213,120866,1,8,0:0:0:0:
184,213,120963,1,8,0:0:0:0:
182,209,121060,1,0,0:0:0:0:
182,209,121254,1,0,0:0:0:0:
183,210,121447,1,8,0:0:0:0:
173,184,121641,1,0,0:0:0:0:
239,167,121834,1,8,0:0:0:0:
235,174,121931,1,8,0:0:0:0:
235,174,122028,1,8,0:0:0:0:
212,179,122221,1,0,0:0:0:0:
212,179,122318,1,0,0:0:0:0:
197,180,122415,1,8,0:0:0:0:
184,179,122608,1,0,0:0:0:0:
220,260,122802,1,0,0:0:0:0:
200,191,122996,1,8,0:0:0:0:
224,237,123189,1,8,0:0:0:0:
194,228,123383,1,0,0:0:0:0:
194,228,123479,1,0,0:0:0:0:
194,228,123576,1,8,0:0:0:0:
193,217,123673,1,8,0:0:0:0:
193,217,123770,1,0,0:0:0:0:
181,216,123963,1,0,0:0:0:0:
194,228,124157,1,8,0:0:0:0:
201,225,124254,1,8,0:0:0:0:
191,240,125899,1,0,0:0:0:0:
213,221,126092,1,8,0:0:0:0:
213,221,126189,1,0,0:0:0:0:
213,221,126286,1,8,0:0:0:0:
201,211,126479,1,0,0:0:0:0:
201,211,126576,1,8,0:0:0:0:
201,211,126673,1,8,0:0:0:0:
197,208,126866,1,0,0:0:0:0:
197,208,127060,1,8,0:0:0:0:
203,210,127254,1,8,0:0:0:0:
224,223,127350,1,8,0:0:0:0:
201,211,127447,1,0,0:0:0:0:
201,211,127641,1,8,0:0:0:0:
201,211,127737,1,0,0:0:0:0:
203,210,127834,1,0,0:0:0:0:
197,208,128028,1,8,0:0:0:0:
221,213,128221,1,8,0:0:0:0:
221,213,128318,1,8,0:0:0:0:
221,213,128415,1,0,0:0:0:0:
186,156,128996,1,8,0:0:0:0:
193,182,129189,1,8,0:0:0:0:
175,209,129286,1,0,0:0:0:0:
177,197,129479,1,0,0:0:0:0:
177,197,129576,1,8,0:0:0:0:
225,290,129770,1,0,0:0:0:0:
231,240,129963,1,8,0:0:0:0:
186,198,130157,1,8,0:0:0:0:
221,185,130254,1,8,0:0:0:0:
186,198,130350,1,0,0:0:0:0:
186,198,130544,1,0,0:0:0:0:
186,198,130737,1,0,0:0:0:0:
186,198,130931,1,8,0:0:0:0:
214,263,131125,1,8,0:0:0:0:
196,213,131221,1,0,0:0:0:0:
201,229,131318,1,0,0:0:0:0:
215,154,131512,1,8,0:0:0:0:
226,203,131899,1,0,0:0:0:0:
187,182,132092,1,0,0:0:0:0:
194,200,132189,1,0,0:0:0:0:
187,182,132383,1,0,0:0:0:0:
226,193,132479,1,8,0:0:0:0:
188,247,132673,1,8,0:0:0:0:
204,221,132866,1,8,0:0:0:0:
199,178,132963,1,0,0:0:0:0:
199,178,133060,1,8,0:0:0:0:
246,246,133254,1,8,0:0:0:0:
246,246,133447,1,0,0:0:0:0:
246,246,133544,1,0,0:0:0:0:
204,221,133641,1,0,0:0:0:0:
246,246,133834,1,8,0:0:0:0:
204,221,134028,1,0,0:0:0:0:
202,222,134125,1,0,0:0:0:0:
202,222,134221,1,8,0:0:0:0:
202,222,134415,1,0,0:0:0:0:
215,187,134608,1,8,0:0:0:0:
214,215,135189,1,0,0:0:0:0:
214,215,135383,1,0,0:0:0:0:
214,215,135576,1,8,0:0:0:0:
232,214,135770,1,8,0:0:0:0:
223,205,135866,1,0,0:0:0:0:
223,205,135963,1,8,0:0:0:0:
198,183,136157,1,0,0:0:0:0:
241,252,136350,1,8,0:0:0:0:
214,215,136544,1,0,0:0:0:0:
229,195,136931,1,0,0:0:0:0:
207,178,137028,1,8,0:0:0:0:
207,178,137125,1,8,0:0:0:0:
206,131,137318,1,8,0:0:0:0:
206,177,137512,1,0,0:0:0:0:
216,185,137608,1,0,0:0:0:0:
206,177,137705,1,8,0:0:0:0:
201,207,137899,1,8,0:0:0:0:
206,220,138092,1,0,0:0:0:0:
220,227,138286,1,8,0:0:0:0:
210,210,138479,1,8,0:0:0:0:
187,207,138673,1,8,0:0:0:0:
183,204,138770,1,0,0:0:0:0:
187,207,138866,1,8,0:0:0:0:
187,207,139060,1,0,0:0:0:0:
189,208,139254,1,8,0:0:0:0:
219,167,139447,1,8,0:0:0:0:
190,161,139544,1,0,0:0:0:0:
213,169,139641,1,0,0:0:0:0:
212,169,139834,1,0,0:0:0:0:
234,202,140221,1,8,0:0:0:0:
286,281,140415,1,8,0:0:0:0:
204,162,140512,1,8,0:0:0:0:
204,162,140608,1,0,0:0:0:0:
203,161,140802,1,0,0:0:0:0:
204,162,140996,1,8,0:0:0:0:
190,145,141092,1,0,0:0:0:0:
190,145,141189,1,8,0:0:0:0:
196,175,141383,1,0,0:0:0:0:
196,175,141576,1,0,0:0:0:0:
196,175,141673,1,0,0:0:0:0:
196,175,141770,1,8,0:0:0:0:
169,170,141963,1,0,0:0:0:0:
169,170,142157,1,8,0:0:0:0:
169,170,142254,1,8,0:0:0:0:
169,170,142350,1,8,0:0:0:0:
240,203,142544,1,8,0:0:0:0:
251,227,142931,1,8,0:0:0:0:
177,130,143125,1,8,0:0:0:0:
181,162,143318,1,8,0:0:0:0:
181,160,143415,1,0,0:0:0:0:
181,160,143512,1,8,0:0:0:0:
181,162,143705,1,0,0:0:0:0:
181,162,143899,1,8,0:0:0:0:
201,194,144092,1,8,0:0:0:0:
201,194,144189,1,8,0:0:0:0:
201,194,144286,1,0,0:0:0:0:
201,194,144479,1,0,0:0:0:0:
186,200,144576,1,0,0:0:0:0:
186,200,144673,1,8,0:0:0:0:
186,200,144770,1,8,0:0:0:0:
186,200,144866,1,0,0:0:0:0:
195,218,145060,1,0,0:0:0:0:
200,204,145254,1,8,0:0:0:0:
200,203,145350,1,8,0:0:0:0:
200,203,145447,1,0,0:0:0:0:
196,165,145641,1,8,0:0:0:0:
196,165,145834,1,8,0:0:0:0:
196,165,146028,1,0,0:0:0:0:
193,207,146125,1,0,0:0:0:0:
193,207,146221,1,8,0:0:0:0:
193,207,146415,1,0,0:0:0:0:
193,207,146608,1,8,0:0:0:0:
213,215,146802,1,8,0:0:0:0:
213,215,146899,1,8,0:0:0:0:
184,195,146996,1,0,0:0:0:0:
181,201,147092,1,0,0:0:0:0:
181,201,147189,1,8,0:0:0:0:
181,201,147576,1,0,0:0:0:0:
207,227,147673,1,0,0:0:0:0:
190,185,147770,1,8,0:0:0:0:
190,185,147866,1,0,0:0:0:0:
190,185,147963,1,8,0:0:0:0:
212,239,148157,1,0,0:0:0:0:
212,237,148350,1,8,0:0:0:0:
212,236,148447,1,8,0:0:0:0:
212,236,148544,1,0,0:0:0:0:
212,239,148737,1,8,0:0:0:0:
197,192,148931,1,0,0:0:0:0:
197,192,149125,1,0,0:0:0:0:
197,192,149221,1,0,0:0:0:0:
197,192,149318,1,8,0:0:0:0:
179,156,149512,1,8,0:0:0:0:
183,164,149705,1,8,0:0:0:0:
179,156,149899,1,0,0:0:0:0:
183,164,150092,1,0,0:0:0:0:
196,173,150286,1,8,0:0:0:0:
178,198,150673,1,8,0:0:0:0:
178,198,150770,1,0,0:0:0:0:
184,195,150866,1,8,0:0:0:0:
184,195,150963,1,8,0:0:0:0:
184,195,151060,1,0,0:0:0:0:
214,267,151254,1,0,0:0:0:0:
214,267,151447,1,8,0:0:0:0:
214,267,151544,1,8,0:0:0:0:
214,267,151641,1,0,0:0:0:0:
214,267,151737,1,0,0:0:0:0:
214,267,151834,1,8,0:0:0:0:
201,172,152028,1,0,0:0:0:0:
201,172,152221,1,8,0:0:0:0:
201,172,152415,1,8,0:0:0:0:
201,172,152608,1,0,0:0:0:0:
215,176,152802,1,8,0:0:0:0:
186,217,152899,1,8,0:0:0:0:
186,217,152996,1,0,0:0:0:0:
186,217,153189,1,0,0:0:0:0:
194,160,153770,1,0,0:0:0:0:
206,231,153866,1,0,0:0:0:0:
205,231,153963,1,8,0:0:0:0:
235,241,154157,1,8,0:0:0:0:
208,201,154350,1,0,0:0:0:0:
215,211,154544,1,0,0:0:0:0:
214,211,154641,1,0,0:0:0:0:
214,211,154737,1,8,0:0:0:0:
225,211,154834,1,0,0:0:0:0:
225,211,154931,1,8,0:0:0:0:
233,262,155125,1,0,0:0:0:0:
230,257,155318,1,0,0:0:0:0:
213,232,155512,1,8,0:0:0:0:
215,236,155608,1,8,0:0:0:0:
201,217,155705,1,0,0:0:0:0:
201,217,155899,1,0,0:0:0:0:
213,202,156092,1,8,0:0:0:0:
183,191,156189,1,8,0:0:0:0:
215,219,156286,1,0,0:0:0:0:
183,191,156383,1,0,0:0:0:0:
209,204,156479,1,8,0:0:0:0:
218,238,156673,1,0,0:0:0:0:
218,238,156866,1,0,0:0:0:0:
216,251,157060,1,8,0:0:0:0:
221,228,157157,1,8,0:0:0:0:
221,228,157254,1,0,0:0:0:0:
221,228,157447,1,0,0:0:0:0:
202,197,157641,1,8,0:0:0:0:
207,181,157834,1,8,0:0:0:0:
228,228,157931,1,0,0:0:0:0:
202,182,158028,1,8,0:0:0:0:
207,229,158221,1,0,0:0:0:0:
338,361,158415,1,0,0:0:0:0:
239,247,158512,1,0,0:0:0:0:
239,247,158608,1,8,0:0:0:0:
187,202,158802,1,8,0:0:0:0:
173,169,158899,1,0,0:0:0:0:
173,169,158996,1,0,0:0:0:0:
173,169,159189,1,8,0:0:0:0:
173,169,159383,1,0,0:0:0:0:
208,200,159576,1,8,0:0:0:0:
217,140,159963,1,0,0:0:0:0:
205,191,160060,1,0,0:0:0:0:
196,175,160157,1,8,0:0:0:0:
205,143,160254,1,0,0:0:0:0:
205,143,160350,1,8,0:0:0:0:
221,200,160544,1,8,0:0:0:0:
214,190,160737,1,8,0:0:0:0:
165,168,160834,1,0,0:0:0:0:
225,174,160931,1,0,0:0:0:0:
200,148,161028,1,8,0:0:0:0:
225,174,161125,1,8,0:0:0:0:
223,163,161318,1,0,0:0:0:0:
228,225,161512,1,8,0:0:0:0:
236,253,161608,1,0,0:0:0:0:
236,253,161705,1,8,0:0:0:0:
222,204,161899,1,8,0:0:0:0:
222,204,161996,1,0,0:0:0:0:
222,204,162092,1,0,0:0:0:0:
222,204,162286,1,0,0:0:0:0:
222,204,162479,1,8,0:0:0:0:
202,169,162673,1,8,0:0:0:0:
210,190,163060,1,0,0:0:0:0:
203,186,163157,1,0,0:0:0:0:
210,190,163254,1,8,0:0:0:0:
211,222,163447,1,0,0:0:0:0:
203,186,163641,1,0,0:0:0:0:
203,186,163737,1,0,0:0:0:0:
203,186,163834,1,8,0:0:0:0:
188,171,163931,1,8,0:0:0:0:
188,171,164028,1,0,0:0:0:0:
188,171,164221,1,8,0:0:0:0:
188,171,164415,1,0,0:0:0:0:
203,196,164608,1,0,0:0:0:0:
203,196,164802,1,8,0:0:0:0:
203,192,164899,1,0,0:0:0:0:
203,196,164996,1,0,0:0:0:0:
203,196,165189,1,8,0:0:0:0:
187,198,165383,1,0,0:0:0:0:
193,210,165479,1,8,0:0:0:0:
203,191,165576,1,0,0:0:0:0:
211,191,165673,1,8,0:0:0:0:
217,199,165770,1,8,0:0:0:0:
209,208,166157,1,0,0:0:0:0:
185,209,166350,1,8,0:0:0:0:
179,200,166447,1,8,0:0:0:0:
185,209,166544,1,0,0:0:0:0:
179,200,166737,1,0,0:0:0:0:
179,200,166834,1,0,0:0:0:0:
176,186,166931,1,8,0:0:0:0:
176,186,167125,1,0,0:0:0:0:
176,186,167318,1,8,0:0:0:0:
183,162,167415,1,0,0:0:0:0:
176,186,167512,1,0,0:0:0:0:
274,210,167705,1,8,0:0:0:0:
227,183,168286,1,8,0:0:0:0:
235,137,168866,1,8,0:0:0:0:
235,137,169060,1,8,0:0:0:0:
251,188,169834,1,0,0:0:0:0:
184,189,170608,1,0,0:0:0:0:
227,228,172350,1,8,0:0:0:0:
227,228,172544,1,0,0:0:0:0:
224,207,172641,1,8,0:0:0:0:
227,228,172737,1,0,0:0:0:0:
227,228,172931,1,8,0:0:0:0:
206,186,173318,1,0,0:0:0:0:
206,186,173512,1,8,0:0:0:0:
209,190,173705,1,8,0:0:0:0:
210,190,173899,1,0,0:0:0:0:
202,221,174479,1,8,0:0:0:0:
202,221,175060,1,0,0:0:0:0:
207,122,175254,1,0,0:0:0:0:
212,182,175641,1,8,0:0:0:0:
229,188,176028,1,0,0:0:0:0:
223,174,178544,1,8,0:0:0:0:
219,157,178737,1,0,0:0:0:0:
238,170,178834,1,8,0:0:0:0:
215,165,178931,1,0,0:0:0:0:
206,169,179125,1,8,0:0:0:0:
221,184,179512,1,0,0:0:0:0:
220,182,179705,1,8,0:0:0:0:
220,182,179899,1,8,0:0:0:0:
215,161,180092,1,8,0:0:0:0:
215,161,180286,1,0,0:0:0:0:
217,170,180479,1,8,0:0:0:0:
212,146,180866,1,8,0:0:0:0:
231,161,181060,1,8,0:0:0:0:
202,186,181447,1,0,0:0:0:0:
209,186,182996,1,8,0:0:0:0:
209,186,183189,1,8,0:0:0:0:
193,165,183383,1,8,0:0:0:0:
188,142,183576,1,0,0:0:0:0:
201,152,183963,1,0,0:0:0:0:
203,180,184157,1,0,0:0:0:0:
204,196,184544,1,8,0:0:0:0:
237,152,186092,1,8,0:0:0:0:
237,152,186286,1,8,0:0:0:0:
194,110,186479,1,0,0:0:0:0:
188,139,186866,1,0,0:0:0:0:
191,123,187060,1,0,0:0:0:0:
188,139,187254,1,8,0:0:0:0:
207,158,187641,1,0,0:0:0:0:
220,161,187834,1,0,0:0:0:0:
220,161,188028,1,0,0:0:0:0:
213,164,188415,1,0,0:0:0:0:
205,163,188608,1,8,0:0:0:0:
205,163,188802,1,0,0:0:0:0:
206,167,189189,1,0,0:0:0:0:
204,164,189383,1,0,0:0:0:0:
205,163,189576,1,8,0:0:0:0:
206,167,189963,1,8,0:0:0:0:
206,167,190157,1,8,0:0:0:0:
224,167,190350,1,0,0:0:0:0:
225,167,190544,1,0,0:0:0:0:
236,252,191512,1,0,0:0:0:0:
221,225,191705,1,8,0:0:0:0:
218,199,191899,1,8,0:0:0:0:
211,203,192479,1,0,0:0:0:0:
201,199,192673,1,0,0:0:0:0:
201,199,192866,1,8,0:0:0:0:
202,201,193060,1,8,0:0:0:0:
202,201,193157,1,0,0:0:0:0:
197,188,193254,1,8,0:0:0:0:
200,190,193447,1,0,0:0:0:0:
200,190,193641,1,8,0:0:0:0:
182,168,193834,1,8,0:0:0:0:
182,168,193931,1,8,0:0:0:0:
182,168,194028,1,0,0:0:0:0:
182,168,194221,1,8,0:0:0:0:
182,168,194318,1,8,0:0:0:0:
182,168,194415,1,8,0:0:0:0:
174,127,194608,1,0,0:0:0:0:
185,153,194802,1,8,0:0:0:0:
185,153,194899,1,0,0:0:0:0:
185,153,194996,1,0,0:0:0:0:
191,154,195189,1,8,0:0:0:0:
190,133,195383,1,0,0:0:0:0:
192,133,195576,1,8,0:0:0:0:
192,135,195770,1,8,0:0:0:0:
185,153,195963,1,0,0:0:0:0:
183,150,196060,1,0,0:0:0:0:
183,150,196157,1,8,0:0:0:0:
202,188,196350,1,0,0:0:0:0:
246,161,196544,1,8,0:0:0:0:
206,173,196931,1,0,0:0:0:0:
211,177,197125,1,0,0:0:0:0:
182,212,197318,1,0,0:0:0:0:
221,187,197415,1,0,0:0:0:0:
190,212,197512,1,8,0:0:0:0:
198,186,197705,1,8,0:0:0:0:
198,186,197802,1,0,0:0:0:0:
199,167,197899,1,8,0:0:0:0:
197,177,198092,1,0,0:0:0:0:
197,177,198286,1,8,0:0:0:0:
201,177,198479,1,8,0:0:0:0:
201,177,198576,1,8,0:0:0:0:
201,177,198673,1,0,0:0:0:0:
194,186,198866,1,8,0:0:0:0:
213,175,198963,1,8,0:0:0:0:
213,175,199060,1,8,0:0:0:0:
194,198,199254,1,0,0:0:0:0:
228,236,199447,1,8,0:0:0:0:
202,212,199544,1,0,0:0:0:0:
228,236,199641,1,0,0:0:0:0:
206,199,199834,1,8,0:0:0:0:
223,193,200028,1,0,0:0:0:0:
223,193,200221,1,8,0:0:0:0:
214,188,200415,1,8,0:0:0:0:
219,168,200802,1,8,0:0:0:0:
185,228,200996,1,0,0:0:0:0:
177,176,201189,1,8,0:0:0:0:
177,176,201383,1,8,0:0:0:0:
178,166,201479,1,8,0:0:0:0:
178,167,201576,1,0,0:0:0:0:
185,187,201770,1,0,0:0:0:0:
192,192,201963,1,0,0:0:0:0:
192,192,202060,1,8,0:0:0:0:
183,178,202157,1,8,0:0:0:0:
179,213,202350,1,8,0:0:0:0:
178,230,202447,1,0,0:0:0:0:
261,254,202544,1,8,0:0:0:0:
195,192,202737,1,0,0:0:0:0:
195,199,202931,1,8,0:0:0:0:
215,219,203125,1,8,0:0:0:0:
206,189,203221,1,0,0:0:0:0:
206,189,203318,1,0,0:0:0:0:
212,176,203512,1,0,0:0:0:0:
212,176,203608,1,8,0:0:0:0:
204,188,203705,1,8,0:0:0:0:
186,196,203899,1,0,0:0:0:0:
206,189,204092,1,8,0:0:0:0:
206,189,204189,1,8,0:0:0:0:
206,189,204286,1,8,0:0:0:0:
186,196,204479,1,8,0:0:0:0:
186,196,204673,1,0,0:0:0:0:
186,196,204866,1,8,0:0:0:0:
211,206,205060,1,8,0:0:0:0:
206,195,205254,1,0,0:0:0:0:
208,201,205350,1,0,0:0:0:0:
206,195,205447,1,8,0:0:0:0:
211,206,205641,1,0,0:0:0:0:
214,196,205834,1,8,0:0:0:0:
192,219,206221,1,0,0:0:0:0:
192,219,206415,1,0,0:0:0:0:
184,242,206608,1,0,0:0:0:0:
186,232,206705,1,0,0:0:0:0:
184,242,206802,1,8,0:0:0:0:
176,229,206996,1,8,0:0:0:0:
192,219,207092,1,0,0:0:0:0:
183,238,207189,1,8,0:0:0:0:
173,224,207383,1,0,0:0:0:0:
184,242,207576,1,8,0:0:0:0:
184,242,207770,1,8,0:0:0:0:
189,241,207866,1,8,0:0:0:0:
189,241,207963,1,0,0:0:0:0:
228,239,208157,1,8,0:0:0:0:
172,236,208254,1,8,0:0:0:0:
172,236,208350,1,8,0:0:0:0:
184,242,208544,1,8,0:0:0:0:
184,242,208737,1,0,0:0:0:0:
189,241,208834,1,0,0:0:0:0:
189,241,208931,1,8,0:0:0:0:
179,246,209125,1,8,0:0:0:0:
198,197,209512,1,8,0:0:0:0:
191,144,209705,1,8,0:0:0:0:
221,223,209899,1,0,0:0:0:0:
221,223,209996,1,0,0:0:0:0:
221,223,210092,1,8,0:0:0:0:
216,202,210286,1,0,0:0:0:0:
216,202,210479,1,8,0:0:0:0:
220,199,210673,1,8,0:0:0:0:
216,202,210770,1,0,0:0:0:0:
216,202,210866,1,0,0:0:0:0:
219,196,211060,1,8,0:0:0:0:
214,216,211157,1,8,0:0:0:0:
214,214,211254,1,0,0:0:0:0:
214,214,211350,1,0,0:0:0:0:
206,197,211447,1,8,0:0:0:0:
206,196,211641,1,0,0:0:0:0:
199,195,211834,1,8,0:0:0:0:
199,195,211931,1,8,0:0:0:0:
199,195,212028,1,0,0:0:0:0:
200,196,212221,1,8,0:0:0:0:
198,209,212415,1,0,0:0:0:0:
212,177,212512,1,8,0:0:0:0:
198,209,212608,1,0,0:0:0:0:
202,189,212802,1,8,0:0:0:0:
205,198,212899,1,0,0:0:0:0:
205,198,212996,1,0,0:0:0:0:
209,209,213189,1,8,0:0:0:0:
182,187,213383,1,8,0:0:0:0:
200,196,213576,1,0,0:0:0:0:
201,197,213673,1,8,0:0:0:0:
201,197,213770,1,8,0:0:0:0:
212,200,213963,1,0,0:0:0:0:
220,167,214350,1,0,0:0:0:0:
178,137,214544,1,8,0:0:0:0:
183,137,214737,1,0,0:0:0:0:
191,160,214834,1,8,0:0:0:0:
183,137,214931,1,0,0:0:0:0:
187,166,215125,1,8,0:0:0:0:
195,174,215318,1,8,0:0:0:0:
194,174,215415,1,8,0:0:0:0:
194,174,215512,1,0,0:0:0:0:
191,170,215705,1,0,0:0:0:0:
199,182,215899,1,8,0:0:0:0:
201,183,215996,1,0,0:0:0:0:
201,183,216092,1,8,0:0:0:0:
186,196,216286,1,0,0:0:0:0:
186,196,216383,1,0,0:0:0:0:
186,196,216479,1,8,0:0:0:0:
188,198,216576,1,0,0:0:0:0:
188,198,216673,1,8,0:0:0:0:
196,198,216866,1,8,0:0:0:0:
199,206,217060,1,8,0:0:0:0:
206,215,217157,1,0,0:0:0:0:
200,206,217254,1,0,0:0:0:0:
200,206,217447,1,8,0:0:0:0:
206,198,217544,1,8,0:0:0:0:
206,198,217641,1,0,0:0:0:0:
206,210,217834,1,0,0:0:0:0:
188,168,218028,1,8,0:0:0:0:
201,169,218125,1,8,0:0:0:0:
201,169,218221,1,0,0:0:0:0:
201,169,218318,1,0,0:0:0:0:
201,169,218415,1,8,0:0:0:0:
196,209,218608,1,0,0:0:0:0:
176,198,218996,1,8,0:0:0:0:
176,198,219189,1,0,0:0:0:0:
196,209,219383,1,0,0:0:0:0:
196,209,219479,1,0,0:0:0:0:
196,209,219576,1,8,0:0:0:0:
200,214,219770,1,0,0:0:0:0:
202,216,219963,1,8,0:0:0:0:
185,194,220060,1,8,0:0:0:0:
185,194,220157,1,0,0:0:0:0:
185,194,220350,1,0,0:0:0:0:
186,197,220544,1,0,0:0:0:0:
205,244,220641,1,8,0:0:0:0:
205,244,220737,1,0,0:0:0:0:
191,206,220931,1,0,0:0:0:0:
191,206,221125,1,8,0:0:0:0:
197,212,221221,1,0,0:0:0:0:
191,207,221318,1,0,0:0:0:0:
197,213,221512,1,8,0:0:0:0:
201,217,221705,1,0,0:0:0:0:
205,220,221802,1,0,0:0:0:0:
203,217,221899,1,0,0:0:0:0:
203,217,222092,1,8,0:0:0:0:
201,186,222189,1,8,0:0:0:0:
201,186,222286,1,0,0:0:0:0:
211,178,222383,1,8,0:0:0:0:
210,208,222479,1,0,0:0:0:0:
213,208,222673,1,0,0:0:0:0:
198,192,222770,1,8,0:0:0:0:
204,199,222866,1,0,0:0:0:0:
218,181,222963,1,8,0:0:0:0:
206,153,223060,1,8,0:0:0:0:
194,217,223254,1,0,0:0:0:0:
187,174,223641,1,0,0:0:0:0:
230,210,223834,1,8,0:0:0:0:
201,213,224028,1,0,0:0:0:0:
201,213,224125,1,0,0:0:0:0:
201,213,224221,1,8,0:0:0:0:
200,185,224415,1,0,0:0:0:0:
200,185,224608,1,8,0:0:0:0:
206,186,224705,1,8,0:0:0:0:
206,186,224802,1,0,0:0:0:0:
209,189,224996,1,0,0:0:0:0:
210,190,225189,1,8,0:0:0:0:
209,192,225286,1,0,0:0:0:0:
209,192,225383,1,8,0:0:0:0:
207,193,225576,1,0,0:0:0:0:
195,185,225673,1,0,0:0:0:0:
186,217,225770,1,8,0:0:0:0:
195,182,225866,1,8,0:0:0:0:
197,219,225963,1,0,0:0:0:0:
191,180,226157,1,8,0:0:0:0:
183,173,226350,1,0,0:0:0:0:
188,160,226447,1,8,0:0:0:0:
188,160,226544,1,0,0:0:0:0:
163,200,226737,1,8,0:0:0:0:
170,202,226834,1,0,0:0:0:0:
170,202,226931,1,0,0:0:0:0:
190,201,227125,1,8,0:0:0:0:
184,193,227318,1,8,0:0:0:0:
175,159,227415,1,8,0:0:0:0:
175,178,227512,1,0,0:0:0:0:
175,159,227608,1,0,0:0:0:0:
175,178,227705,1,8,0:0:0:0:
151,91,227899,1,0,0:0:0:0:
201,180,228286,1,8,0:0:0:0:
206,199,228479,1,0,0:0:0:0:
199,233,228673,1,0,0:0:0:0:
205,204,228866,1,0,0:0:0:0:
216,184,228963,1,0,0:0:0:0:
216,184,229060,1,8,0:0:0:0:
201,179,229254,1,8,0:0:0:0:
201,179,229350,1,8,0:0:0:0:
200,178,229447,1,0,0:0:0:0:
200,178,229641,1,0,0:0:0:0:
198,163,229834,1,8,0:0:0:0:
198,163,229931,1,0,0:0:0:0:
198,163,230028,1,0,0:0:0:0:
189,174,230221,1,0,0:0:0:0:
189,185,230415,1,8,0:0:0:0:
189,186,230512,1,0,0:0:0:0:
193,163,230608,1,8,0:0:0:0:
198,163,230802,1,0,0:0:0:0:
211,183,230996,1,8,0:0:0:0:
176,155,231092,1,0,0:0:0:0:
195,160,231189,1,0,0:0:0:0:
189,157,231383,1,0,0:0:0:0:
194,180,231479,1,0,0:0:0:0:
194,180,231576,1,8,0:0:0:0:
168,135,231770,1,0,0:0:0:0:
191,158,231963,1,0,0:0:0:0:
172,140,232060,1,8,0:0:0:0:
201,197,232157,1,0,0:0:0:0:
195,161,232254,1,8,0:0:0:0:
173,175,232350,1,8,0:0:0:0:
192,227,232544,1,0,0:0:0:0:
192,227,232737,1,8,0:0:0:0:
187,187,232931,1,8,0:0:0:0:
203,174,233028,1,8,0:0:0:0:
205,175,233125,1,0,0:0:0:0:
205,175,233318,1,0,0:0:0:0:
196,165,233705,1,0,0:0:0:0:
187,187,233899,1,8,0:0:0:0:
187,187,233996,1,0,0:0:0:0:
183,201,234092,1,0,0:0:0:0:
183,201,234286,1,0,0:0:0:0:
183,201,234479,1,8,0:0:0:0:
189,197,234576,1,8,0:0:0:0:
189,197,234673,1,0,0:0:0:0:
176,177,234866,1,0,0:0:0:0:
196,227,234963,1,0,0:0:0:0:
176,175,235060,1,8,0:0:0:0:
190,197,235157,1,8,0:0:0:0:
189,197,235254,1,0,0:0:0:0:
210,202,235447,1,8,0:0:0:0:
196,202,235641,1,0,0:0:0:0:
197,206,235737,1,8,0:0:0:0:
188,186,235834,1,0,0:0:0:0:
188,186,236028,1,8,0:0:0:0:
188,186,236125,1,0,0:0:0:0:
188,186,236221,1,8,0:0:0:0:
188,186,236415,1,0,0:0:0:0:
190,187,236608,1,8,0:0:0:0:
200,188,236705,1,8,0:0:0:0:
200,188,236802,1,0,0:0:0:0:
200,188,236899,1,0,0:0:0:0:
200,188,236996,1,8,0:0:0:0:
192,222,237189,1,8,0:0:0:0:
192,222,237383,1,0,0:0:0:0:
187,217,237576,1,0,0:0:0:0:
225,207,237673,1,0,0:0:0:0:
225,207,237770,1,8,0:0:0:0:
166,200,237963,1,0,0:0:0:0:
227,176,238350,1,8,0:0:0:0:
201,222,238544,1,8,0:0:0:0:
214,206,238641,1,8,0:0:0:0:
213,204,238737,1,0,0:0:0:0:
169,181,238931,1,0,0:0:0:0:
156,168,239125,1,8,0:0:0:0:
156,168,239221,1,0,0:0:0:0:
162,172,239318,1,8,0:0:0:0:
202,215,239512,1,0,0:0:0:0:
193,254,239608,1,0,0:0:0:0:
193,254,239705,1,8,0:0:0:0:
190,189,239899,1,0,0:0:0:0:
190,189,240092,1,8,0:0:0:0:
185,226,240286,1,0,0:0:0:0:
202,215,240383,1,0,0:0:0:0:
168,222,240479,1,0,0:0:0:0:
209,214,240673,1,8,0:0:0:0:
182,258,240770,1,8,0:0:0:0:
180,196,240866,1,0,0:0:0:0:
180,196,241060,1,0,0:0:0:0:
171,192,241254,1,8,0:0:0:0:
221,231,241350,1,0,0:0:0:0:
221,231,241447,1,0,0:0:0:0:
221,231,241544,1,8,0:0:0:0:
221,231,241641,1,8,0:0:0:0:
177,252,241834,1,8,0:0:0:0:
177,252,241931,1,0,0:0:0:0:
202,268,242028,1,0,0:0:0:0:
202,268,242221,1,8,0:0:0:0:
171,263,242415,1,8,0:0:0:0:
176,263,242608,1,0,0:0:0:0:
212,229,242996,1,0,0:0:0:0:
224,145,243189,1,8,0:0:0:0:
192,187,243286,1,8,0:0:0:0:
224,145,243383,1,0,0:0:0:0:
195,213,243576,1,0,0:0:0:0:
212,220,243770,1,8,0:0:0:0:
198,202,243866,1,0,0:0:0:0:
212,220,243963,1,0,0:0:0:0:
199,202,244157,1,0,0:0:0:0:
199,202,244254,1,0,0:0:0:0:
201,207,244350,1,8,0:0:0:0:
201,207,244447,1,8,0:0:0:0:
201,207,244544,1,0,0:0:0:0:
200,253,244737,1,8,0:0:0:0:
183,193,244931,1,0,0:0:0:0:
213,226,245028,1,0,0:0:0:0:
213,226,245125,1,0,0:0:0:0:
183,193,245318,1,8,0:0:0:0:
183,193,245415,1,0,0:0:0:0:
183,193,245512,1,8,0:0:0:0:
183,193,245705,1,0,0:0:0:0:
221,227,245899,1,8,0:0:0:0:
221,227,245996,1,8,0:0:0:0:
196,211,246092,1,0,0:0:0:0:
196,211,246189,1,0,0:0:0:0:
196,211,246286,1,8,0:0:0:0:
208,207,246673,1,0,0:0:0:0:
187,173,246866,1,0,0:0:0:0:
187,173,247060,1,8,0:0:0:0:
187,173,247254,1,0,0:0:0:0:
195,171,247350,1,0,0:0:0:0:
195,171,247447,1,8,0:0:0:0:
195,171,247544,1,8,0:0:0:0:
195,171,247641,1,0,0:0:0:0:
195,171,247834,1,8,0:0:0:0:
205,172,247931,1,8,0:0:0:0:
205,172,248028,1,0,0:0:0:0:
206,185,248221,1,0,0:0:0:0:
239,209,248608,1,8,0:0:0:0:
239,209,248996,1,0,0:0:0:0:
209,223,249092,1,0,0:0:0:0:
239,209,249383,1,8,0:0:0:0:
205,159,249770,1,8,0:0:0:0:
239,209,249963,1,8,0:0:0:0:
239,209,250157,1,0,0:0:0:0:
193,167,250544,1,8,0:0:0:0:
239,209,250737,1,0,0:0:0:0:
206,200,251318,1,8,0:0:0:0:
206,200,251415,1,8,0:0:0:0:
216,189,251705,1,8,0:0:0:0:
239,209,252092,1,0,0:0:0:0:
239,209,252189,1,0,0:0:0:0:
216,189,252479,1,0,0:0:0:0:
244,206,252866,1,8,0:0:0:0:
239,209,253060,1,8,0:0:0:0:
239,209,253254,1,0,0:0:0:0:
192,168,253641,1,0,0:0:0:0:
238,193,253834,1,0,0:0:0:0:
206,185,254415,1,0,0:0:0:0:
211,179,254512,1,0,0:0:0:0:
239,209,254802,1,8,0:0:0:0:
239,209,255189,1,0,0:0:0:0:
209,223,255286,1,0,0:0:0:0:
239,209,255576,1,8,0:0:0:0:
205,159,255963,1,8,0:0:0:0:
239,209,256157,1,8,0:0:0:0:
239,209,256350,1,0,0:0:0:0:
193,167,256737,1,8,0:0:0:0:
239,209,256931,1,0,0:0:0:0:
206,200,257512,1,8,0:0:0:0:
206,200,257608,1,8,0:0:0:0:
216,189,257899,1,8,0:0:0:0:
239,209,258286,1,0,0:0:0:0:
239,209,258383,1,0,0:0:0:0:
216,189,258673,1,0,0:0:0:0:
244,206,259060,1,8,0:0:0:0:
239,209,259254,1,8,0:0:0:0:
239,209,259447,1,0,0:0:0:0:
192,168,259834,1,0,0:0:0:0:
238,193,260028,1,0,0:0:0:0:
194,198,260608,1,0,0:0:0:0:
208,172,260705,1,0,0:0:0:0:
208,172,260899,1,8,0:0:0:0:
194,198,260996,1,8,0:0:0:0:
208,172,261383,1,0,0:0:0:0:
220,186,261479,1,0,0:0:0:0:
220,186,261770,1,8,0:0:0:0:
202,183,262157,1,8,0:0:0:0:
202,183,262350,1,8,0:0:0:0:
193,182,262544,1,0,0:0:0:0:
193,182,262931,1,8,0:0:0:0:
193,182,263125,1,0,0:0:0:0:
195,189,263705,1,8,0:0:0:0:
195,189,263802,1,8,0:0:0:0:
211,172,263996,1,0,0:0:0:0:
195,189,264092,1,0,0:0:0:0:
211,172,264479,1,0,0:0:0:0:
211,172,264576,1,0,0:0:0:0:
211,172,264866,1,8,0:0:0:0:
197,190,265254,1,8,0:0:0:0:
196,190,265447,1,8,0:0:0:0:
196,190,265641,1,0,0:0:0:0:
191,189,266028,1,0,0:0:0:0:
191,189,266221,1,0,0:0:0:0:
194,198,266802,1,0,0:0:0:0:
208,172,266899,1,0,0:0:0:0:
208,172,267092,1,8,0:0:0:0:
194,198,267189,1,8,0:0:0:0:
208,172,267576,1,0,0:0:0:0:
220,186,267673,1,0,0:0:0:0:
220,186,267963,1,8,0:0:0:0:
202,183,268350,1,8,0:0:0:0:
202,183,268544,1,8,0:0:0:0:
193,182,268737,1,0,0:0:0:0:
193,182,269125,1,8,0:0:0:0:
193,182,269318,1,0,0:0:0:0:
195,189,269899,1,8,0:0:0:0:
195,189,269996,1,8,0:0:0:0:
211,172,270189,1,0,0:0:0:0:
195,189,270286,1,0,0:0:0:0:
211,172,270673,1,0,0:0:0:0:
211,172,270770,1,0,0:0:0:0:
211,172,271060,1,8,0:0:0:0:
197,190,271447,1,8,0:0:0:0:
196,190,271641,1,8,0:0:0:0:
196,190,271834,1,0,0:0:0:0:
191,189,272221,1,0,0:0:0:0:
191,189,272415,1,0,0:0:0:0:
194,198,272996,1,0,0:0:0:0:
208,172,273092,1,0,0:0:0:0:
208,172,273189,1,8,0:0:0:0:
194,198,273383,1,8,0:0:0:0:
208,172,273770,1,0,0:0:0:0:
220,186,273866,1,0,0:0:0:0:
220,186,274157,1,8,0:0:0:0:
202,183,274544,1,8,0:0:0:0:
202,183,274737,1,8,0:0:0:0:
193,182,274931,1,0,0:0:0:0:
193,182,275318,1,8,0:0:0:0:
193,182,275512,1,0,0:0:0:0:
195,189,276092,1,8,0:0:0:0:
195,189,276189,1,8,0:0:0:0:
211,172,276383,1,0,0:0:0:0:
195,189,276479,1,0,0:0:0:0:
211,172,276866,1,0,0:0:0:0:
211,172,276963,1,0,0:0:0:0:
211,172,277254,1,8,0:0:0:0:
197,190,277641,1,8,0:0:0:0:
196,190,277834,1,8,0:0:0:0:
196,190,278028,1,0,0:0:0:0:
191,189,278415,1,0,0:0:0:0:
191,189,278608,1,0,0:0:0:0:
194,198,279189,1,0,0:0:0:0:
208,172,279286,1,0,0:0:0:0:
208,172,279479,1,8,0:0:0:0:
194,198,279576,1,8,0:0:0:0:
208,172,279963,1,0,0:0:0:0:
220,186,280060,1,0,0:0:0:0:
220,186,280350,1,8,0:0:0:0:
202,183,280737,1,8,0:0:0:0:
202,183,280931,1,8,0:0:0:0:
193,182,281125,1,0,0:0:0:0:
193,182,281512,1,8,0:0:0:0:
193,182,281705,1,0,0:0:0:0:
195,189,282286,1,8,0:0:0:0:
217,185,282383,1,0,0:0:0:0:
211,172,282479,1,0,0:0:0:0:
195,189,282673,1,0,0:0:0:0:
211,172,283060,1,0,0:0:0:0:
211,172,283157,1,0,0:0:0:0:
211,172,283447,1,8,0:0:0:0:
197,190,283834,1,8,0:0:0:0:
196,190,284028,1,8,0:0:0:0:
196,190,284221,1,0,0:0:0:0:
191,189,284608,1,0,0:0:0:0:
191,189,284802,1,0,0:0:0:0:
256,192,285383,12,8,291576,0:0:0:0:
