osu file format v14

[General]
AudioFilename: audio.mp3
AudioLeadIn: 0
PreviewTime: 144479
Countdown: 0
SampleSet: Normal
StackLeniency: 0.7
Mode: 1
LetterboxInBreaks: 0
WidescreenStoryboard: 1

[Editor]
Bookmarks: 75383
DistanceSpacing: 0.8
BeatDivisor: 8
GridSize: 8
TimelineZoom: 2.2

[Metadata]
Title:Never Meant (Sewerslvt & Sadfem Remix)
TitleUnicode:Never Meant (Sewerslvt & Sadfem Remix)
Artist:American Football
ArtistUnicode:American Football
Creator:Horiiizon
Version:Autumn Night
Source:
Tags:sewerslut atmospheric drum and bass dnb breakcore english electronic experimental emo jungle rave
BeatmapID:2622494
BeatmapSetID:1210059

[Difficulty]
HPDrainRate:5
CircleSize:5
OverallDifficulty:6.5
ApproachRate:5
SliderMultiplier:1.4
SliderTickRate:1

[Events]
//Background and Video events
0,0,"Forget.jpg",0,-100
//Break Periods
//Storyboard Layer 0 (Background)
//Storyboard Layer 1 (Fail)
//Storyboard Layer 2 (Pass)
//Storyboard Layer 3 (Foreground)
//Storyboard Layer 4 (Overlay)
//Storyboard Sound Samples

[TimingPoints]
479,387.096774193548,32,1,0,5,1,8
10541,-151.515151515152,5,1,0,50,0,0
12431,-151.515151515152,5,1,0,70,0,0
12478,-100,4,1,0,70,0,8
12867,387.096774193548,4,1,0,70,1,0
13012,-100,4,1,0,80,0,0
30866,-97.5609756097561,4,1,0,80,0,0
31060,-95.2380952380952,4,1,0,80,0,0
31157,-94.1176470588235,4,1,0,80,0,0
31254,-93.0232558139535,4,1,0,80,0,0
31399,-90.9090909090909,4,1,0,90,0,0
49447,-93.0232558139535,4,1,0,90,0,0
49544,-94.1176470588235,4,1,0,90,0,0
49641,-95.2380952380952,4,1,0,90,0,0
49737,-96.3855421686747,4,1,0,90,0,0
49834,-97.5609756097561,4,1,0,90,0,0
49979,-100,4,1,0,80,0,0
66866,-102.040816326531,4,1,0,80,0,0
67060,-104.166666666667,4,1,0,80,0,0
67254,-106.382978723404,4,1,0,80,0,0
67350,-107.52688172043,4,1,0,80,0,0
67447,-108.695652173913,4,1,0,80,0,0
67641,-111.111111111111,4,1,0,80,0,0
67737,-112.359550561798,4,1,0,80,0,0
67834,-113.636363636364,4,1,0,80,0,0
68028,-116.279069767442,4,1,0,80,0,0
68221,-119.047619047619,4,1,0,80,0,0
68318,-120.481927710843,4,1,0,80,0,0
68415,-121.951219512195,4,1,0,80,0,0
68560,-121.951219512195,4,1,0,60,0,0
68608,-125,4,1,0,60,0,0
87141,-111.111111111111,4,1,0,70,0,0
104415,-106.382978723404,4,1,0,70,0,0
104608,-104.166666666667,4,1,0,70,0,0
104802,-102.040816326531,4,1,0,70,0,0
104899,-101.010101010101,4,1,0,70,0,0
104996,-100,4,1,0,70,0,0
105092,-99.009900990099,4,1,0,70,0,0
105189,-98.0392156862745,4,1,0,70,0,0
105383,-96.1538461538461,4,1,0,70,0,0
105576,-94.3396226415094,4,1,0,70,0,0
105721,-92.5925925925926,4,1,0,80,0,0
123963,-95.4198473282443,4,1,0,80,0,0
124060,-96.8992248062015,4,1,0,80,0,0
124157,-98.4251968503937,4,1,0,80,0,0
124254,-100,4,1,0,80,0,0
125850,-100,4,1,0,70,0,0
142931,-97.8282136568186,4,1,0,70,0,0
143028,-96.7773153972709,4,1,0,70,0,0
143125,-95.7487552661815,4,1,0,70,0,0
143318,-93.7558597412338,4,1,0,70,0,0
143415,-92.7902013547369,4,1,0,70,0,0
143512,-91.844232182219,4,1,0,70,0,0
143608,-90.9090909090909,4,1,0,70,0,0
143705,-90.0009000090001,4,1,0,70,0,0
143899,-88.2378893496868,4,1,0,70,0,0
144092,-86.5426222414539,4,1,0,70,0,0
144189,-85.7191839533688,4,1,0,70,0,0
144286,-84.9112677252271,4,1,0,70,0,0
144431,-84.9112677252271,4,1,0,90,0,0
144479,-83.3333333333333,4,1,0,90,0,1
166157,-85.7030218885518,4,1,0,90,0,1
166350,-88.211347331298,4,1,0,90,0,1
166447,-89.5214274012556,4,1,0,90,0,1
166544,-90.8710076958656,4,1,0,90,0,1
166737,-93.6960369387256,4,1,0,90,0,1
166834,-95.1754607206115,4,1,0,90,0,1
166931,-96.702353058357,4,1,0,90,0,1
167028,-98.2789392164417,4,1,0,90,0,1
167125,-99.9078849300944,4,1,0,90,0,1
167318,-103.333326444445,4,1,0,90,0,1
167415,-105.13566706478,4,1,0,90,0,1
167512,-107.001996657258,4,1,0,90,0,1
167608,-108.935784533733,4,1,0,90,0,1
167657,-111.111111111111,4,1,0,60,0,1
167705,-110.940755417792,4,1,0,60,0,0
192431,-100,4,1,0,90,0,0
209899,-98.0392156862745,4,1,0,90,0,0
209996,-97.0873786407767,4,1,0,90,0,0
210092,-96.1538461538461,4,1,0,90,0,0
210189,-95.2380952380952,4,1,0,90,0,0
210286,-94.3396226415094,4,1,0,90,0,0
210383,-93.4579439252336,4,1,0,90,0,0
210479,-92.5925925925926,4,1,0,90,0,0
210673,-90.9090909090909,4,1,0,90,0,0
210770,-90.0900900900901,4,1,0,90,0,0
210866,-89.2857142857143,4,1,0,90,0,0
211060,-87.719298245614,4,1,0,90,0,0
246479,-90.0900900900901,4,1,0,90,0,0
246576,-91.324200913242,4,1,0,90,0,0
246673,-92.5925925925926,4,1,0,90,0,0
246866,-95.2380952380952,4,1,0,90,0,0
247060,-98.0392156862745,4,1,0,90,0,0
247157,-99.502487562189,4,1,0,90,0,0
247254,-101.010101010101,4,1,0,90,0,0
247350,-102.564102564103,4,1,0,90,0,0
247447,-104.166666666667,4,1,0,90,0,0
247544,-105.820105820106,4,1,0,90,0,0
247641,-107.52688172043,4,1,0,90,0,0
247834,-111.111111111111,4,1,0,90,0,0
247931,-112.994350282486,4,1,0,90,0,0
248028,-114.942528735632,4,1,0,90,0,0
248173,-114.942528735632,4,1,0,60,0,0
285334,-133.333333333334,4,1,0,40,0,0
285383,387.096774193548,32,1,0,40,1,0
285383,-133.333333333333,32,1,0,40,0,8
285770,-133.333333333333,32,1,0,39,0,8
286157,-133.333333333333,32,1,0,38,0,8
286544,-133.333333333333,32,1,0,37,0,8
286931,-133.333333333333,32,1,0,36,0,8
287318,-133.333333333333,32,1,0,35,0,8
287705,-133.333333333333,32,1,0,34,0,8
288092,-133.333333333333,32,1,0,33,0,8
288479,-133.333333333333,32,1,0,32,0,8
288866,-133.333333333333,32,1,0,31,0,8
289253,-133.333333333333,32,1,0,30,0,8
289641,-133.333333333333,32,1,0,29,0,8
290028,-133.333333333333,32,1,0,28,0,8
290415,-133.333333333333,32,1,0,27,0,8
290802,-133.333333333333,32,1,0,26,0,8
291189,-133.333333333333,32,1,0,25,0,8

[HitObjects]
233,210,10543,5,0,0:0:0:0:
224,209,10930,1,0,0:0:0:0:
224,209,11317,1,0,0:0:0:0:
224,209,11704,1,0,0:0:0:0:
224,209,12091,1,0,0:0:0:0:
232,197,12478,1,12,0:0:0:0:
199,198,12672,1,0,0:0:0:0:
200,175,12769,1,0,0:0:0:0:
245,201,12866,1,0,0:0:0:0:
200,175,13060,1,8,0:0:0:0:
200,175,13157,1,0,0:0:0:0:
200,175,13254,1,8,0:0:0:0:
232,175,13447,1,8,0:0:0:0:
226,200,13544,1,0,0:0:0:0:
214,205,13641,1,8,0:0:0:0:
214,205,13737,1,0,0:0:0:0:
200,175,13834,1,0,0:0:0:0:
200,175,14028,1,8,0:0:0:0:
233,212,14221,1,0,0:0:0:0:
233,212,14318,1,8,0:0:0:0:
233,212,14415,1,0,0:0:0:0:
227,181,14608,1,8,0:0:0:0:
216,164,14705,1,8,0:0:0:0:
216,165,14802,1,0,0:0:0:0:
216,193,14899,1,0,0:0:0:0:
216,193,14996,1,8,0:0:0:0:
221,241,15189,1,8,0:0:0:0:
221,241,15286,1,0,0:0:0:0:
227,181,15383,1,8,0:0:0:0:
227,181,15479,1,0,0:0:0:0:
227,181,15576,1,8,0:0:0:0:
252,251,15770,1,0,0:0:0:0:
252,251,15963,1,8,0:0:0:0:
208,188,16157,1,0,0:0:0:0:
253,246,16350,1,8,0:0:0:0:
208,188,16447,1,0,0:0:0:0:
208,188,16544,1,8,0:0:0:0:
225,195,16641,1,8,0:0:0:0:
208,188,16737,1,0,0:0:0:0:
208,188,16931,1,8,0:0:0:0:
192,192,17125,1,8,0:0:0:0:
212,175,17221,1,8,0:0:0:0:
199,184,17318,1,0,0:0:0:0:
227,192,17512,1,0,0:0:0:0:
222,185,17705,1,0,0:0:0:0:
210,183,17802,1,0,0:0:0:0:
222,185,17899,1,8,0:0:0:0:
209,210,18092,1,0,0:0:0:0:
248,252,18189,1,8,0:0:0:0:
208,164,18286,1,8,0:0:0:0:
203,216,18383,1,0,0:0:0:0:
208,164,18479,1,0,0:0:0:0:
216,213,18673,1,8,0:0:0:0:
206,171,18866,1,0,0:0:0:0:
212,182,18963,1,8,0:0:0:0:
212,182,19060,1,0,0:0:0:0:
224,205,19254,1,8,0:0:0:0:
224,205,19350,1,0,0:0:0:0:
204,186,19447,1,0,0:0:0:0:
204,180,19544,1,8,0:0:0:0:
204,180,19641,1,8,0:0:0:0:
204,180,19834,1,0,0:0:0:0:
204,180,19931,1,0,0:0:0:0:
204,180,20028,1,8,0:0:0:0:
204,180,20125,1,0,0:0:0:0:
202,175,20221,1,8,0:0:0:0:
201,175,20415,1,0,0:0:0:0:
211,212,20608,1,8,0:0:0:0:
190,161,20802,1,8,0:0:0:0:
198,184,20996,1,0,0:0:0:0:
201,194,21092,1,8,0:0:0:0:
211,212,21189,1,8,0:0:0:0:
201,175,21286,1,8,0:0:0:0:
201,194,21383,1,0,0:0:0:0:
208,227,21576,1,8,0:0:0:0:
192,203,21770,1,8,0:0:0:0:
216,190,21866,1,8,0:0:0:0:
192,203,21963,1,0,0:0:0:0:
210,198,22157,1,0,0:0:0:0:
202,184,22350,1,0,0:0:0:0:
202,184,22447,1,0,0:0:0:0:
202,184,22544,1,8,0:0:0:0:
207,190,22737,1,8,0:0:0:0:
208,191,22834,1,0,0:0:0:0:
213,211,22931,1,0,0:0:0:0:
209,191,23028,1,8,0:0:0:0:
208,191,23125,1,0,0:0:0:0:
219,194,23318,1,8,0:0:0:0:
208,214,23512,1,8,0:0:0:0:
202,176,23608,1,8,0:0:0:0:
211,180,23705,1,0,0:0:0:0:
216,249,23899,1,8,0:0:0:0:
221,205,23996,1,0,0:0:0:0:
210,183,24092,1,8,0:0:0:0:
210,183,24189,1,0,0:0:0:0:
223,205,24286,1,8,0:0:0:0:
226,238,24479,1,8,0:0:0:0:
194,215,24576,1,0,0:0:0:0:
198,215,24673,1,8,0:0:0:0:
206,202,24770,1,0,0:0:0:0:
206,202,24866,1,0,0:0:0:0:
270,287,25060,1,0,0:0:0:0:
209,251,25254,1,8,0:0:0:0:
213,247,25447,1,0,0:0:0:0:
224,173,25641,1,0,0:0:0:0:
251,285,25737,1,0,0:0:0:0:
255,279,25834,1,8,0:0:0:0:
236,262,25931,1,8,0:0:0:0:
236,262,26028,1,0,0:0:0:0:
196,202,26221,1,8,0:0:0:0:
231,215,26415,1,0,0:0:0:0:
211,215,26512,1,8,0:0:0:0:
211,215,26608,1,0,0:0:0:0:
239,187,26802,1,0,0:0:0:0:
195,187,26996,1,0,0:0:0:0:
213,236,27092,1,0,0:0:0:0:
196,146,27189,1,8,0:0:0:0:
204,155,27383,1,8,0:0:0:0:
205,152,27479,1,0,0:0:0:0:
205,152,27576,1,8,0:0:0:0:
212,160,27673,1,8,0:0:0:0:
201,154,27770,1,0,0:0:0:0:
193,240,27963,1,8,0:0:0:0:
196,240,28157,1,8,0:0:0:0:
181,191,28254,1,0,0:0:0:0:
181,191,28350,1,0,0:0:0:0:
232,224,28544,1,0,0:0:0:0:
193,240,28641,1,8,0:0:0:0:
232,224,28737,1,8,0:0:0:0:
232,224,28834,1,0,0:0:0:0:
232,224,28931,1,8,0:0:0:0:
232,224,29125,1,8,0:0:0:0:
232,224,29221,1,0,0:0:0:0:
212,205,29318,1,8,0:0:0:0:
212,205,29415,1,0,0:0:0:0:
212,205,29512,1,8,0:0:0:0:
219,242,29705,1,0,0:0:0:0:
219,242,29899,1,8,0:0:0:0:
209,219,30092,1,8,0:0:0:0:
209,209,30286,1,8,0:0:0:0:
203,239,30383,1,0,0:0:0:0:
219,242,30479,1,8,0:0:0:0:
209,207,30576,1,0,0:0:0:0:
209,219,30673,1,0,0:0:0:0:
189,272,30866,1,8,0:0:0:0:
239,196,31060,1,8,0:0:0:0:
229,236,31157,1,8,0:0:0:0:
229,236,31254,1,0,0:0:0:0:
256,175,31447,1,4,0:0:0:0:
201,262,31641,1,8,0:0:0:0:
201,262,31737,1,0,0:0:0:0:
209,218,31834,1,0,0:0:0:0:
199,207,32028,1,0,0:0:0:0:
199,207,32125,1,0,0:0:0:0:
199,207,32221,1,8,0:0:0:0:
220,208,32318,1,0,0:0:0:0:
220,208,32415,1,8,0:0:0:0:
203,201,32608,1,0,0:0:0:0:
203,201,32705,1,8,0:0:0:0:
220,208,32802,1,8,0:0:0:0:
203,201,32899,1,0,0:0:0:0:
222,212,32996,1,0,0:0:0:0:
209,209,33189,1,8,0:0:0:0:
206,194,33286,1,8,0:0:0:0:
207,200,33383,1,0,0:0:0:0:
248,289,33576,1,8,0:0:0:0:
221,231,33673,1,0,0:0:0:0:
196,197,33770,1,8,0:0:0:0:
226,182,33866,1,8,0:0:0:0:
221,231,33963,1,0,0:0:0:0:
207,182,34028,1,0,0:0:0:0:
207,182,34092,1,0,0:0:0:0:
207,182,34157,1,8,0:0:0:0:
191,179,34350,1,0,0:0:0:0:
202,179,34447,1,0,0:0:0:0:
202,179,34544,1,8,0:0:0:0:
176,202,34737,1,8,0:0:0:0:
209,219,34834,1,0,0:0:0:0:
210,219,34931,1,8,0:0:0:0:
209,219,35028,1,0,0:0:0:0:
209,219,35125,1,0,0:0:0:0:
226,219,35318,1,0,0:0:0:0:
251,242,35512,1,8,0:0:0:0:
209,219,35705,1,0,0:0:0:0:
231,217,35802,1,8,0:0:0:0:
213,208,35899,1,0,0:0:0:0:
227,187,36092,1,0,0:0:0:0:
226,219,36286,1,8,0:0:0:0:
256,248,36383,1,0,0:0:0:0:
256,248,36479,1,8,0:0:0:0:
196,219,36673,1,0,0:0:0:0:
184,192,36770,1,0,0:0:0:0:
184,192,36866,1,8,0:0:0:0:
194,186,36963,1,0,0:0:0:0:
193,186,37060,1,8,0:0:0:0:
204,163,37254,1,0,0:0:0:0:
196,228,37447,1,8,0:0:0:0:
225,216,37544,1,0,0:0:0:0:
225,216,37641,1,0,0:0:0:0:
213,199,37834,1,8,0:0:0:0:
226,207,37931,1,0,0:0:0:0:
226,207,38028,1,8,0:0:0:0:
236,202,38125,1,8,0:0:0:0:
236,202,38221,1,0,0:0:0:0:
240,217,38415,1,8,0:0:0:0:
240,217,38512,1,0,0:0:0:0:
245,237,38608,1,8,0:0:0:0:
210,227,38673,1,0,0:0:0:0:
210,227,38737,1,0,0:0:0:0:
210,227,38802,1,8,0:0:0:0:
202,222,38996,1,0,0:0:0:0:
202,222,39189,1,0,0:0:0:0:
202,222,39383,1,8,0:0:0:0:
208,241,39576,1,8,0:0:0:0:
214,241,39673,1,8,0:0:0:0:
208,241,39770,1,0,0:0:0:0:
214,241,39963,1,0,0:0:0:0:
220,232,40157,1,8,0:0:0:0:
220,232,40254,1,0,0:0:0:0:
220,232,40350,1,8,0:0:0:0:
214,171,40447,1,0,0:0:0:0:
220,232,40544,1,0,0:0:0:0:
243,187,40737,1,0,0:0:0:0:
223,224,40931,1,8,0:0:0:0:
223,224,41028,1,0,0:0:0:0:
217,181,41125,1,8,0:0:0:0:
279,345,41318,1,0,0:0:0:0:
207,188,41415,1,0,0:0:0:0:
221,190,41512,1,8,0:0:0:0:
221,190,41608,1,0,0:0:0:0:
239,210,41705,1,8,0:0:0:0:
201,191,41899,1,8,0:0:0:0:
206,200,41996,1,8,0:0:0:0:
206,200,42092,1,0,0:0:0:0:
205,208,42189,1,0,0:0:0:0:
210,198,42286,1,8,0:0:0:0:
208,194,42479,1,8,0:0:0:0:
216,208,42576,1,0,0:0:0:0:
217,207,42673,1,8,0:0:0:0:
203,243,42770,1,8,0:0:0:0:
203,243,42866,1,0,0:0:0:0:
193,205,43060,1,8,0:0:0:0:
205,203,43157,1,8,0:0:0:0:
210,198,43254,1,0,0:0:0:0:
212,196,43318,1,0,0:0:0:0:
212,196,43383,1,0,0:0:0:0:
212,196,43447,1,8,0:0:0:0:
202,200,43641,1,0,0:0:0:0:
201,196,43834,1,0,0:0:0:0:
200,198,44028,1,8,0:0:0:0:
205,202,44221,1,8,0:0:0:0:
233,205,44318,1,0,0:0:0:0:
203,232,44415,1,0,0:0:0:0:
203,232,44608,1,8,0:0:0:0:
203,232,44802,1,8,0:0:0:0:
203,232,44996,1,8,0:0:0:0:
203,232,45092,1,8,0:0:0:0:
184,223,45189,1,0,0:0:0:0:
260,243,45383,1,0,0:0:0:0:
244,215,45576,1,8,0:0:0:0:
206,208,45673,1,0,0:0:0:0:
206,208,45770,1,0,0:0:0:0:
213,230,45963,1,0,0:0:0:0:
228,227,46157,1,8,0:0:0:0:
225,217,46254,1,0,0:0:0:0:
228,217,46350,1,8,0:0:0:0:
232,219,46544,1,8,0:0:0:0:
213,217,46641,1,0,0:0:0:0:
232,219,46737,1,0,0:0:0:0:
208,217,46834,1,8,0:0:0:0:
208,217,46931,1,0,0:0:0:0:
234,221,47125,1,8,0:0:0:0:
219,198,47221,1,8,0:0:0:0:
234,221,47318,1,0,0:0:0:0:
218,198,47512,1,0,0:0:0:0:
221,187,47608,1,0,0:0:0:0:
221,187,47705,1,8,0:0:0:0:
211,191,47802,1,0,0:0:0:0:
211,192,47899,1,8,0:0:0:0:
219,213,47963,1,0,0:0:0:0:
219,213,48028,1,0,0:0:0:0:
207,253,48092,1,8,0:0:0:0:
226,230,48286,1,0,0:0:0:0:
240,232,48479,1,8,0:0:0:0:
226,229,48673,1,8,0:0:0:0:
213,204,48770,1,0,0:0:0:0:
215,205,48866,1,8,0:0:0:0:
221,206,48963,1,8,0:0:0:0:
221,206,49060,1,0,0:0:0:0:
226,213,49157,1,0,0:0:0:0:
226,213,49254,1,8,0:0:0:0:
226,207,49447,1,0,0:0:0:0:
236,223,49544,1,0,0:0:0:0:
236,223,49641,1,8,0:0:0:0:
236,223,49737,1,8,0:0:0:0:
236,223,49834,1,0,0:0:0:0:
215,201,50028,1,0,0:0:0:0:
235,189,50125,1,0,0:0:0:0:
234,189,50221,1,8,0:0:0:0:
205,221,50415,1,8,0:0:0:0:
241,201,50608,1,0,0:0:0:0:
253,200,50705,1,0,0:0:0:0:
253,200,50802,1,8,0:0:0:0:
253,199,50899,1,0,0:0:0:0:
266,198,50996,1,8,0:0:0:0:
272,198,51189,1,8,0:0:0:0:
267,198,51286,1,0,0:0:0:0:
237,187,51383,1,0,0:0:0:0:
237,190,51479,1,8,0:0:0:0:
237,190,51576,1,0,0:0:0:0:
228,183,51770,1,8,0:0:0:0:
228,183,51866,1,0,0:0:0:0:
236,165,51963,1,8,0:0:0:0:
234,208,52157,1,8,0:0:0:0:
234,208,52254,1,0,0:0:0:0:
221,191,52350,1,8,0:0:0:0:
221,191,52447,1,8,0:0:0:0:
228,177,52544,1,0,0:0:0:0:
228,177,52608,1,0,0:0:0:0:
228,177,52673,1,0,0:0:0:0:
227,172,52737,1,8,0:0:0:0:
218,188,52931,1,0,0:0:0:0:
223,178,53125,1,0,0:0:0:0:
231,194,53318,1,8,0:0:0:0:
238,194,53415,1,0,0:0:0:0:
238,194,53512,1,0,0:0:0:0:
228,177,53705,1,0,0:0:0:0:
212,172,53802,1,0,0:0:0:0:
212,172,53899,1,8,0:0:0:0:
217,173,54092,1,8,0:0:0:0:
220,173,54286,1,8,0:0:0:0:
216,168,54383,1,8,0:0:0:0:
218,169,54479,1,0,0:0:0:0:
216,170,54576,1,8,0:0:0:0:
216,170,54673,1,0,0:0:0:0:
209,197,54866,1,8,0:0:0:0:
192,157,55060,1,0,0:0:0:0:
203,215,55254,1,0,0:0:0:0:
201,205,55350,1,0,0:0:0:0:
201,205,55447,1,8,0:0:0:0:
210,181,55544,1,8,0:0:0:0:
210,181,55641,1,0,0:0:0:0:
233,178,55834,1,8,0:0:0:0:
209,175,55931,1,0,0:0:0:0:
210,181,56028,1,8,0:0:0:0:
210,181,56125,1,8,0:0:0:0:
210,181,56221,1,0,0:0:0:0:
245,226,56415,1,8,0:0:0:0:
235,202,56512,1,0,0:0:0:0:
240,204,56608,1,0,0:0:0:0:
212,273,56802,1,0,0:0:0:0:
213,203,56899,1,0,0:0:0:0:
221,203,56996,1,8,0:0:0:0:
222,206,57092,1,0,0:0:0:0:
217,204,57189,1,8,0:0:0:0:
204,195,57254,1,0,0:0:0:0:
204,195,57318,1,0,0:0:0:0:
207,199,57383,1,8,0:0:0:0:
225,188,57576,1,8,0:0:0:0:
206,202,57770,1,0,0:0:0:0:
229,211,57963,1,8,0:0:0:0:
227,230,58060,1,8,0:0:0:0:
209,187,58157,1,0,0:0:0:0:
207,184,58350,1,0,0:0:0:0:
203,187,58447,1,8,0:0:0:0:
203,187,58544,1,0,0:0:0:0:
190,184,58737,1,8,0:0:0:0:
219,204,58931,1,8,0:0:0:0:
219,204,59028,1,8,0:0:0:0:
224,205,59125,1,0,0:0:0:0:
213,210,59221,1,8,0:0:0:0:
224,205,59318,1,0,0:0:0:0:
203,187,59512,1,8,0:0:0:0:
218,191,59705,1,0,0:0:0:0:
223,198,59899,1,0,0:0:0:0:
216,198,59996,1,0,0:0:0:0:
223,198,60092,1,8,0:0:0:0:
221,198,60189,1,0,0:0:0:0:
214,188,60286,1,8,0:0:0:0:
192,182,60479,1,8,0:0:0:0:
230,181,60576,1,0,0:0:0:0:
243,182,60673,1,8,0:0:0:0:
205,195,60770,1,8,0:0:0:0:
218,220,60866,1,0,0:0:0:0:
205,247,61060,1,8,0:0:0:0:
205,247,61157,1,0,0:0:0:0:
222,236,61254,1,0,0:0:0:0:
218,261,61447,1,8,0:0:0:0:
207,162,61641,1,8,0:0:0:0:
200,170,61737,1,8,0:0:0:0:
191,201,61834,1,0,0:0:0:0:
218,177,61899,1,0,0:0:0:0:
218,177,61963,1,0,0:0:0:0:
236,237,62028,1,8,0:0:0:0:
202,223,62221,1,0,0:0:0:0:
236,237,62415,1,0,0:0:0:0:
202,223,62608,1,8,0:0:0:0:
207,240,62705,1,8,0:0:0:0:
209,230,62802,1,0,0:0:0:0:
209,230,62996,1,0,0:0:0:0:
197,181,63092,1,0,0:0:0:0:
201,231,63189,1,8,0:0:0:0:
211,221,63383,1,8,0:0:0:0:
221,216,63576,1,8,0:0:0:0:
216,208,63673,1,0,0:0:0:0:
221,216,63770,1,0,0:0:0:0:
181,194,63866,1,8,0:0:0:0:
204,213,63963,1,0,0:0:0:0:
245,240,64157,1,0,0:0:0:0:
230,252,64350,1,8,0:0:0:0:
208,186,64544,1,0,0:0:0:0:
212,192,64641,1,0,0:0:0:0:
214,193,64737,1,8,0:0:0:0:
215,190,64834,1,0,0:0:0:0:
215,193,64931,1,8,0:0:0:0:
202,233,65125,1,8,0:0:0:0:
194,181,65221,1,8,0:0:0:0:
214,197,65318,1,0,0:0:0:0:
216,196,65415,1,8,0:0:0:0:
225,192,65512,1,0,0:0:0:0:
246,253,65705,1,8,0:0:0:0:
227,250,65802,1,8,0:0:0:0:
227,250,65899,1,0,0:0:0:0:
209,197,66092,1,8,0:0:0:0:
206,190,66189,1,0,0:0:0:0:
196,197,66286,1,8,0:0:0:0:
219,192,66383,1,0,0:0:0:0:
219,192,66479,1,8,0:0:0:0:
216,192,66544,1,0,0:0:0:0:
216,192,66608,1,0,0:0:0:0:
216,192,66673,1,8,0:0:0:0:
195,189,66866,1,0,0:0:0:0:
206,167,67060,1,8,0:0:0:0:
192,184,67254,1,8,0:0:0:0:
194,163,67350,1,0,0:0:0:0:
201,195,67447,1,0,0:0:0:0:
202,196,67641,1,0,0:0:0:0:
186,189,67737,1,0,0:0:0:0:
187,189,67834,1,8,0:0:0:0:
190,190,68028,1,0,0:0:0:0:
183,175,68221,1,8,0:0:0:0:
187,161,68318,1,8,0:0:0:0:
185,178,68415,1,0,0:0:0:0:
180,164,68608,1,0,0:0:0:0:
231,213,69963,1,8,0:0:0:0:
248,223,70544,1,8,0:0:0:0:
256,232,70641,1,0,0:0:0:0:
254,229,70737,1,0,0:0:0:0:
223,183,70931,1,8,0:0:0:0:
178,194,71125,1,0,0:0:0:0:
205,218,71318,1,8,0:0:0:0:
230,238,71705,1,0,0:0:0:0:
236,247,72092,1,0,0:0:0:0:
236,247,72286,1,0,0:0:0:0:
244,246,72479,1,8,0:0:0:0:
244,246,72866,1,8,0:0:0:0:
249,245,73060,1,0,0:0:0:0:
196,186,73447,1,8,0:0:0:0:
201,201,73544,1,0,0:0:0:0:
203,202,73641,1,0,0:0:0:0:
211,195,73834,1,8,0:0:0:0:
213,207,74028,1,0,0:0:0:0:
248,213,74415,1,8,0:0:0:0:
229,196,74608,1,0,0:0:0:0:
229,196,74802,1,0,0:0:0:0:
209,190,74996,1,8,0:0:0:0:
235,243,75383,1,0,0:0:0:0:
234,197,75770,1,8,0:0:0:0:
234,197,76254,1,0,0:0:0:0:
200,176,77512,1,0,0:0:0:0:
240,184,77899,1,8,0:0:0:0:
240,184,78479,1,8,0:0:0:0:
240,184,79060,1,0,0:0:0:0:
223,183,80221,1,8,0:0:0:0:
178,194,80415,1,0,0:0:0:0:
205,218,80608,1,8,0:0:0:0:
230,238,80996,1,0,0:0:0:0:
236,247,81383,1,0,0:0:0:0:
236,247,81576,1,0,0:0:0:0:
244,246,81770,1,8,0:0:0:0:
244,246,82157,1,8,0:0:0:0:
249,245,82350,1,0,0:0:0:0:
196,186,82737,1,8,0:0:0:0:
201,201,82834,1,0,0:0:0:0:
203,202,82931,1,0,0:0:0:0:
211,195,83125,1,8,0:0:0:0:
213,207,83318,1,0,0:0:0:0:
248,213,83705,1,8,0:0:0:0:
229,196,83899,1,0,0:0:0:0:
229,196,84092,1,0,0:0:0:0:
216,149,84479,1,8,0:0:0:0:
204,169,84673,1,8,0:0:0:0:
208,194,84866,1,0,0:0:0:0:
211,170,85060,1,0,0:0:0:0:
200,208,85254,1,8,0:0:0:0:
217,197,85641,1,8,0:0:0:0:
211,189,86415,1,0,0:0:0:0:
208,198,87189,1,0,0:0:0:0:
220,202,87383,1,8,0:0:0:0:
213,187,87576,1,8,0:0:0:0:
231,213,87770,1,0,0:0:0:0:
231,218,87866,1,0,0:0:0:0:
195,233,87963,1,8,0:0:0:0:
216,249,88060,1,8,0:0:0:0:
216,249,88157,1,0,0:0:0:0:
216,249,88350,1,0,0:0:0:0:
216,249,88447,1,0,0:0:0:0:
216,249,88544,1,8,0:0:0:0:
196,220,88737,1,0,0:0:0:0:
183,177,88931,1,0,0:0:0:0:
196,220,89125,1,8,0:0:0:0:
203,175,89318,1,0,0:0:0:0:
206,176,89415,1,8,0:0:0:0:
185,210,89512,1,8,0:0:0:0:
207,232,89608,1,0,0:0:0:0:
195,176,89705,1,0,0:0:0:0:
200,185,89899,1,0,0:0:0:0:
200,185,90092,1,8,0:0:0:0:
217,196,90286,1,0,0:0:0:0:
206,181,90479,1,8,0:0:0:0:
195,145,90673,1,8,0:0:0:0:
209,212,90866,1,0,0:0:0:0:
195,262,90963,1,0,0:0:0:0:
200,256,91060,1,8,0:0:0:0:
191,205,91157,1,0,0:0:0:0:
191,205,91254,1,8,0:0:0:0:
225,219,91447,1,0,0:0:0:0:
231,221,91641,1,8,0:0:0:0:
231,221,91834,1,0,0:0:0:0:
205,214,92028,1,0,0:0:0:0:
237,226,92221,1,8,0:0:0:0:
214,229,92415,1,0,0:0:0:0:
217,217,92512,1,8,0:0:0:0:
217,217,92608,1,0,0:0:0:0:
217,217,92705,1,8,0:0:0:0:
201,206,92802,1,8,0:0:0:0:
214,205,92996,1,0,0:0:0:0:
206,203,93189,1,8,0:0:0:0:
218,212,93383,1,0,0:0:0:0:
228,206,93576,1,8,0:0:0:0:
218,212,93770,1,8,0:0:0:0:
214,182,93963,1,0,0:0:0:0:
213,222,94060,1,0,0:0:0:0:
217,224,94157,1,8,0:0:0:0:
209,153,94254,1,8,0:0:0:0:
225,227,94350,1,0,0:0:0:0:
241,213,94544,1,0,0:0:0:0:
246,200,94737,1,8,0:0:0:0:
197,120,95125,1,8,0:0:0:0:
207,155,95318,1,0,0:0:0:0:
204,168,95512,1,0,0:0:0:0:
211,222,95608,1,8,0:0:0:0:
215,167,95705,1,0,0:0:0:0:
217,175,95802,1,0,0:0:0:0:
200,179,95899,1,8,0:0:0:0:
205,214,96092,1,0,0:0:0:0:
207,155,96286,1,0,0:0:0:0:
198,141,96673,1,0,0:0:0:0:
198,141,96866,1,8,0:0:0:0:
196,192,97060,1,0,0:0:0:0:
185,185,97157,1,8,0:0:0:0:
197,205,97254,1,0,0:0:0:0:
196,192,97350,1,8,0:0:0:0:
196,192,97447,1,0,0:0:0:0:
196,246,97641,1,0,0:0:0:0:
205,253,97834,1,8,0:0:0:0:
189,226,98221,1,8,0:0:0:0:
189,226,98415,1,0,0:0:0:0:
210,226,98608,1,0,0:0:0:0:
206,170,98705,1,8,0:0:0:0:
206,209,98802,1,8,0:0:0:0:
206,209,98899,1,0,0:0:0:0:
211,213,98996,1,8,0:0:0:0:
221,197,99189,1,0,0:0:0:0:
222,205,99383,1,0,0:0:0:0:
217,224,99770,1,0,0:0:0:0:
217,224,99963,1,8,0:0:0:0:
222,272,100157,1,0,0:0:0:0:
206,193,100254,1,0,0:0:0:0:
244,273,100350,1,8,0:0:0:0:
206,193,100447,1,0,0:0:0:0:
244,218,100544,1,8,0:0:0:0:
206,193,100737,1,0,0:0:0:0:
214,198,100931,1,8,0:0:0:0:
226,204,101318,1,8,0:0:0:0:
226,204,101512,1,0,0:0:0:0:
186,202,101705,1,0,0:0:0:0:
205,228,101802,1,8,0:0:0:0:
205,228,101899,1,8,0:0:0:0:
208,222,101996,1,8,0:0:0:0:
208,222,102092,1,0,0:0:0:0:
193,246,102286,1,0,0:0:0:0:
176,158,102479,1,0,0:0:0:0:
176,158,102866,1,0,0:0:0:0:
183,182,103060,1,8,0:0:0:0:
216,248,103254,1,8,0:0:0:0:
216,248,103350,1,8,0:0:0:0:
216,248,103447,1,0,0:0:0:0:
216,248,103544,1,8,0:0:0:0:
216,248,103641,1,0,0:0:0:0:
188,202,103834,1,0,0:0:0:0:
189,202,104028,1,8,0:0:0:0:
196,219,104415,1,0,0:0:0:0:
196,219,104608,1,8,0:0:0:0:
203,294,104802,1,0,0:0:0:0:
237,246,104899,1,0,0:0:0:0:
200,223,104996,1,8,0:0:0:0:
226,207,105092,1,8,0:0:0:0:
226,207,105189,1,0,0:0:0:0:
234,212,105383,1,0,0:0:0:0:
234,212,105576,1,8,0:0:0:0:
268,265,105770,1,0,0:0:0:0:
201,230,105963,1,0,0:0:0:0:
236,237,106157,1,8,0:0:0:0:
200,258,106350,1,0,0:0:0:0:
240,266,106447,1,0,0:0:0:0:
231,232,106544,1,8,0:0:0:0:
210,234,106641,1,0,0:0:0:0:
210,234,106737,1,8,0:0:0:0:
225,275,106931,1,8,0:0:0:0:
230,275,107028,1,8,0:0:0:0:
227,275,107125,1,0,0:0:0:0:
198,220,107221,1,8,0:0:0:0:
198,220,107318,1,0,0:0:0:0:
200,223,107512,1,8,0:0:0:0:
201,225,107705,1,0,0:0:0:0:
230,303,107899,1,0,0:0:0:0:
216,245,107996,1,0,0:0:0:0:
216,245,108092,1,8,0:0:0:0:
228,250,108189,1,0,0:0:0:0:
240,257,108286,1,8,0:0:0:0:
239,257,108350,1,8,0:0:0:0:
239,257,108415,1,8,0:0:0:0:
239,257,108479,1,0,0:0:0:0:
221,271,108576,1,8,0:0:0:0:
245,226,108673,1,0,0:0:0:0:
226,218,108866,1,0,0:0:0:0:
211,227,109060,1,0,0:0:0:0:
232,225,109254,1,8,0:0:0:0:
210,226,109447,1,0,0:0:0:0:
232,225,109544,1,0,0:0:0:0:
232,225,109641,1,8,0:0:0:0:
221,236,109737,1,0,0:0:0:0:
221,236,109834,1,8,0:0:0:0:
254,281,110028,1,8,0:0:0:0:
235,236,110125,1,8,0:0:0:0:
254,281,110221,1,0,0:0:0:0:
235,236,110318,1,0,0:0:0:0:
230,235,110415,1,0,0:0:0:0:
246,213,110608,1,8,0:0:0:0:
246,213,110802,1,0,0:0:0:0:
236,215,110996,1,0,0:0:0:0:
236,215,111092,1,0,0:0:0:0:
239,218,111189,1,8,0:0:0:0:
221,218,111286,1,0,0:0:0:0:
221,218,111383,1,8,0:0:0:0:
213,209,111576,1,8,0:0:0:0:
221,218,111673,1,8,0:0:0:0:
221,218,111770,1,0,0:0:0:0:
233,223,111866,1,0,0:0:0:0:
233,223,111963,1,0,0:0:0:0:
228,256,112060,1,0,0:0:0:0:
189,194,112157,1,8,0:0:0:0:
192,196,112350,1,0,0:0:0:0:
216,217,112544,1,8,0:0:0:0:
216,217,112641,1,0,0:0:0:0:
227,218,112737,1,8,0:0:0:0:
185,199,112834,1,8,0:0:0:0:
206,126,112931,1,0,0:0:0:0:
211,186,112996,1,8,0:0:0:0:
211,186,113060,1,8,0:0:0:0:
211,186,113125,1,0,0:0:0:0:
190,175,113221,1,8,0:0:0:0:
212,207,113318,1,8,0:0:0:0:
201,187,113512,1,0,0:0:0:0:
203,248,113705,1,8,0:0:0:0:
231,265,113899,1,0,0:0:0:0:
213,241,114092,1,0,0:0:0:0:
206,182,114189,1,0,0:0:0:0:
227,255,114286,1,8,0:0:0:0:
221,234,114383,1,8,0:0:0:0:
225,238,114479,1,0,0:0:0:0:
222,252,114673,1,0,0:0:0:0:
223,258,114770,1,8,0:0:0:0:
222,252,114866,1,8,0:0:0:0:
223,258,114963,1,0,0:0:0:0:
223,258,115060,1,0,0:0:0:0:
218,225,115254,1,0,0:0:0:0:
218,225,115447,1,8,0:0:0:0:
218,225,115641,1,0,0:0:0:0:
218,225,115737,1,0,0:0:0:0:
211,225,115834,1,8,0:0:0:0:
203,212,115931,1,0,0:0:0:0:
203,212,116028,1,8,0:0:0:0:
215,216,116221,1,8,0:0:0:0:
218,225,116318,1,8,0:0:0:0:
218,225,116415,1,0,0:0:0:0:
218,225,116512,1,0,0:0:0:0:
218,225,116608,1,8,0:0:0:0:
218,225,116705,1,0,0:0:0:0:
224,224,116802,1,8,0:0:0:0:
231,243,116996,1,0,0:0:0:0:
289,256,117189,1,0,0:0:0:0:
229,241,117286,1,8,0:0:0:0:
259,235,117383,1,8,0:0:0:0:
226,248,117479,1,0,0:0:0:0:
231,258,117576,1,8,0:0:0:0:
231,258,117641,1,8,0:0:0:0:
227,258,117705,1,8,0:0:0:0:
226,258,117770,1,0,0:0:0:0:
242,272,117866,1,8,0:0:0:0:
243,272,117963,1,0,0:0:0:0:
246,228,118157,1,0,0:0:0:0:
265,248,118254,1,0,0:0:0:0:
265,248,118350,1,8,0:0:0:0:
211,241,118544,1,0,0:0:0:0:
234,259,118737,1,0,0:0:0:0:
234,259,118834,1,0,0:0:0:0:
237,264,118931,1,8,0:0:0:0:
235,247,119028,1,8,0:0:0:0:
231,239,119125,1,0,0:0:0:0:
216,232,119318,1,8,0:0:0:0:
204,221,119415,1,0,0:0:0:0:
216,235,119512,1,8,0:0:0:0:
216,235,119608,1,0,0:0:0:0:
216,235,119705,1,0,0:0:0:0:
240,234,119802,1,8,0:0:0:0:
240,234,119899,1,0,0:0:0:0:
240,235,120092,1,8,0:0:0:0:
227,244,120286,1,0,0:0:0:0:
206,210,120383,1,0,0:0:0:0:
206,211,120479,1,8,0:0:0:0:
217,217,120576,1,0,0:0:0:0:
220,223,120673,1,8,0:0:0:0:
196,213,120866,1,8,0:0:0:0:
202,218,120963,1,8,0:0:0:0:
190,211,121060,1,0,0:0:0:0:
190,211,121157,1,0,0:0:0:0:
221,201,121254,1,0,0:0:0:0:
221,201,121350,1,0,0:0:0:0:
225,205,121447,1,8,0:0:0:0:
204,202,121641,1,0,0:0:0:0:
188,219,121834,1,8,0:0:0:0:
202,222,122028,1,8,0:0:0:0:
202,222,122125,1,8,0:0:0:0:
199,192,122221,1,0,0:0:0:0:
199,192,122286,1,8,0:0:0:0:
199,192,122350,1,8,0:0:0:0:
199,192,122415,1,0,0:0:0:0:
219,226,122512,1,8,0:0:0:0:
219,226,122608,1,0,0:0:0:0:
240,237,122802,1,0,0:0:0:0:
218,202,122899,1,0,0:0:0:0:
218,202,122996,1,8,0:0:0:0:
219,200,123189,1,8,0:0:0:0:
215,176,123383,1,8,0:0:0:0:
224,204,123479,1,0,0:0:0:0:
229,205,123576,1,8,0:0:0:0:
218,202,123673,1,8,0:0:0:0:
218,202,123770,1,0,0:0:0:0:
218,202,123963,1,0,0:0:0:0:
219,200,124060,1,0,0:0:0:0:
219,200,124157,1,8,0:0:0:0:
219,199,124254,1,0,0:0:0:0:
247,208,125899,1,0,0:0:0:0:
212,254,126092,1,8,0:0:0:0:
199,251,126189,1,0,0:0:0:0:
199,251,126286,1,8,0:0:0:0:
196,227,126479,1,8,0:0:0:0:
197,222,126576,1,0,0:0:0:0:
197,222,126673,1,8,0:0:0:0:
216,206,126770,1,8,0:0:0:0:
211,220,126866,1,0,0:0:0:0:
196,219,126963,1,0,0:0:0:0:
196,219,127060,1,8,0:0:0:0:
227,203,127254,1,8,0:0:0:0:
198,200,127350,1,8,0:0:0:0:
221,193,127447,1,0,0:0:0:0:
218,210,127641,1,0,0:0:0:0:
206,187,127737,1,8,0:0:0:0:
206,187,127834,1,0,0:0:0:0:
212,196,127931,1,0,0:0:0:0:
218,197,128028,1,8,0:0:0:0:
217,201,128221,1,8,0:0:0:0:
217,201,128318,1,0,0:0:0:0:
218,202,128415,1,8,0:0:0:0:
218,202,128512,1,0,0:0:0:0:
218,202,128608,1,0,0:0:0:0:
201,216,128802,1,0,0:0:0:0:
195,176,128996,1,8,0:0:0:0:
207,192,129189,1,8,0:0:0:0:
206,227,129383,1,8,0:0:0:0:
202,223,129479,1,0,0:0:0:0:
193,194,129576,1,0,0:0:0:0:
199,159,129673,1,8,0:0:0:0:
199,159,129770,1,0,0:0:0:0:
230,177,129963,1,8,0:0:0:0:
230,177,130157,1,8,0:0:0:0:
222,176,130254,1,8,0:0:0:0:
222,176,130350,1,0,0:0:0:0:
195,189,130544,1,0,0:0:0:0:
206,167,130737,1,0,0:0:0:0:
206,167,130931,1,8,0:0:0:0:
224,199,131125,1,8,0:0:0:0:
233,245,131221,1,0,0:0:0:0:
233,245,131318,1,8,0:0:0:0:
229,191,131415,1,8,0:0:0:0:
246,264,131512,1,0,0:0:0:0:
250,254,131705,1,8,0:0:0:0:
252,256,131899,1,0,0:0:0:0:
252,256,131996,1,8,0:0:0:0:
208,225,132092,1,0,0:0:0:0:
226,258,132286,1,8,0:0:0:0:
208,225,132383,1,0,0:0:0:0:
208,225,132479,1,8,0:0:0:0:
226,215,132576,1,0,0:0:0:0:
226,215,132673,1,8,0:0:0:0:
207,262,132866,1,8,0:0:0:0:
230,235,132963,1,0,0:0:0:0:
230,235,133060,1,8,0:0:0:0:
273,290,133157,1,0,0:0:0:0:
204,232,133254,1,0,0:0:0:0:
208,225,133447,1,0,0:0:0:0:
191,195,133641,1,8,0:0:0:0:
196,205,133834,1,8,0:0:0:0:
216,205,134028,1,0,0:0:0:0:
220,220,134125,1,0,0:0:0:0:
211,238,134221,1,8,0:0:0:0:
228,222,134318,1,8,0:0:0:0:
231,222,134415,1,0,0:0:0:0:
246,247,134608,1,8,0:0:0:0:
246,247,134802,1,8,0:0:0:0:
230,244,134899,1,0,0:0:0:0:
246,247,134996,1,0,0:0:0:0:
232,244,135189,1,0,0:0:0:0:
250,245,135383,1,0,0:0:0:0:
238,244,135576,1,8,0:0:0:0:
251,245,135770,1,8,0:0:0:0:
253,245,135866,1,0,0:0:0:0:
253,245,135963,1,8,0:0:0:0:
269,281,136060,1,8,0:0:0:0:
257,246,136157,1,0,0:0:0:0:
218,268,136350,1,8,0:0:0:0:
246,252,136544,1,8,0:0:0:0:
242,245,136641,1,8,0:0:0:0:
234,221,136737,1,0,0:0:0:0:
210,224,136931,1,0,0:0:0:0:
214,237,137028,1,0,0:0:0:0:
220,243,137125,1,8,0:0:0:0:
208,266,137221,1,0,0:0:0:0:
208,266,137318,1,8,0:0:0:0:
213,253,137512,1,8,0:0:0:0:
213,253,137608,1,0,0:0:0:0:
213,253,137705,1,8,0:0:0:0:
213,253,137802,1,0,0:0:0:0:
213,253,137899,1,8,0:0:0:0:
231,270,138092,1,0,0:0:0:0:
208,266,138286,1,8,0:0:0:0:
214,193,138479,1,8,0:0:0:0:
201,195,138673,1,8,0:0:0:0:
193,235,138770,1,0,0:0:0:0:
218,255,138866,1,8,0:0:0:0:
218,255,138963,1,0,0:0:0:0:
214,202,139060,1,0,0:0:0:0:
221,206,139254,1,8,0:0:0:0:
191,249,139447,1,8,0:0:0:0:
195,283,139544,1,8,0:0:0:0:
214,226,139641,1,0,0:0:0:0:
214,226,139834,1,0,0:0:0:0:
237,270,140028,1,0,0:0:0:0:
237,270,140221,1,8,0:0:0:0:
195,217,140415,1,8,0:0:0:0:
231,298,140512,1,0,0:0:0:0:
217,287,140608,1,8,0:0:0:0:
211,287,140705,1,8,0:0:0:0:
217,287,140802,1,0,0:0:0:0:
201,241,140996,1,8,0:0:0:0:
207,202,141189,1,8,0:0:0:0:
207,202,141286,1,0,0:0:0:0:
211,203,141383,1,0,0:0:0:0:
186,180,141576,1,8,0:0:0:0:
191,210,141673,1,0,0:0:0:0:
192,209,141770,1,8,0:0:0:0:
193,209,141866,1,0,0:0:0:0:
195,209,141963,1,8,0:0:0:0:
197,209,142157,1,0,0:0:0:0:
197,209,142254,1,8,0:0:0:0:
197,209,142350,1,8,0:0:0:0:
197,209,142447,1,0,0:0:0:0:
198,209,142544,1,8,0:0:0:0:
201,209,142737,1,0,0:0:0:0:
201,209,142931,1,8,0:0:0:0:
234,236,143028,1,0,0:0:0:0:
234,236,143125,1,8,0:0:0:0:
197,277,143318,1,8,0:0:0:0:
210,197,143415,1,0,0:0:0:0:
218,222,143512,1,8,0:0:0:0:
229,237,143608,1,8,0:0:0:0:
229,237,143705,1,0,0:0:0:0:
213,205,143899,1,8,0:0:0:0:
217,208,144092,1,8,0:0:0:0:
217,208,144189,1,8,0:0:0:0:
217,208,144286,1,0,0:0:0:0:
232,259,144479,1,0,0:0:0:0:
232,259,144576,1,0,0:0:0:0:
231,217,144673,1,8,0:0:0:0:
231,233,144770,1,0,0:0:0:0:
231,209,144866,1,8,0:0:0:0:
231,200,145060,1,0,0:0:0:0:
238,210,145157,1,8,0:0:0:0:
238,210,145254,1,8,0:0:0:0:
241,213,145350,1,0,0:0:0:0:
254,233,145447,1,8,0:0:0:0:
254,233,145544,1,0,0:0:0:0:
254,233,145641,1,8,0:0:0:0:
254,233,145834,1,0,0:0:0:0:
254,233,145931,1,0,0:0:0:0:
254,233,146028,1,8,0:0:0:0:
216,230,146221,1,8,0:0:0:0:
241,237,146318,1,0,0:0:0:0:
246,241,146415,1,8,0:0:0:0:
258,243,146512,1,0,0:0:0:0:
249,239,146608,1,8,0:0:0:0:
234,241,146802,1,8,0:0:0:0:
285,188,146899,1,8,0:0:0:0:
217,217,146996,1,0,0:0:0:0:
217,217,147060,1,0,0:0:0:0:
217,217,147125,1,0,0:0:0:0:
218,217,147189,1,8,0:0:0:0:
202,231,147286,1,0,0:0:0:0:
244,260,147383,1,0,0:0:0:0:
234,232,147576,1,8,0:0:0:0:
234,232,147673,1,0,0:0:0:0:
234,232,147770,1,8,0:0:0:0:
215,210,147866,1,8,0:0:0:0:
215,210,147963,1,0,0:0:0:0:
231,224,148060,1,8,0:0:0:0:
234,225,148157,1,0,0:0:0:0:
234,225,148254,1,0,0:0:0:0:
234,225,148350,1,8,0:0:0:0:
236,226,148447,1,0,0:0:0:0:
236,226,148544,1,8,0:0:0:0:
241,228,148641,1,8,0:0:0:0:
241,228,148737,1,0,0:0:0:0:
245,228,148931,1,0,0:0:0:0:
227,220,149028,1,8,0:0:0:0:
227,220,149125,1,0,0:0:0:0:
227,220,149221,1,0,0:0:0:0:
227,220,149318,1,8,0:0:0:0:
229,221,149512,1,8,0:0:0:0:
208,166,149608,1,0,0:0:0:0:
206,216,149705,1,0,0:0:0:0:
164,202,149802,1,0,0:0:0:0:
247,254,149899,1,8,0:0:0:0:
208,166,150092,1,8,0:0:0:0:
224,206,150286,1,8,0:0:0:0:
226,207,150383,1,8,0:0:0:0:
226,207,150479,1,0,0:0:0:0:
200,232,150576,1,0,0:0:0:0:
200,232,150673,1,8,0:0:0:0:
202,162,150770,1,0,0:0:0:0:
202,162,150866,1,8,0:0:0:0:
195,151,150963,1,0,0:0:0:0:
197,152,151060,1,8,0:0:0:0:
252,209,151254,1,0,0:0:0:0:
199,152,151350,1,0,0:0:0:0:
200,152,151447,1,8,0:0:0:0:
206,154,151544,1,0,0:0:0:0:
206,154,151641,1,8,0:0:0:0:
225,155,151705,1,8,0:0:0:0:
225,155,151770,1,8,0:0:0:0:
224,152,151834,1,0,0:0:0:0:
214,192,151931,1,8,0:0:0:0:
264,199,152028,1,0,0:0:0:0:
221,207,152221,1,0,0:0:0:0:
215,165,152318,1,0,0:0:0:0:
219,165,152415,1,8,0:0:0:0:
231,173,152512,1,0,0:0:0:0:
231,173,152608,1,8,0:0:0:0:
231,173,152705,1,8,0:0:0:0:
231,173,152802,1,0,0:0:0:0:
232,173,152899,1,0,0:0:0:0:
232,173,152996,1,8,0:0:0:0:
227,151,153092,1,8,0:0:0:0:
227,151,153189,1,0,0:0:0:0:
233,227,153383,1,8,0:0:0:0:
244,180,153576,1,0,0:0:0:0:
240,174,153673,1,8,0:0:0:0:
240,174,153770,1,0,0:0:0:0:
231,186,153866,1,0,0:0:0:0:
231,186,153963,1,8,0:0:0:0:
231,186,154060,1,0,0:0:0:0:
231,186,154157,1,8,0:0:0:0:
221,173,154350,1,0,0:0:0:0:
221,173,154447,1,0,0:0:0:0:
221,173,154544,1,8,0:0:0:0:
211,224,154641,1,0,0:0:0:0:
240,174,154737,1,8,0:0:0:0:
215,231,154834,1,0,0:0:0:0:
215,231,154931,1,8,0:0:0:0:
231,203,155125,1,8,0:0:0:0:
207,207,155221,1,0,0:0:0:0:
209,207,155318,1,0,0:0:0:0:
209,207,155415,1,0,0:0:0:0:
216,210,155512,1,8,0:0:0:0:
231,203,155608,1,0,0:0:0:0:
236,203,155705,1,8,0:0:0:0:
217,189,155802,1,8,0:0:0:0:
221,190,155899,1,0,0:0:0:0:
249,271,156092,1,8,0:0:0:0:
204,192,156189,1,0,0:0:0:0:
212,196,156286,1,8,0:0:0:0:
234,192,156350,1,0,0:0:0:0:
234,192,156415,1,0,0:0:0:0:
234,192,156479,1,8,0:0:0:0:
171,249,156576,1,0,0:0:0:0:
240,197,156673,1,0,0:0:0:0:
203,222,156866,1,0,0:0:0:0:
196,204,156963,1,0,0:0:0:0:
196,204,157060,1,8,0:0:0:0:
225,241,157254,1,8,0:0:0:0:
215,181,157350,1,8,0:0:0:0:
214,158,157447,1,0,0:0:0:0:
221,202,157641,1,8,0:0:0:0:
221,202,157737,1,0,0:0:0:0:
222,202,157834,1,8,0:0:0:0:
226,204,157931,1,0,0:0:0:0:
226,204,158028,1,8,0:0:0:0:
222,201,158125,1,8,0:0:0:0:
222,201,158221,1,0,0:0:0:0:
222,201,158318,1,8,0:0:0:0:
222,201,158415,1,0,0:0:0:0:
221,202,158512,1,0,0:0:0:0:
221,202,158608,1,8,0:0:0:0:
221,202,158705,1,8,0:0:0:0:
221,202,158802,1,0,0:0:0:0:
226,204,158996,1,0,0:0:0:0:
217,212,159189,1,8,0:0:0:0:
247,264,159286,1,8,0:0:0:0:
213,182,159383,1,0,0:0:0:0:
219,227,159576,1,8,0:0:0:0:
201,204,159673,1,0,0:0:0:0:
221,220,159770,1,0,0:0:0:0:
285,268,159963,1,0,0:0:0:0:
264,257,160060,1,0,0:0:0:0:
212,207,160157,1,8,0:0:0:0:
213,208,160254,1,8,0:0:0:0:
213,208,160350,1,0,0:0:0:0:
264,189,160447,1,8,0:0:0:0:
213,207,160544,1,0,0:0:0:0:
206,212,160737,1,8,0:0:0:0:
238,243,160834,1,8,0:0:0:0:
213,222,160931,1,0,0:0:0:0:
213,222,160996,1,8,0:0:0:0:
213,222,161060,1,8,0:0:0:0:
213,222,161125,1,0,0:0:0:0:
235,208,161221,1,8,0:0:0:0:
216,172,161318,1,0,0:0:0:0:
247,212,161512,1,0,0:0:0:0:
272,208,161608,1,8,0:0:0:0:
266,209,161705,1,8,0:0:0:0:
272,208,161802,1,0,0:0:0:0:
214,232,161899,1,0,0:0:0:0:
210,195,161996,1,8,0:0:0:0:
272,208,162092,1,0,0:0:0:0:
272,208,162189,1,8,0:0:0:0:
236,167,162286,1,8,0:0:0:0:
288,206,162383,1,0,0:0:0:0:
222,197,162479,1,0,0:0:0:0:
222,174,162673,1,8,0:0:0:0:
209,184,162770,1,8,0:0:0:0:
209,184,162866,1,0,0:0:0:0:
209,184,162963,1,8,0:0:0:0:
209,184,163060,1,0,0:0:0:0:
207,170,163157,1,0,0:0:0:0:
207,170,163254,1,8,0:0:0:0:
201,171,163350,1,0,0:0:0:0:
201,171,163447,1,8,0:0:0:0:
219,184,163641,1,0,0:0:0:0:
196,185,163737,1,0,0:0:0:0:
183,187,163834,1,8,0:0:0:0:
196,185,163931,1,0,0:0:0:0:
194,169,164028,1,8,0:0:0:0:
194,169,164221,1,8,0:0:0:0:
201,171,164318,1,0,0:0:0:0:
201,171,164415,1,8,0:0:0:0:
218,175,164512,1,8,0:0:0:0:
206,169,164608,1,0,0:0:0:0:
214,170,164705,1,0,0:0:0:0:
214,170,164802,1,8,0:0:0:0:
207,178,164899,1,0,0:0:0:0:
207,178,164996,1,8,0:0:0:0:
197,149,165189,1,8,0:0:0:0:
206,189,165286,1,0,0:0:0:0:
206,189,165383,1,8,0:0:0:0:
212,181,165479,1,8,0:0:0:0:
236,197,165576,1,0,0:0:0:0:
236,197,165641,1,0,0:0:0:0:
236,197,165705,1,0,0:0:0:0:
236,197,165770,1,8,0:0:0:0:
199,191,165866,1,0,0:0:0:0:
192,196,165963,1,0,0:0:0:0:
218,202,166157,1,0,0:0:0:0:
218,202,166350,1,8,0:0:0:0:
221,203,166447,1,0,0:0:0:0:
221,203,166544,1,8,0:0:0:0:
205,193,166737,1,0,0:0:0:0:
206,194,166834,1,0,0:0:0:0:
211,196,166931,1,8,0:0:0:0:
218,202,167028,1,8,0:0:0:0:
218,202,167125,1,0,0:0:0:0:
253,206,167318,1,8,0:0:0:0:
253,206,167415,1,8,0:0:0:0:
274,210,167512,1,0,0:0:0:0:
274,210,167608,1,0,0:0:0:0:
274,210,167705,1,8,0:0:0:0:
227,183,168286,1,8,0:0:0:0:
214,193,168866,1,0,0:0:0:0:
218,196,169060,1,8,0:0:0:0:
251,188,169834,1,0,0:0:0:0:
184,189,170608,1,0,0:0:0:0:
227,228,172350,1,8,0:0:0:0:
227,228,172544,1,0,0:0:0:0:
227,228,172641,1,8,0:0:0:0:
227,228,172737,1,0,0:0:0:0:
226,238,172834,1,0,0:0:0:0:
227,228,172931,1,8,0:0:0:0:
206,186,173318,1,0,0:0:0:0:
206,186,173512,1,8,0:0:0:0:
209,190,173705,1,8,0:0:0:0:
210,190,173899,1,0,0:0:0:0:
202,221,174479,1,8,0:0:0:0:
202,221,175060,1,0,0:0:0:0:
202,221,175254,1,8,0:0:0:0:
212,182,175641,1,8,0:0:0:0:
229,188,176028,1,0,0:0:0:0:
223,174,178544,1,8,0:0:0:0:
219,157,178737,1,0,0:0:0:0:
213,163,178834,1,8,0:0:0:0:
215,165,178931,1,0,0:0:0:0:
226,194,179028,1,0,0:0:0:0:
206,169,179125,1,8,0:0:0:0:
221,184,179512,1,0,0:0:0:0:
220,182,179705,1,8,0:0:0:0:
220,182,179899,1,8,0:0:0:0:
215,161,180092,1,8,0:0:0:0:
215,161,180286,1,0,0:0:0:0:
217,170,180479,1,8,0:0:0:0:
259,222,180866,1,0,0:0:0:0:
231,161,181060,1,8,0:0:0:0:
202,186,181447,1,0,0:0:0:0:
209,186,182996,1,8,0:0:0:0:
209,186,183189,1,8,0:0:0:0:
193,165,183383,1,8,0:0:0:0:
188,142,183576,1,0,0:0:0:0:
206,205,183963,1,8,0:0:0:0:
203,180,184157,1,0,0:0:0:0:
204,196,184544,1,8,0:0:0:0:
237,152,186092,1,8,0:0:0:0:
237,152,186286,1,8,0:0:0:0:
230,156,186479,1,0,0:0:0:0:
207,158,186866,1,0,0:0:0:0:
230,156,187060,1,0,0:0:0:0:
230,156,187254,1,8,0:0:0:0:
207,158,187641,1,0,0:0:0:0:
220,161,187834,1,0,0:0:0:0:
220,161,188028,1,0,0:0:0:0:
213,164,188415,1,0,0:0:0:0:
205,163,188608,1,8,0:0:0:0:
205,163,188802,1,0,0:0:0:0:
206,167,189189,1,0,0:0:0:0:
204,164,189383,1,0,0:0:0:0:
205,163,189576,1,8,0:0:0:0:
205,163,189770,1,0,0:0:0:0:
206,167,189963,1,8,0:0:0:0:
206,167,190157,1,8,0:0:0:0:
224,167,190350,1,0,0:0:0:0:
225,167,190544,1,0,0:0:0:0:
236,252,191512,1,0,0:0:0:0:
221,225,191705,1,8,0:0:0:0:
218,199,191899,1,8,0:0:0:0:
233,219,192479,1,0,0:0:0:0:
233,220,192673,1,0,0:0:0:0:
226,204,192866,1,8,0:0:0:0:
214,220,193060,1,0,0:0:0:0:
214,220,193157,1,8,0:0:0:0:
214,220,193254,1,8,0:0:0:0:
214,220,193350,1,0,0:0:0:0:
214,220,193447,1,0,0:0:0:0:
225,270,193641,1,8,0:0:0:0:
215,246,193834,1,8,0:0:0:0:
240,222,193931,1,8,0:0:0:0:
243,230,194028,1,0,0:0:0:0:
221,243,194221,1,8,0:0:0:0:
221,243,194318,1,0,0:0:0:0:
209,214,194415,1,8,0:0:0:0:
221,242,194512,1,0,0:0:0:0:
221,242,194608,1,8,0:0:0:0:
226,230,194802,1,8,0:0:0:0:
226,230,194899,1,0,0:0:0:0:
196,211,194996,1,0,0:0:0:0:
196,211,195092,1,8,0:0:0:0:
217,228,195189,1,8,0:0:0:0:
232,217,195383,1,0,0:0:0:0:
236,218,195576,1,8,0:0:0:0:
239,245,195770,1,8,0:0:0:0:
202,233,195963,1,8,0:0:0:0:
220,232,196060,1,0,0:0:0:0:
221,232,196157,1,8,0:0:0:0:
212,220,196254,1,8,0:0:0:0:
221,232,196350,1,0,0:0:0:0:
212,220,196544,1,8,0:0:0:0:
212,220,196737,1,8,0:0:0:0:
212,220,196834,1,0,0:0:0:0:
213,221,196931,1,0,0:0:0:0:
215,245,197125,1,0,0:0:0:0:
181,192,197318,1,0,0:0:0:0:
181,192,197512,1,8,0:0:0:0:
197,235,197705,1,8,0:0:0:0:
219,217,197802,1,0,0:0:0:0:
210,194,197899,1,8,0:0:0:0:
211,199,197996,1,0,0:0:0:0:
211,199,198092,1,0,0:0:0:0:
200,201,198286,1,8,0:0:0:0:
232,192,198479,1,8,0:0:0:0:
232,192,198576,1,8,0:0:0:0:
232,192,198673,1,0,0:0:0:0:
234,195,198866,1,8,0:0:0:0:
234,195,198963,1,0,0:0:0:0:
234,195,199060,1,8,0:0:0:0:
232,192,199157,1,0,0:0:0:0:
237,197,199254,1,8,0:0:0:0:
241,204,199447,1,0,0:0:0:0:
241,204,199544,1,8,0:0:0:0:
241,204,199641,1,0,0:0:0:0:
242,204,199737,1,0,0:0:0:0:
242,204,199834,1,8,0:0:0:0:
266,256,200028,1,0,0:0:0:0:
266,256,200221,1,8,0:0:0:0:
239,212,200415,1,8,0:0:0:0:
242,218,200608,1,8,0:0:0:0:
242,218,200705,1,0,0:0:0:0:
215,220,200802,1,8,0:0:0:0:
202,228,200899,1,8,0:0:0:0:
259,211,200996,1,0,0:0:0:0:
270,237,201189,1,8,0:0:0:0:
270,237,201383,1,8,0:0:0:0:
270,237,201479,1,0,0:0:0:0:
270,237,201576,1,0,0:0:0:0:
236,243,201770,1,0,0:0:0:0:
201,197,201963,1,0,0:0:0:0:
201,197,202157,1,8,0:0:0:0:
207,245,202350,1,0,0:0:0:0:
207,245,202447,1,0,0:0:0:0:
207,245,202544,1,8,0:0:0:0:
186,233,202641,1,8,0:0:0:0:
192,234,202737,1,0,0:0:0:0:
179,210,202931,1,8,0:0:0:0:
191,233,203125,1,8,0:0:0:0:
177,211,203221,1,8,0:0:0:0:
177,211,203318,1,0,0:0:0:0:
196,173,203512,1,8,0:0:0:0:
201,176,203608,1,0,0:0:0:0:
201,176,203705,1,8,0:0:0:0:
200,175,203802,1,0,0:0:0:0:
200,175,203899,1,8,0:0:0:0:
196,173,204092,1,0,0:0:0:0:
196,173,204189,1,8,0:0:0:0:
196,173,204286,1,8,0:0:0:0:
196,173,204383,1,0,0:0:0:0:
201,176,204479,1,8,0:0:0:0:
214,283,204673,1,0,0:0:0:0:
214,283,204866,1,8,0:0:0:0:
211,275,205060,1,8,0:0:0:0:
213,257,205254,1,8,0:0:0:0:
195,248,205350,1,0,0:0:0:0:
181,238,205447,1,8,0:0:0:0:
221,268,205544,1,8,0:0:0:0:
214,256,205641,1,0,0:0:0:0:
225,258,205834,1,8,0:0:0:0:
212,228,206028,1,8,0:0:0:0:
212,228,206125,1,8,0:0:0:0:
212,228,206221,1,0,0:0:0:0:
211,194,206415,1,0,0:0:0:0:
202,163,206608,1,0,0:0:0:0:
202,163,206705,1,0,0:0:0:0:
202,163,206802,1,8,0:0:0:0:
212,228,206996,1,0,0:0:0:0:
217,175,207092,1,8,0:0:0:0:
208,172,207189,1,8,0:0:0:0:
208,172,207286,1,8,0:0:0:0:
208,172,207383,1,0,0:0:0:0:
205,207,207576,1,8,0:0:0:0:
205,202,207770,1,8,0:0:0:0:
209,200,207866,1,0,0:0:0:0:
209,199,207963,1,0,0:0:0:0:
213,227,208157,1,8,0:0:0:0:
190,215,208254,1,0,0:0:0:0:
190,215,208350,1,8,0:0:0:0:
190,208,208447,1,0,0:0:0:0:
190,208,208544,1,8,0:0:0:0:
208,210,208737,1,0,0:0:0:0:
208,210,208834,1,8,0:0:0:0:
208,210,208931,1,0,0:0:0:0:
208,211,209028,1,8,0:0:0:0:
221,246,209125,1,8,0:0:0:0:
233,231,209318,1,0,0:0:0:0:
221,162,209512,1,8,0:0:0:0:
221,162,209705,1,8,0:0:0:0:
207,230,209899,1,8,0:0:0:0:
202,232,209996,1,0,0:0:0:0:
215,218,210092,1,8,0:0:0:0:
211,207,210189,1,8,0:0:0:0:
224,215,210286,1,0,0:0:0:0:
227,196,210383,1,0,0:0:0:0:
227,196,210479,1,8,0:0:0:0:
214,258,210673,1,8,0:0:0:0:
214,258,210770,1,8,0:0:0:0:
198,156,210866,1,0,0:0:0:0:
221,187,211060,1,0,0:0:0:0:
227,247,211157,1,0,0:0:0:0:
181,235,211254,1,8,0:0:0:0:
195,235,211350,1,8,0:0:0:0:
195,235,211447,1,0,0:0:0:0:
201,239,211641,1,0,0:0:0:0:
201,239,211737,1,8,0:0:0:0:
206,221,211834,1,8,0:0:0:0:
206,221,211931,1,0,0:0:0:0:
197,211,212028,1,8,0:0:0:0:
196,203,212125,1,0,0:0:0:0:
197,211,212221,1,8,0:0:0:0:
201,212,212415,1,8,0:0:0:0:
201,212,212512,1,8,0:0:0:0:
201,212,212608,1,0,0:0:0:0:
210,190,212705,1,0,0:0:0:0:
209,190,212802,1,8,0:0:0:0:
205,182,212996,1,0,0:0:0:0:
205,182,213189,1,8,0:0:0:0:
205,182,213286,1,0,0:0:0:0:
205,182,213383,1,8,0:0:0:0:
205,182,213479,1,8,0:0:0:0:
205,182,213576,1,0,0:0:0:0:
218,210,213641,1,0,0:0:0:0:
218,210,213705,1,0,0:0:0:0:
218,210,213770,1,8,0:0:0:0:
197,237,213963,1,0,0:0:0:0:
204,243,214060,1,0,0:0:0:0:
205,252,214157,1,8,0:0:0:0:
216,204,214254,1,0,0:0:0:0:
216,204,214350,1,8,0:0:0:0:
197,195,214544,1,0,0:0:0:0:
197,195,214737,1,0,0:0:0:0:
209,213,214834,1,0,0:0:0:0:
209,213,214931,1,8,0:0:0:0:
217,217,215028,1,8,0:0:0:0:
217,217,215125,1,0,0:0:0:0:
226,224,215318,1,8,0:0:0:0:
228,233,215415,1,8,0:0:0:0:
197,195,215512,1,0,0:0:0:0:
216,216,215608,1,8,0:0:0:0:
226,232,215705,1,0,0:0:0:0:
231,231,215899,1,8,0:0:0:0:
199,144,215996,1,0,0:0:0:0:
231,231,216092,1,8,0:0:0:0:
217,193,216286,1,0,0:0:0:0:
222,192,216383,1,0,0:0:0:0:
222,192,216479,1,8,0:0:0:0:
224,193,216576,1,0,0:0:0:0:
225,193,216673,1,8,0:0:0:0:
225,193,216770,1,8,0:0:0:0:
225,193,216866,1,0,0:0:0:0:
226,193,217060,1,8,0:0:0:0:
226,193,217157,1,0,0:0:0:0:
226,193,217254,1,0,0:0:0:0:
222,192,217447,1,8,0:0:0:0:
212,176,217544,1,8,0:0:0:0:
225,193,217641,1,0,0:0:0:0:
214,214,217834,1,0,0:0:0:0:
220,226,217931,1,0,0:0:0:0:
216,220,218028,1,8,0:0:0:0:
214,180,218125,1,0,0:0:0:0:
212,183,218221,1,8,0:0:0:0:
212,183,218286,1,0,0:0:0:0:
212,183,218350,1,0,0:0:0:0:
212,183,218415,1,8,0:0:0:0:
212,211,218608,1,0,0:0:0:0:
214,214,218705,1,8,0:0:0:0:
226,212,218802,1,0,0:0:0:0:
232,212,218899,1,0,0:0:0:0:
232,212,218996,1,8,0:0:0:0:
212,172,219189,1,8,0:0:0:0:
230,183,219286,1,8,0:0:0:0:
226,175,219383,1,0,0:0:0:0:
212,172,219576,1,0,0:0:0:0:
227,175,219673,1,8,0:0:0:0:
227,175,219770,1,0,0:0:0:0:
207,158,219963,1,8,0:0:0:0:
230,178,220060,1,0,0:0:0:0:
230,178,220157,1,0,0:0:0:0:
222,179,220254,1,8,0:0:0:0:
212,174,220350,1,0,0:0:0:0:
200,177,220544,1,8,0:0:0:0:
215,180,220641,1,8,0:0:0:0:
211,175,220737,1,0,0:0:0:0:
218,182,220931,1,0,0:0:0:0:
215,180,221028,1,0,0:0:0:0:
215,180,221125,1,8,0:0:0:0:
215,180,221221,1,0,0:0:0:0:
215,180,221318,1,8,0:0:0:0:
217,180,221415,1,8,0:0:0:0:
217,180,221512,1,0,0:0:0:0:
229,167,221705,1,8,0:0:0:0:
229,167,221802,1,0,0:0:0:0:
229,167,221899,1,0,0:0:0:0:
191,147,222092,1,8,0:0:0:0:
191,147,222189,1,0,0:0:0:0:
213,159,222286,1,8,0:0:0:0:
213,159,222383,1,0,0:0:0:0:
215,159,222479,1,8,0:0:0:0:
196,164,222673,1,8,0:0:0:0:
196,164,222770,1,0,0:0:0:0:
184,180,222866,1,8,0:0:0:0:
184,180,222931,1,8,0:0:0:0:
184,180,222996,1,8,0:0:0:0:
193,171,223060,1,0,0:0:0:0:
214,290,223254,1,0,0:0:0:0:
221,227,223350,1,0,0:0:0:0:
231,286,223447,1,8,0:0:0:0:
227,232,223544,1,0,0:0:0:0:
221,227,223641,1,8,0:0:0:0:
233,233,223834,1,8,0:0:0:0:
233,233,223931,1,0,0:0:0:0:
237,233,224028,1,0,0:0:0:0:
239,233,224125,1,0,0:0:0:0:
239,233,224221,1,8,0:0:0:0:
234,236,224415,1,0,0:0:0:0:
230,237,224608,1,8,0:0:0:0:
230,237,224705,1,0,0:0:0:0:
233,233,224802,1,0,0:0:0:0:
215,198,224996,1,0,0:0:0:0:
222,210,225189,1,8,0:0:0:0:
222,210,225286,1,0,0:0:0:0:
225,212,225383,1,8,0:0:0:0:
229,210,225576,1,0,0:0:0:0:
234,211,225673,1,0,0:0:0:0:
238,211,225770,1,8,0:0:0:0:
236,197,225866,1,8,0:0:0:0:
225,190,225963,1,0,0:0:0:0:
200,201,226157,1,8,0:0:0:0:
213,189,226350,1,8,0:0:0:0:
218,197,226447,1,0,0:0:0:0:
216,191,226544,1,0,0:0:0:0:
224,200,226737,1,8,0:0:0:0:
224,200,226834,1,8,0:0:0:0:
224,200,226931,1,0,0:0:0:0:
226,202,227028,1,0,0:0:0:0:
226,202,227125,1,8,0:0:0:0:
230,204,227318,1,8,0:0:0:0:
200,171,227415,1,8,0:0:0:0:
203,189,227512,1,0,0:0:0:0:
217,182,227576,1,8,0:0:0:0:
217,182,227641,1,8,0:0:0:0:
217,182,227705,1,0,0:0:0:0:
196,185,227899,1,0,0:0:0:0:
211,248,227996,1,0,0:0:0:0:
206,218,228092,1,8,0:0:0:0:
208,214,228189,1,0,0:0:0:0:
208,214,228286,1,8,0:0:0:0:
222,239,228383,1,8,0:0:0:0:
222,239,228479,1,0,0:0:0:0:
228,246,228673,1,0,0:0:0:0:
221,215,228866,1,0,0:0:0:0:
221,215,228963,1,0,0:0:0:0:
221,215,229060,1,8,0:0:0:0:
221,215,229254,1,8,0:0:0:0:
226,215,229350,1,0,0:0:0:0:
226,215,229447,1,0,0:0:0:0:
226,215,229641,1,0,0:0:0:0:
219,221,229834,1,8,0:0:0:0:
219,221,229931,1,8,0:0:0:0:
219,221,230028,1,0,0:0:0:0:
219,228,230221,1,0,0:0:0:0:
228,225,230318,1,0,0:0:0:0:
228,225,230415,1,8,0:0:0:0:
225,221,230512,1,8,0:0:0:0:
225,221,230608,1,0,0:0:0:0:
208,213,230802,1,8,0:0:0:0:
214,215,230996,1,0,0:0:0:0:
214,215,231092,1,0,0:0:0:0:
214,215,231189,1,8,0:0:0:0:
219,216,231383,1,8,0:0:0:0:
225,221,231479,1,0,0:0:0:0:
234,222,231576,1,8,0:0:0:0:
234,222,231770,1,0,0:0:0:0:
234,222,231963,1,8,0:0:0:0:
234,222,232060,1,8,0:0:0:0:
234,222,232157,1,0,0:0:0:0:
246,217,232221,1,0,0:0:0:0:
246,217,232286,1,0,0:0:0:0:
246,217,232350,1,8,0:0:0:0:
185,212,232447,1,0,0:0:0:0:
265,281,232544,1,0,0:0:0:0:
217,278,232737,1,8,0:0:0:0:
201,221,232834,1,0,0:0:0:0:
201,221,232931,1,0,0:0:0:0:
201,221,233125,1,8,0:0:0:0:
216,225,233318,1,0,0:0:0:0:
209,222,233415,1,0,0:0:0:0:
216,225,233512,1,8,0:0:0:0:
281,273,233705,1,0,0:0:0:0:
226,175,233899,1,0,0:0:0:0:
254,251,233996,1,8,0:0:0:0:
254,251,234092,1,0,0:0:0:0:
254,251,234286,1,0,0:0:0:0:
227,239,234479,1,8,0:0:0:0:
231,199,234576,1,8,0:0:0:0:
231,199,234673,1,0,0:0:0:0:
213,200,234866,1,0,0:0:0:0:
196,202,234963,1,0,0:0:0:0:
198,205,235060,1,8,0:0:0:0:
201,206,235157,1,0,0:0:0:0:
201,206,235254,1,8,0:0:0:0:
201,206,235447,1,8,0:0:0:0:
213,218,235544,1,0,0:0:0:0:
206,210,235641,1,0,0:0:0:0:
212,205,235737,1,8,0:0:0:0:
212,205,235834,1,0,0:0:0:0:
201,208,236028,1,8,0:0:0:0:
201,206,236125,1,8,0:0:0:0:
201,206,236221,1,0,0:0:0:0:
198,229,236415,1,0,0:0:0:0:
186,217,236512,1,0,0:0:0:0:
196,215,236608,1,8,0:0:0:0:
206,231,236705,1,0,0:0:0:0:
184,215,236802,1,8,0:0:0:0:
184,214,236866,1,8,0:0:0:0:
182,214,236931,1,8,0:0:0:0:
184,216,236996,1,0,0:0:0:0:
206,224,237189,1,8,0:0:0:0:
178,226,237286,1,8,0:0:0:0:
202,225,237383,1,0,0:0:0:0:
187,249,237576,1,8,0:0:0:0:
199,226,237673,1,0,0:0:0:0:
201,226,237770,1,8,0:0:0:0:
216,227,237963,1,0,0:0:0:0:
216,227,238060,1,0,0:0:0:0:
216,227,238157,1,8,0:0:0:0:
219,227,238254,1,0,0:0:0:0:
219,227,238350,1,8,0:0:0:0:
163,239,238544,1,8,0:0:0:0:
246,216,238641,1,8,0:0:0:0:
237,215,238737,1,0,0:0:0:0:
246,216,238931,1,0,0:0:0:0:
232,202,239125,1,8,0:0:0:0:
232,202,239221,1,0,0:0:0:0:
232,202,239318,1,8,0:0:0:0:
211,258,239512,1,0,0:0:0:0:
220,213,239608,1,0,0:0:0:0:
220,213,239705,1,8,0:0:0:0:
205,194,239802,1,0,0:0:0:0:
205,194,239899,1,8,0:0:0:0:
217,190,240092,1,8,0:0:0:0:
200,181,240286,1,0,0:0:0:0:
203,181,240383,1,8,0:0:0:0:
203,181,240479,1,0,0:0:0:0:
175,189,240673,1,8,0:0:0:0:
220,238,240770,1,0,0:0:0:0:
181,190,240866,1,0,0:0:0:0:
209,233,240963,1,0,0:0:0:0:
211,233,241060,1,8,0:0:0:0:
198,186,241254,1,8,0:0:0:0:
237,206,241350,1,0,0:0:0:0:
338,114,241447,1,8,0:0:0:0:
221,213,241512,1,0,0:0:0:0:
221,213,241576,1,0,0:0:0:0:
221,213,241641,1,8,0:0:0:0:
228,250,241834,1,0,0:0:0:0:
259,231,241931,1,8,0:0:0:0:
259,231,242028,1,0,0:0:0:0:
259,231,242221,1,8,0:0:0:0:
215,187,242318,1,0,0:0:0:0:
228,182,242415,1,0,0:0:0:0:
228,182,242608,1,0,0:0:0:0:
229,185,242802,1,8,0:0:0:0:
230,185,242899,1,0,0:0:0:0:
230,185,242996,1,8,0:0:0:0:
211,202,243189,1,0,0:0:0:0:
208,201,243286,1,8,0:0:0:0:
216,162,243383,1,0,0:0:0:0:
220,165,243576,1,0,0:0:0:0:
208,189,243770,1,8,0:0:0:0:
208,189,243866,1,8,0:0:0:0:
208,189,243963,1,0,0:0:0:0:
204,165,244157,1,0,0:0:0:0:
208,178,244254,1,0,0:0:0:0:
208,178,244350,1,8,0:0:0:0:
208,178,244447,1,8,0:0:0:0:
208,178,244544,1,0,0:0:0:0:
208,178,244737,1,8,0:0:0:0:
216,165,244931,1,0,0:0:0:0:
204,165,245028,1,8,0:0:0:0:
197,153,245125,1,0,0:0:0:0:
204,165,245221,1,0,0:0:0:0:
205,161,245318,1,8,0:0:0:0:
205,161,245415,1,0,0:0:0:0:
205,161,245512,1,8,0:0:0:0:
202,182,245705,1,8,0:0:0:0:
227,167,245802,1,0,0:0:0:0:
207,162,245899,1,8,0:0:0:0:
227,167,245996,1,8,0:0:0:0:
227,167,246092,1,0,0:0:0:0:
210,166,246157,1,8,0:0:0:0:
210,166,246221,1,8,0:0:0:0:
210,166,246286,1,0,0:0:0:0:
212,202,246479,1,8,0:0:0:0:
212,202,246576,1,8,0:0:0:0:
212,202,246673,1,0,0:0:0:0:
214,184,246866,1,0,0:0:0:0:
216,212,247060,1,8,0:0:0:0:
214,175,247157,1,0,0:0:0:0:
214,175,247254,1,0,0:0:0:0:
216,175,247350,1,8,0:0:0:0:
217,177,247447,1,8,0:0:0:0:
207,186,247544,1,0,0:0:0:0:
207,186,247641,1,8,0:0:0:0:
207,186,247834,1,8,0:0:0:0:
209,155,247931,1,8,0:0:0:0:
209,155,248028,1,0,0:0:0:0:
206,185,248221,1,0,0:0:0:0:
239,209,248608,1,8,0:0:0:0:
239,209,248996,1,0,0:0:0:0:
239,209,249092,1,0,0:0:0:0:
239,209,249383,1,8,0:0:0:0:
239,209,249770,1,0,0:0:0:0:
239,209,249963,1,8,0:0:0:0:
239,209,250157,1,0,0:0:0:0:
239,209,250350,1,8,0:0:0:0:
239,209,250544,1,0,0:0:0:0:
239,209,250737,1,0,0:0:0:0:
239,209,251318,1,8,0:0:0:0:
239,209,251415,1,0,0:0:0:0:
216,189,251705,1,8,0:0:0:0:
239,209,252092,1,0,0:0:0:0:
239,209,252189,1,0,0:0:0:0:
216,189,252479,1,8,0:0:0:0:
244,206,252866,1,8,0:0:0:0:
239,209,253060,1,8,0:0:0:0:
239,209,253254,1,0,0:0:0:0:
244,206,253447,1,8,0:0:0:0:
244,206,253641,1,0,0:0:0:0:
238,193,253834,1,0,0:0:0:0:
197,173,254415,1,0,0:0:0:0:
228,215,254512,1,0,0:0:0:0:
223,209,254802,1,8,0:0:0:0:
197,173,255189,1,8,0:0:0:0:
197,173,255286,1,0,0:0:0:0:
199,183,255576,1,8,0:0:0:0:
195,190,255963,1,0,0:0:0:0:
195,190,256157,1,8,0:0:0:0:
195,190,256350,1,0,0:0:0:0:
196,139,256544,1,8,0:0:0:0:
196,139,256737,1,0,0:0:0:0:
196,139,256931,1,0,0:0:0:0:
239,209,257512,1,8,0:0:0:0:
239,209,257608,1,0,0:0:0:0:
216,189,257899,1,8,0:0:0:0:
239,209,258286,1,0,0:0:0:0:
239,209,258383,1,0,0:0:0:0:
205,221,258673,1,8,0:0:0:0:
244,206,259060,1,8,0:0:0:0:
239,209,259254,1,8,0:0:0:0:
239,209,259447,1,0,0:0:0:0:
244,206,259641,1,8,0:0:0:0:
244,206,259834,1,0,0:0:0:0:
238,193,260028,1,0,0:0:0:0:
197,173,260608,1,0,0:0:0:0:
228,215,260705,1,0,0:0:0:0:
223,209,260996,1,8,0:0:0:0:
197,173,261383,1,8,0:0:0:0:
197,173,261479,1,0,0:0:0:0:
199,183,261770,1,8,0:0:0:0:
195,190,262157,1,0,0:0:0:0:
195,190,262350,1,8,0:0:0:0:
195,190,262544,1,0,0:0:0:0:
196,139,262737,1,8,0:0:0:0:
196,139,262931,1,0,0:0:0:0:
196,139,263125,1,0,0:0:0:0:
234,200,263705,1,8,0:0:0:0:
234,200,263802,1,0,0:0:0:0:
234,200,263996,1,0,0:0:0:0:
234,200,264092,1,8,0:0:0:0:
216,194,264286,1,0,0:0:0:0:
195,128,264479,1,0,0:0:0:0:
194,177,264576,1,0,0:0:0:0:
227,204,264866,1,8,0:0:0:0:
205,175,265254,1,0,0:0:0:0:
205,175,265447,1,8,0:0:0:0:
205,175,265641,1,0,0:0:0:0:
205,175,265834,1,8,0:0:0:0:
205,175,266028,1,0,0:0:0:0:
205,175,266221,1,0,0:0:0:0:
195,190,266802,1,0,0:0:0:0:
210,180,266899,1,0,0:0:0:0:
198,182,267092,1,8,0:0:0:0:
198,182,267189,1,0,0:0:0:0:
176,173,267383,1,8,0:0:0:0:
196,176,267576,1,0,0:0:0:0:
198,182,267673,1,8,0:0:0:0:
195,159,267963,1,8,0:0:0:0:
211,176,268350,1,8,0:0:0:0:
210,176,268544,1,8,0:0:0:0:
210,176,268737,1,0,0:0:0:0:
210,176,268931,1,8,0:0:0:0:
211,176,269125,1,0,0:0:0:0:
211,176,269318,1,0,0:0:0:0:
234,200,269899,1,8,0:0:0:0:
234,200,269996,1,0,0:0:0:0:
234,200,270189,1,0,0:0:0:0:
234,200,270286,1,8,0:0:0:0:
216,194,270479,1,0,0:0:0:0:
195,128,270673,1,0,0:0:0:0:
194,177,270770,1,0,0:0:0:0:
227,204,271060,1,8,0:0:0:0:
205,175,271447,1,0,0:0:0:0:
205,175,271641,1,8,0:0:0:0:
205,175,271834,1,0,0:0:0:0:
205,175,272028,1,8,0:0:0:0:
205,175,272221,1,0,0:0:0:0:
205,175,272415,1,0,0:0:0:0:
195,190,272996,1,0,0:0:0:0:
210,180,273092,1,0,0:0:0:0:
198,182,273189,1,8,0:0:0:0:
198,182,273383,1,0,0:0:0:0:
176,173,273576,1,8,0:0:0:0:
196,176,273770,1,0,0:0:0:0:
198,182,273866,1,8,0:0:0:0:
195,159,274157,1,8,0:0:0:0:
211,176,274544,1,8,0:0:0:0:
210,176,274737,1,8,0:0:0:0:
210,176,274931,1,0,0:0:0:0:
210,176,275125,1,8,0:0:0:0:
211,176,275318,1,0,0:0:0:0:
211,176,275512,1,0,0:0:0:0:
234,200,276092,1,8,0:0:0:0:
234,200,276189,1,0,0:0:0:0:
234,200,276383,1,0,0:0:0:0:
234,200,276479,1,8,0:0:0:0:
216,194,276673,1,0,0:0:0:0:
195,128,276866,1,0,0:0:0:0:
194,177,276963,1,0,0:0:0:0:
227,204,277254,1,8,0:0:0:0:
205,175,277641,1,0,0:0:0:0:
205,175,277834,1,8,0:0:0:0:
205,175,278028,1,0,0:0:0:0:
205,175,278221,1,8,0:0:0:0:
205,175,278415,1,0,0:0:0:0:
205,175,278608,1,0,0:0:0:0:
195,190,279189,1,0,0:0:0:0:
210,180,279286,1,0,0:0:0:0:
198,182,279479,1,8,0:0:0:0:
198,182,279576,1,0,0:0:0:0:
176,173,279770,1,8,0:0:0:0:
196,176,279963,1,0,0:0:0:0:
198,182,280060,1,8,0:0:0:0:
195,159,280350,1,8,0:0:0:0:
211,176,280737,1,8,0:0:0:0:
210,176,280931,1,8,0:0:0:0:
210,176,281125,1,0,0:0:0:0:
210,176,281318,1,8,0:0:0:0:
211,176,281512,1,0,0:0:0:0:
211,176,281705,1,0,0:0:0:0:
234,200,282286,1,8,0:0:0:0:
234,200,282383,1,0,0:0:0:0:
234,200,282479,1,0,0:0:0:0:
234,200,282673,1,8,0:0:0:0:
216,194,282866,1,0,0:0:0:0:
195,128,283060,1,0,0:0:0:0:
194,177,283157,1,0,0:0:0:0:
227,204,283447,1,8,0:0:0:0:
205,175,283834,1,0,0:0:0:0:
205,175,284028,1,8,0:0:0:0:
205,175,284221,1,0,0:0:0:0:
205,175,284415,1,8,0:0:0:0:
205,175,284608,1,0,0:0:0:0:
205,175,284802,1,0,0:0:0:0:
256,192,285383,12,8,291576,0:0:0:0:
