osu file format v14

[General]
AudioFilename: American Authors - Best Day Of My Life (Audio).mp3
AudioLeadIn: 0
PreviewTime: 38693
Countdown: 0
SampleSet: Soft
StackLeniency: 0.3
Mode: 0
LetterboxInBreaks: 1
WidescreenStoryboard: 1

[Editor]
DistanceSpacing: 1.2
BeatDivisor: 4
GridSize: 8
TimelineZoom: 1

[Metadata]
Title:Best Day Of My Life
TitleUnicode:Best Day Of My Life
Artist:American Authors
ArtistUnicode:American Authors
Creator:ffstar
Version:worst
Source:
Tags:
BeatmapID:1522110
BeatmapSetID:720775

[Difficulty]
HPDrainRate:6.7
CircleSize:4.7
OverallDifficulty:8.7
ApproachRate:8.7
SliderMultiplier:2.5
SliderTickRate:2

[Events]
//Background and Video events
0,0,"BG.png",0,0
//Break Periods
2,114493,122948
//Storyboard Layer 0 (Background)
//Storyboard Layer 1 (Fail)
//Storyboard Layer 2 (Pass)
//Storyboard Layer 3 (Foreground)
//Storyboard Sound Samples

[TimingPoints]
293,600,4,2,0,60,1,0
67147,600,4,2,0,60,1,0
67493,600,4,2,0,60,1,0
95093,600,4,2,0,60,1,0
123593,-166.666666666667,4,2,0,60,0,0
133493,-125,4,2,0,60,0,0
152693,-100,4,2,0,60,0,0

[HitObjects]
55,355,293,6,0,L|101:298,2,62.5
141,250,743,1,0,0:0:0:0:
67,236,893,2,0,L|21:179,1,62.5
158,133,1193,2,0,L|118:181,1,62.5
196,198,1493,6,0,L|318:172,1,125
367,229,1943,1,0,0:0:0:0:
390,157,2093,2,0,L|394:82,1,62.5
296,255,2393,2,0,L|292:317,1,62.5
440,212,2693,6,0,L|506:194,2,62.5
272,183,3143,1,0,0:0:0:0:
390,157,3293,2,0,L|324:139,1,62.5
383,20,3593,2,0,L|398:80,1,62.5
212,131,3893,6,0,L|321:63,1,125
272,183,4343,1,0,0:0:0:0:
190,55,4493,2,0,L|129:44,1,62.5
41,133,4793,2,0,L|102:121,1,62.5
334,151,5093,6,0,P|273:134|199:131,1,125
153,178,5543,1,0,0:0:0:0:
373,247,5693,1,0,0:0:0:0:
373,247,5993,6,0,P|430:176|416:86,1,187.5
318,16,6593,2,0,P|325:51|363:67,1,62.5
333,186,6893,2,0,P|360:162|355:121,1,62.5
473,87,7193,2,0,P|438:75|405:100,1,62.5
296,253,7493,6,0,L|304:322,2,62.5
378,314,7943,1,0,0:0:0:0:
240,355,8093,2,0,L|169:344,1,62.5
61,300,8393,2,0,L|122:290,1,62.5
218,254,8693,6,0,L|106:196,1,125
37,225,9143,1,0,0:0:0:0:
30,150,9293,5,0,0:0:0:0:
46,123,9443,1,0,0:0:0:0:
156,101,9593,5,0,0:0:0:0:
129,117,9743,1,0,0:0:0:0:
250,145,9893,6,0,P|327:129|349:92,1,125
356,18,10343,1,0,0:0:0:0:
399,156,10493,2,0,P|433:167|459:162,1,62.5
277,76,10793,2,0,P|243:65|217:70,1,62.5
269,289,11093,6,0,P|334:252|334:197,1,125
290,149,11543,1,0,0:0:0:0:
409,278,11693,2,0,P|452:249|456:216,1,62.5
269,220,11993,2,0,P|217:223|197:250,1,62.5
96,337,12293,6,0,P|42:287|44:229,1,125
70,170,12743,1,0,0:0:0:0:
173,312,12893,2,0,P|180:346|169:377,1,62.5
122,114,13193,2,0,P|147:90|180:84,1,62.5
420,145,13493,6,0,P|367:173|310:148,1,125
260,92,13943,1,0,0:0:0:0:
299,301,14093,2,0,P|316:263|309:231,1,62.5
380,43,14393,2,0,P|363:81|370:113,1,62.5
299,301,14693,6,0,P|264:306|236:298,1,62.5
299,301,14993,2,0,P|334:306|362:298,1,62.5
238,298,15293,6,0,P|203:303|175:295,1,62.5
359,298,15593,2,0,P|394:303|422:295,1,62.5
177,295,15893,6,0,P|142:300|114:292,1,62.5
419,295,16193,1,0,0:0:0:0:
116,292,16343,6,0,P|45:280|112:250,1,187.5
237,303,17093,6,0,P|272:308|300:300,1,62.5
237,303,17393,2,0,P|202:308|174:300,1,62.5
298,300,17693,6,0,P|333:305|361:297,1,62.5
177,300,17993,2,0,P|142:305|114:297,1,62.5
359,297,18293,6,0,P|394:302|422:294,1,62.5
117,297,18593,1,0,0:0:0:0:
420,294,18743,6,0,P|491:282|424:252,1,187.5
291,184,19493,6,0,P|265:129|291:75,1,125
352,30,19943,1,0,0:0:0:0:
188,122,20093,2,0,P|150:122|128:108,1,62.5
349,129,20393,2,0,P|387:129|409:115,1,62.5
203,196,20693,6,0,P|176:250|202:304,1,125
259,353,21143,1,0,0:0:0:0:
60,329,21293,2,0,P|96:319|127:334,1,62.5
53,152,21593,2,0,P|79:178|82:212,1,62.5
312,197,21893,6,0,P|257:222|203:196,1,125
153,141,22343,1,0,0:0:0:0:
367,305,22493,2,0,P|379:274|363:238,1,62.5
263,84,22793,2,0,P|251:115|267:151,1,62.5
87,312,23093,6,0,P|141:286|195:312,1,125
247,368,23543,1,0,0:0:0:0:
17,272,23693,2,0,P|14:236|25:207,1,62.5
66,79,23993,2,0,P|89:51|117:38,1,62.5
252,167,24293,6,0,P|286:172|317:164,1,62.5
252,167,24593,2,0,P|221:173|190:168,1,62.5
313,165,24893,6,0,P|347:160|378:168,1,62.5
190,168,25193,2,0,P|156:163|125:171,1,62.5
374,166,25493,6,0,P|408:171|439:163,1,62.5
128,169,25793,1,0,0:0:0:0:
435,164,25943,6,0,B|460:211|452:261|428:280|428:280|417:249|438:218,1,187.5
252,167,26693,6,0,P|218:172|187:164,1,62.5
252,167,26993,2,0,P|282:173|313:168,1,62.5
191,165,27293,6,0,P|157:160|126:168,1,62.5
314,168,27593,2,0,P|348:163|379:171,1,62.5
130,166,27893,6,0,P|96:171|65:163,1,62.5
375,169,28193,1,0,0:0:0:0:
68,164,28343,6,0,B|43:210|51:260|75:279|75:279|86:248|65:217,1,187.5
224,115,29093,6,0,P|212:147|189:166,2,62.5
213,40,29543,1,0,0:0:0:0:
259,204,29693,2,0,P|271:236|294:255,1,62.5
194,351,29993,2,0,P|204:321|227:300,1,62.5
78,186,30293,6,0,P|130:228|191:226,1,125
259,204,30743,1,0,0:0:0:0:
194,351,30893,2,0,P|204:321|227:300,1,62.5
353,244,31193,2,0,P|383:238|412:247,1,62.5
259,204,31493,6,0,P|235:184|225:154,2,62.5
222,79,31943,1,0,0:0:0:0:
78,186,32093,2,0,P|113:195|144:184,1,62.5
415,91,32393,1,0,0:0:0:0:
415,91,32693,6,0,P|440:154|406:202,1,125
353,244,33143,1,0,0:0:0:0:
78,186,33293,2,0,P|113:195|144:184,1,62.5
188,336,33593,2,0,P|213:310|219:277,1,62.5
353,244,33893,6,0,P|328:181|362:133,1,125
415,91,34343,1,0,0:0:0:0:
250,180,34493,2,0,P|187:205|139:171,1,125
142,176,34943,1,0,0:0:0:0:
227,377,35093,6,0,L|270:253,1,125
322,310,35543,1,0,0:0:0:0:
202,210,35693,2,0,L|179:140,1,62.5
103,320,35993,2,0,L|126:250,1,62.5
322,310,36293,1,0,0:0:0:0:
322,310,38693,6,0,L|319:247,1,62.5
229,323,38993,2,0,L|151:340,1,62.5
415,297,39293,1,0,0:0:0:0:
64,332,39593,6,0,P|75:247|159:256,1,187.5
288,118,40193,2,0,P|249:143|222:133,1,62.5
159,256,40493,2,0,P|156:209|179:191,1,62.5
103,75,40793,2,0,P|144:96|148:124,1,62.5
64,332,41093,1,0,0:0:0:0:
298,297,41393,5,0,0:0:0:0:
345,238,41543,1,0,0:0:0:0:
327,164,41693,1,0,0:0:0:0:
257,135,41843,1,0,0:0:0:0:
332,135,41993,5,0,0:0:0:0:
262,106,42143,1,0,0:0:0:0:
319,57,42293,6,0,P|353:52|382:65,1,62.5
175,105,42593,2,0,P|144:109|115:99,1,62.5
437,107,42893,6,0,P|466:117|496:112,1,62.5
62,55,43193,2,0,P|32:44|2:49,1,62.5
111,261,43493,6,0,P|163:292|224:262,1,125
271,214,43943,1,0,0:0:0:0:
235,355,44093,1,0,0:0:0:0:
28,277,44393,6,0,P|52:191|140:181,1,187.5
335,83,44993,2,0,P|311:111|282:119,1,62.5
138,180,45293,2,0,P|125:145|133:116,1,62.5
249,266,45593,2,0,P|261:300|253:329,1,62.5
235,154,45893,6,0,L|293:114,1,62.5
337,154,46193,2,0,L|279:114,1,62.5
176,174,46493,6,0,L|242:150,1,62.5
395,174,46793,2,0,L|328:150,1,62.5
113,179,47093,6,0,L|183:173,1,62.5
395,174,47393,1,0,0:0:0:0:
74,234,47543,6,0,B|182:189|182:189|109:178,1,187.5
417,306,48293,5,0,0:0:0:0:
357,352,48443,2,0,L|288:338,2,62.5
173,310,48893,1,0,0:0:0:0:
417,306,49193,6,0,L|233:356,1,187.5
53,318,49793,2,0,L|70:257,1,62.5
235,355,50093,2,0,L|235:291,1,62.5
420,343,50393,2,0,L|404:281,1,62.5
133,367,50693,1,0,0:0:0:0:
326,206,50993,5,0,0:0:0:0:
290,140,51143,1,0,0:0:0:0:
217,119,51293,1,0,0:0:0:0:
148,149,51443,1,0,0:0:0:0:
204,99,51593,5,0,0:0:0:0:
135,129,51743,1,0,0:0:0:0:
189,77,51893,6,0,L|257:68,1,62.5
323,307,52193,2,0,L|255:316,1,62.5
337,93,52493,6,0,L|328:25,1,62.5
175,291,52793,2,0,L|184:359,1,62.5
474,235,53093,6,0,L|342:201,1,125
336,130,53543,1,0,0:0:0:0:
323,307,53693,1,0,0:0:0:0:
35,188,53993,6,0,L|216:141,1,187.5
13,59,54593,2,0,L|76:58,1,62.5,0|0,0:0|0:3,0:3:0:0:
155,157,54893,2,0,L|216:140,1,62.5
317,214,55193,2,0,L|371:181,1,62.5
255,327,55493,6,0,P|224:321|202:300,1,62.5
255,327,55793,2,0,P|285:321|307:300,1,62.5
202,299,56093,6,0,P|174:312|145:304,1,62.5
307,299,56393,2,0,P|334:311|364:303,1,62.5
144,303,56693,6,0,P|116:324|89:323,1,62.5
364,303,56993,1,0,0:0:0:0:
89,323,57143,6,0,P|28:332|89:286,1,187.5
77,272,57743,1,0,0:0:0:0:
255,327,57893,5,0,0:0:0:0:
301,268,58043,2,0,L|306:198,2,62.5
351,146,58493,1,0,0:0:0:0:
161,146,58793,6,0,L|173:334,1,187.5
75,175,59393,2,0,L|70:97,1,62.5
169,270,59693,2,0,L|173:333,1,62.5
250,164,59993,2,0,L|245:86,1,62.5
169,270,60293,5,0,0:0:0:0:
237,240,60443,2,0,L|306:250,2,62.5
335,318,60893,2,0,L|399:292,1,62.5
458,336,61193,2,0,L|501:281,1,62.5
397,197,61493,6,0,L|338:173,1,62.5
463,224,61793,1,0,0:0:0:0:
338,173,61943,2,0,B|221:126|221:126|270:191,1,187.5
257,175,62543,1,0,0:0:0:0:
163,68,62693,5,0,0:0:0:0:
106,117,62843,2,0,L|56:161,2,62.5
41,231,63293,1,0,0:0:0:0:
287,317,63593,6,0,L|100:257,1,187.5
58,376,64193,2,0,L|117:356,1,62.5
227,297,64493,2,0,L|287:317,1,62.5
396,375,64793,2,0,L|455:355,1,62.5
227,297,65093,5,0,0:0:0:0:
46,163,67147,5,0,0:0:0:0:
46,163,67493,6,0,P|92:200|157:183,1,125
202,131,67943,1,0,0:0:0:0:
132,281,68093,2,0,L|141:351,1,62.5
108,128,68393,2,0,L|101:67,1,62.5
317,196,68693,6,0,P|269:240|207:227,1,125
152,186,69143,1,0,0:0:0:0:
251,170,69293,2,0,L|266:109,1,62.5
131,280,69592,2,0,L|139:342,1,62.5
354,134,69893,6,0,P|293:127|250:169,1,125
222,239,70343,1,0,0:0:0:0:
143,91,70493,2,0,L|208:104,1,62.5
358,242,70793,2,0,L|316:195,1,62.5
318,30,71093,6,0,P|360:73|354:134,1,125
316,195,71543,1,0,0:0:0:0:
441,107,71693,2,0,L|495:75,1,62.5
231,135,71992,2,0,L|286:104,1,62.5
116,229,72293,6,0,P|104:196|117:172,1,62.5
116,229,72593,2,0,P|104:256|116:284,1,62.5
115,173,72893,6,0,L|80:115,1,62.5
116,284,73193,2,0,L|81:342,1,62.5
82,119,73493,6,0,P|100:82|93:56,1,62.5
83,337,73793,1,0,0:0:0:0:
140,25,73943,6,0,B|26:43|26:43|116:68,1,187.5
115,173,74693,6,0,P|103:206|116:230,1,62.5
115,173,74993,2,0,P|103:145|115:117,1,62.5
114,229,75293,6,0,L|79:287,1,62.5
115,118,75593,2,0,L|80:60,1,62.5
81,283,75893,6,0,P|99:319|92:345,1,62.5
82,65,76193,1,0,0:0:0:0:
139,377,76343,6,0,B|25:359|25:359|115:334,1,187.5
281,341,77093,6,0,P|338:352|391:297,1,125
408,239,77543,1,0,0:0:0:0:
208,350,77693,2,0,P|212:315|230:290,1,62.5
426,181,77993,2,0,P|422:216|404:241,1,62.5
226,292,78293,6,0,P|168:272|147:215,1,125
155,140,78743,1,0,0:0:0:0:
54,343,78893,2,0,P|85:339|107:310,1,62.5
205,113,79193,2,0,P|174:117|152:146,1,62.5
104,316,79493,6,0,P|167:326|229:284,1,125
260,234,79943,1,0,0:0:0:0:
437,342,80093,2,0,P|407:333|386:310,1,62.5
209,202,80393,2,0,P|238:210|259:233,1,62.5
386,311,80693,6,0,P|340:351|281:341,1,125
219,296,81143,1,0,0:0:0:0:
54,343,81293,2,0,P|85:336|106:314,1,62.5
271,268,81593,2,0,P|239:274|218:296,1,62.5
412,192,81893,6,0,P|389:170|359:164,1,62.5
412,192,82193,2,0,P|389:213|359:219,1,62.5
359,164,82493,6,0,L|342:97,1,62.5
359,219,82793,2,0,L|341:286,1,62.5
343,104,83093,6,0,P|305:83|298:54,1,62.5
343,279,83393,1,0,0:0:0:0:
383,36,83543,6,0,B|304:11|255:14|237:56|270:88|298:67,1,187.5
412,192,84293,6,0,P|389:213|359:219,1,62.5
412,192,84593,2,0,P|389:170|359:164,1,62.5
359,219,84893,6,0,L|342:287,1,62.5
359,165,85193,2,0,L|341:97,1,62.5
343,279,85493,6,0,P|305:301|298:330,1,62.5
343,104,85793,1,0,0:0:0:0:
383,348,85943,6,0,B|304:373|255:370|237:328|270:296|298:317,1,187.5
473,214,86693,6,0,P|481:176|475:140,1,62.5
368,61,86993,5,0,0:0:0:0:
409,123,87143,1,0,0:0:0:0:
345,214,87293,6,0,P|337:176|343:140,1,62.5
450,61,87593,5,0,0:0:0:0:
409,123,87743,1,0,0:0:0:0:
276,100,87893,6,0,P|220:71|167:103,1,125
123,157,88343,1,0,0:0:0:0:
148,227,88493,2,0,P|154:265|145:302,1,62.5
37,368,88793,2,0,P|31:330|40:293,1,62.5
207,338,89093,6,0,L|273:345,1,62.5
410,297,89393,5,0,0:0:0:0:
340,321,89543,1,0,0:0:0:0:
461,174,89693,6,0,L|421:227,1,62.5
396,370,89993,5,0,0:0:0:0:
410,297,90143,1,0,0:0:0:0:
295,258,90293,6,0,B|232:269|232:269|178:240,1,125
116,197,90743,1,0,0:0:0:0:
82,329,90893,2,0,L|114:275,1,62.5
106,117,91193,2,0,L|52:85,1,62.5
260,186,91493,6,0,L|395:170,1,125
458,163,91943,1,0,0:0:0:0:
260,111,92093,6,0,L|125:95,1,125
62,88,92543,1,0,0:0:0:0:
260,311,92693,6,0,L|260:186,1,125
260,111,93143,1,0,0:0:0:0:
62,88,93293,6,0,L|132:97,1,62.5
458,163,93593,2,0,L|388:172,1,62.5
62,238,93893,1,0,0:0:0:0:
62,238,95093,6,0,L|132:229,1,62.5
165,363,95393,2,0,L|121:307,1,62.5
156,154,95693,1,0,0:0:0:0:
374,279,95993,6,0,P|359:206|316:266,1,187.5
446,178,96593,2,0,P|456:139|444:112,1,62.5
266,234,96893,2,0,P|294:262|324:265,1,62.5
307,50,97193,2,0,P|268:60|250:84,1,62.5
446,178,97493,1,0,0:0:0:0:
183,349,97793,5,0,0:0:0:0:
130,246,97943,1,0,0:0:0:0:
113,319,98093,5,0,0:0:0:0:
60,216,98243,1,0,0:0:0:0:
200,276,98393,5,0,0:0:0:0:
43,289,98543,1,0,0:0:0:0:
147,173,98693,6,0,L|200:120,1,62.5
352,206,98993,2,0,L|279:186,1,62.5
73,65,99293,6,0,L|133:81,1,62.5
456,120,99593,2,0,L|412:165,1,62.5
220,326,99893,6,0,P|164:295|113:318,1,125
53,365,100343,1,0,0:0:0:0:
60,216,100493,1,0,0:0:0:0:
362,367,100793,6,0,P|390:253|350:204,1,187.5
225,81,101393,2,0,P|253:94|270:120,1,62.5
407,184,101693,2,0,P|381:202|350:204,1,62.5
226,291,101994,2,0,P|221:260|235:232,1,62.5
484,376,102293,6,0,L|429:344,1,62.5
368,327,102593,2,0,L|433:344,1,62.5
368,327,102893,6,0,L|367:264,1,62.5
351,204,103193,2,0,L|367:264,1,62.5
351,204,103493,6,0,L|406:173,1,62.5
484,376,103793,1,0,0:0:0:0:
298,139,103943,6,0,B|438:139|438:139|398:180,1,187.5
49,52,104693,5,0,0:0:0:0:
111,93,104843,2,0,L|114:172,2,62.5
298,139,105293,1,0,0:0:0:0:
70,308,105593,6,0,P|130:344|228:287,1,187.5
346,180,106193,2,0,P|329:209|300:220,1,62.5
238,349,106493,2,0,P|221:320|226:289,1,62.5
145,170,106793,2,0,P|178:169|202:189,1,62.5
70,308,107093,1,0,0:0:0:0:
308,116,107393,5,0,0:0:0:0:
419,178,107543,1,0,0:0:0:0:
273,182,107693,5,0,0:0:0:0:
382,114,107843,1,0,0:0:0:0:
346,180,107993,5,0,0:0:0:0:
343,50,108143,1,0,0:0:0:0:
466,218,108293,6,0,L|410:171,1,62.5
46,218,108593,2,0,L|93:177,1,62.5
424,319,108893,6,0,L|399:250,1,62.5
87,319,109193,2,0,L|112:250,1,62.5
312,336,109493,6,0,B|256:363|256:363|200:336,1,125
136,377,109943,1,0,0:0:0:0:
256,257,110093,1,0,0:0:0:0:
76,94,110393,6,0,B|49:150|49:150|116:270,1,187.5
217,155,110993,2,0,L|140:164,1,62.5
254,299,111293,2,0,L|284:227,1,62.5
110,259,111593,2,0,L|156:321,1,62.5
445,137,111893,6,0,P|411:129|386:142,1,62.5
332,159,112193,2,0,P|356:139|386:140,1,62.5
332,159,112493,6,0,P|306:135|278:133,1,62.5
223,121,112793,2,0,P|253:116|279:132,1,62.5
223,121,113093,6,0,P|212:87|189:72,1,62.5
445,137,113393,1,0,0:0:0:0:
133,137,113543,6,0,P|200:158|186:71,1,187.5
190,72,114143,1,0,0:0:0:0:
269,235,114293,5,0,0:0:0:0:
164,316,123593,6,0,L|180:286,3,18.7499994277954
71,269,123893,2,0,L|121:259,1,37.4999988555909
164,316,124343,5,0,0:0:0:0:
71,269,124493,2,0,L|121:259,1,37.4999988555909
263,320,124793,1,0,0:0:0:0:
263,320,125093,2,0,B|247:239|247:239|226:277,1,112.499996566773
232,265,125693,1,0,0:0:0:0:
151,102,125993,6,0,L|142:85,3,18.7499994277954
259,101,126293,2,0,L|236:140,1,37.4999988555909
151,102,126743,5,0,0:0:0:0:
259,101,126893,2,0,L|236:140,1,37.4999988555909
70,155,127193,1,0,0:0:0:0:
70,155,127493,2,0,B|30:78|30:78|76:99,1,112.499996566773
54,89,128093,1,0,0:0:0:0:
291,200,128393,6,0,L|323:197,3,18.7499994277954
388,145,128693,2,0,L|377:188,1,37.4999988555909
291,200,129143,5,0,0:0:0:0:
388,145,129293,2,0,L|377:188,1,37.4999988555909
316,289,129593,1,0,0:0:0:0:
316,289,129893,2,0,L|422:246,1,112.499996566773
420,246,130493,1,0,0:0:0:0:
232,265,130793,6,0,L|200:262,3,18.7499994277954
111,324,131093,2,0,L|166:320,1,37.4999988555909
148,321,131543,6,0,L|111:324,1,37.4999988555909
336,302,131993,6,0,L|368:305,3,18.7499994277954
457,243,132293,2,0,L|402:247,1,37.4999988555909
420,246,132743,6,0,L|457:243,1,37.4999988555909
265,198,133193,6,0,L|246:196,3,18.7499994277954
129,148,133493,6,0,P|161:143|186:120,1,50
297,69,133793,2,0,P|275:56|261:36,1,50
93,115,134093,6,0,P|113:140|145:150,1,50
286,116,134393,2,0,P|285:91|296:68,1,50
93,115,134693,6,0,P|192:137|293:114,1,200
70,237,135593,6,0,L|52:245,3,18.7499994277954
138,311,135893,6,0,P|162:318|190:312,1,50
287,335,136193,2,0,P|307:349|319:371,1,50
96,334,136493,6,0,P|120:328|141:308,1,50
277,287,136793,2,0,P|287:309|286:334,1,50
96,334,137093,6,0,P|198:339|281:284,1,200
457,200,137993,6,0,L|430:195,3,25
397,102,138293,2,0,L|365:147,1,50
457,200,138743,5,0,0:0:0:0:
397,102,138893,2,0,L|365:147,1,50
400,298,139193,1,0,0:0:0:0:
400,298,139493,2,0,B|304:284|304:284|355:269,1,150
354,269,140093,1,0,0:0:0:0:
157,327,140393,6,0,L|136:309,3,25
35,291,140693,2,0,L|80:268,1,50
80,268,141143,6,0,L|35:291,1,50
232,288,141593,6,0,L|255:274,3,25
358,273,141893,2,0,L|317:242,1,50
318,243,142343,6,0,L|358:273,1,50
457,263,142793,1,0,0:0:0:0:
457,263,143093,1,0,0:0:0:0:
256,192,143243,12,0,147893,0:0:0:0:
132,212,148793,6,0,P|194:258|266:240,1,150
260,243,149393,2,0,P|285:252|295:274,1,50
260,242,149693,2,0,P|255:215|269:195,1,50
260,242,149993,2,0,P|239:259|214:257,1,50
76,307,150293,6,0,L|63:355,1,50
63,355,150743,6,0,L|76:307,1,50
71,147,151193,2,0,L|74:176,3,25
57,211,151493,1,0,0:0:0:0:
325,238,152693,6,0,P|356:245|388:234,1,62.5
247,209,152993,2,0,P|225:232|218:265,1,62.5
459,199,153293,1,0,0:0:0:0:
221,320,153593,6,0,B|215:176|215:176|259:221,1,187.5
372,332,154193,2,0,L|324:284,1,62.5
200,163,154493,2,0,L|244:206,1,62.5
372,332,154793,2,0,L|307:315,1,62.5
67,256,155093,1,0,0:0:0:0:
373,239,155393,5,0,0:0:0:0:
370,164,155543,1,0,0:0:0:0:
296,77,155693,5,0,0:0:0:0:
299,152,155843,1,0,0:0:0:0:
441,152,155993,5,0,0:0:0:0:
444,77,156143,1,0,0:0:0:0:
229,37,156293,6,0,L|160:34,1,62.5
22,216,156593,2,0,L|84:218,1,62.5
374,269,156893,6,0,L|372:331,1,62.5
191,186,157193,2,0,L|194:123,1,62.5
485,181,157493,6,0,P|419:190|369:163,1,125
322,105,157943,1,0,0:0:0:0:
374,269,158093,1,0,0:0:0:0:
42,238,158393,6,0,P|109:169|201:194,1,187.5
152,381,158993,2,0,P|127:358|116:328,1,62.5
155,136,159293,2,0,P|179:158|190:188,1,62.5
152,381,159593,2,0,P|142:348|147:317,1,62.5
379,225,159893,6,0,L|317:234,1,62.5
402,166,160193,2,0,L|378:224,1,62.5
378,224,160493,6,0,L|416:273,1,62.5
402,166,160793,2,0,L|378:224,1,62.5
378,224,161093,6,0,L|316:233,1,62.5
402,166,161393,1,0,0:0:0:0:
332,340,161543,6,0,L|401:166,1,187.5
42,238,162293,5,0,0:0:0:0:
187,200,162443,2,0,L|119:190,2,62.5
34,326,162893,1,0,0:0:0:0:
185,99,163193,6,0,L|188:298,1,187.5
188,348,163793,2,0,L|187:280,1,62.5
184,36,164093,2,0,L|184:98,1,62.5
188,348,164393,2,0,L|187:280,1,62.5
425,365,164693,1,0,0:0:0:0:
94,188,164993,5,0,0:0:0:0:
166,207,165143,1,0,0:0:0:0:
256,67,165293,5,0,0:0:0:0:
256,141,165443,1,0,0:0:0:0:
418,188,165593,5,0,0:0:0:0:
346,207,165743,1,0,0:0:0:0:
145,97,165893,6,0,L|102:50,1,62.5
409,50,166193,2,0,L|367:97,1,62.5
94,188,166493,6,0,L|156:190,1,62.5
418,188,166793,2,0,L|355:190,1,62.5
208,366,167093,6,0,L|242:238,1,125
256,171,167543,1,0,0:0:0:0:
117,296,167693,1,0,0:0:0:0:
421,292,167993,6,0,L|237:244,1,187.5
179,227,168593,2,0,L|247:246,1,62.5
481,308,168893,2,0,L|420:291,1,62.5
179,227,169193,2,0,L|247:246,1,62.5
367,126,169493,6,0,P|375:96|365:64,1,62.5
418,155,169793,2,0,P|388:147|367:126,1,62.5
367,126,170093,6,0,P|337:134|314:158,1,62.5
418,155,170393,2,0,P|388:147|367:126,1,62.5
367,126,170693,6,0,P|375:96|365:64,1,62.5
418,155,170993,1,0,0:0:0:0:
245,147,171143,6,0,P|364:124|418:155,1,187.5
468,209,171743,1,0,0:0:0:0:
274,51,171893,5,0,0:0:0:0:
112,352,172193,5,0,0:0:0:0:
161,295,172343,1,0,0:0:0:0:
168,220,172493,1,0,0:0:0:0:
141,149,172643,1,0,0:0:0:0:
82,102,172793,1,0,0:0:0:0:
330,347,173093,5,0,0:0:0:0:
305,276,173243,1,0,0:0:0:0:
243,232,173393,1,0,0:0:0:0:
168,220,173543,1,0,0:0:0:0:
98,247,173693,1,0,0:0:0:0:
434,156,173993,5,0,0:0:0:0:
360,142,174143,1,0,0:0:0:0:
290,173,174293,1,0,0:0:0:0:
243,232,174443,1,0,0:0:0:0:
231,306,174593,1,0,0:0:0:0:
47,209,174893,6,0,L|97:246,1,62.5
43,52,175193,2,0,L|81:101,1,62.5
298,63,175493,6,0,P|267:74|238:68,1,62.5
428,215,175793,2,0,P|439:184|433:155,1,62.5
179,73,176093,6,0,P|209:78|238:67,1,62.5
438,96,176393,2,0,P|443:126|432:155,1,62.5
231,306,176693,6,0,P|218:240|246:186,1,125
295,137,177143,1,0,0:0:0:0:
98,247,177293,1,0,0:0:0:0:
389,181,177593,6,0,P|391:97|315:34,1,187.5
346,223,178193,2,0,P|373:207|389:181,1,62.5
316,34,178493,2,0,P|285:29|256:39,1,62.5
289,240,178793,2,0,P|319:239|346:223,1,62.5
78,114,179093,5,0,0:0:0:0:
108,182,179243,1,0,0:0:0:0:
146,295,179393,5,0,0:0:0:0:
176,227,179543,1,0,0:0:0:0:
38,230,179693,5,0,0:0:0:0:
68,298,179843,1,0,0:0:0:0:
98,366,179993,1,0,0:0:0:0:
108,182,180293,5,0,0:0:0:0:
78,114,180443,1,0,0:0:0:0:
176,227,180593,5,0,0:0:0:0:
146,295,180743,1,0,0:0:0:0:
244,182,180893,6,0,L|216:114,1,62.5
196,66,181193,2,0,L|219:123,1,62.5
243,335,181493,5,0,0:0:0:0:
376,321,181643,2,0,L|312:294,2,62.5
178,278,182093,1,0,0:0:0:0:
453,359,182393,6,0,P|378:323|384:220,1,187.5
422,74,182993,2,0,P|442:97|451:127,1,62.5
376,228,183293,2,0,P|345:233|315:226,1,62.5
265,111,183593,2,0,P|275:81|296:58,1,62.5
376,321,183893,1,0,0:0:0:0:
50,277,184193,5,0,0:0:0:0:
86,211,184343,1,0,0:0:0:0:
152,176,184493,1,0,0:0:0:0:
225,190,184643,1,0,0:0:0:0:
160,151,184793,5,0,0:0:0:0:
233,165,184943,1,0,0:0:0:0:
106,98,185093,6,0,L|92:35,1,62.5
106,286,185393,2,0,L|92:349,1,62.5
242,192,185693,6,0,L|180:192,1,62.5
405,192,185993,2,0,L|342:192,1,62.5
106,286,186293,6,0,L|234:286,1,125
306,286,186743,1,0,0:0:0:0:
106,286,186893,1,0,0:0:0:0:
472,286,187193,6,0,P|389:322|305:286,1,187.5
128,360,187793,2,0,P|156:329|151:286,1,62.5
304,285,188093,2,0,P|263:276|228:302,1,62.5
151,170,188393,2,0,P|163:209|203:226,1,62.5
256,84,188693,6,0,L|313:58,1,62.5
256,84,188993,2,0,L|198:58,1,62.5
313,58,189293,6,0,P|338:76|369:75,1,62.5
198,58,189593,2,0,P|172:75|141:75,1,62.5
369,75,189893,6,0,L|411:137,1,62.5
141,75,190193,1,0,0:0:0:0:
428,195,190343,6,0,B|479:136|442:81|442:81|407:97|403:135,1,187.5
404,127,190943,1,0,0:0:0:0:
447,345,191093,5,0,0:0:0:0:
