osu file format v14

[General]
AudioFilename: audio.mp3
AudioLeadIn: 0
PreviewTime: 61316
Countdown: 0
SampleSet: Soft
StackLeniency: 0.4
Mode: 0
LetterboxInBreaks: 0
EpilepsyWarning: 1
WidescreenStoryboard: 1

[Editor]
Bookmarks: 62199,72081,79140,91846,100316,122199,132081,146199,151846,157493,163140,181493,192787,204081
DistanceSpacing: 4.5
BeatDivisor: 4
GridSize: 32
TimelineZoom: 2.899999

[Metadata]
Title:White Lily
TitleUnicode:ホワイトリリー
Artist:Amemori Sayo x Kudou Chitose
ArtistUnicode:雨森小夜 × 久遠千歳
Creator:Yugu
Version:Tt's Insane
Source:
Tags:lu^3 TtmnZk TT Mouse Koiyuki mtbbsben Minakami Yuki Hey lululu vtuber virtual youtuber バーチャルyoutuber 2434 nijisanji にじさんじ japanese pop ケイエヌ keienu
BeatmapID:2192460
BeatmapSetID:1034381

[Difficulty]
HPDrainRate:6
CircleSize:4.2
OverallDifficulty:8
ApproachRate:9.1
SliderMultiplier:1.7
SliderTickRate:1

[Events]
//Background and Video events
0,0,"white lily.jpg",0,0
Video,0,"White Lily.mp4"
//Break Periods
//Storyboard Layer 0 (Background)
//Storyboard Layer 1 (Fail)
//Storyboard Layer 2 (Pass)
//Storyboard Layer 3 (Foreground)
//Storyboard Layer 4 (Overlay)
//Storyboard Sound Samples

[TimingPoints]
4317,352.941176470588,4,2,1,65,1,0
4317,-500,4,2,1,40,0,0
9787,-100,4,2,1,40,0,0
9964,-200,4,2,1,40,0,0
13493,-125,4,2,1,40,0,0
14199,-111.111111111111,4,2,1,40,0,0
14552,-100,4,2,1,40,0,0
15434,-100,4,2,1,40,0,0
17022,-100,4,2,2,70,0,0
18434,-100,4,2,2,70,0,0
18611,-100,4,2,2,70,0,0
21258,-100,4,2,2,70,0,0
21434,-100,4,2,2,70,0,0
24081,-100,4,2,2,70,0,0
24258,-100,4,2,2,70,0,0
28316,-100,4,2,3,55,0,0
28669,-125,4,2,3,65,0,0
33611,-100,4,2,3,55,0,0
33964,-100,4,2,3,55,0,0
39258,-71.4285714285714,4,2,3,65,0,0
39611,-100,4,2,3,55,0,0
44905,-100,4,2,3,55,0,0
45258,-100,4,2,3,55,0,0
47375,-90.9090909090909,4,2,1,65,0,0
48081,-90.9090909090909,4,2,60,55,0,0
48964,-76.9230769230769,4,2,1,65,0,0
50552,-142.857142857143,4,2,60,55,0,0
50905,-125,4,2,4,40,0,0
61493,-100,4,2,4,55,0,0
62199,-100,4,2,5,90,0,0
68905,-133.333333333333,4,2,5,90,0,0
69258,-100,4,2,5,90,0,0
69611,-133.333333333333,4,2,5,90,0,0
69964,-100,4,2,5,90,0,0
70316,-133.333333333333,4,2,5,90,0,0
70669,-100,4,2,5,90,0,0
72081,-76.9230769230769,4,2,5,90,0,0
72434,-100,4,2,5,90,0,0
73493,-100,4,2,5,70,0,0
74199,-125,4,2,5,70,0,0
77728,-166.666666666667,4,2,6,70,0,0
84787,-166.666666666667,4,2,6,40,0,0
90081,-166.666666666667,4,2,6,40,0,0
91846,-100,4,2,3,55,0,0
97140,-100,4,2,3,55,0,0
97493,-100,4,2,3,55,0,0
100316,-100,4,2,60,55,0,0
101199,-76.9230769230769,4,2,60,55,0,0
102434,-166.666666666667,4,2,60,55,0,0
103140,-100,4,2,60,55,0,0
103846,352.941176470588,4,2,1,90,1,0
103846,-100,4,2,5,90,0,0
110552,-133.333333333333,4,2,5,90,0,0
110905,-100,4,2,5,90,0,0
111258,-133.333333333333,4,2,5,90,0,0
111611,-100,4,2,5,90,0,0
111964,-133.333333333333,4,2,5,90,0,0
112316,-100,4,2,5,90,0,0
113728,-76.9230769230769,4,2,5,90,0,0
114081,-100,4,2,5,90,0,0
114787,-100,4,2,5,90,0,0
115140,-100,4,2,5,90,0,0
119022,-83.3333333333333,4,2,5,90,0,0
119375,-100,4,2,5,90,0,0
121846,-133.333333333333,4,2,5,90,0,0
122199,-100,4,2,5,90,0,0
122552,-133.333333333333,4,2,5,90,0,0
122905,-83.3333333333333,4,2,5,90,0,0
123258,-133.333333333333,4,2,5,90,0,0
123611,-100,4,2,5,70,0,0
123787,-100,4,2,5,70,0,0
123964,-100,4,2,5,70,0,0
124316,-100,4,2,5,70,0,0
124669,-100,4,2,5,70,0,0
125022,-100,4,2,5,70,0,0
126081,-76.9230769230769,4,2,5,70,0,0
126434,-100,4,2,60,55,0,0
132081,-83.3333333333333,4,2,59,70,0,0
134375,-100,4,2,59,70,0,0
134905,-83.3333333333333,4,2,59,70,0,0
137375,-83.3333333333333,4,2,59,70,0,0
137728,-83.3333333333333,4,2,59,70,0,0
142493,-83.3333333333333,4,2,59,70,0,0
142669,-83.3333333333333,4,2,59,70,0,0
143022,-83.3333333333333,4,1,0,70,0,0
146198,-181.818181818182,4,2,2,55,0,0
151846,-181.818181818182,4,2,2,60,0,0
153257,-133.333333333333,4,2,1,65,0,0
154669,-133.333333333333,4,2,2,65,0,0
156081,-133.333333333333,4,2,2,70,0,0
156787,-133.333333333333,4,2,2,70,0,0
157493,-133.333333333333,4,2,0,40,0,0
158022,-181.818181818181,4,2,0,65,0,0
163140,-111.111111111111,4,2,0,50,0,0
163846,-111.111111111111,4,2,0,53,0,0
164551,-111.111111111111,4,2,0,56,0,0
165257,-111.111111111111,4,2,0,59,0,0
165963,-111.111111111111,4,2,0,62,0,0
166669,-111.111111111111,4,2,0,65,0,0
167375,-111.111111111111,4,2,0,68,0,0
168081,-111.111111111111,4,2,0,70,0,0
168787,-100,4,2,2,70,0,0
174081,-100,4,2,2,70,0,0
174434,-100,4,2,2,70,0,0
179551,-100,4,2,0,30,0,0
180787,-100,4,2,0,55,0,0
181493,-100,4,2,5,90,0,0
188198,-133.333333333333,4,2,5,90,0,0
188551,-100,4,2,5,90,0,0
188904,-133.333333333333,4,2,5,90,0,0
189257,-100,4,2,5,90,0,0
189610,-133.333333333333,4,2,5,90,0,0
189962,-100,4,2,5,90,0,0
191374,-76.9230769230769,4,2,5,90,0,0
191728,-100,4,2,5,90,0,0
192434,-100,4,2,5,90,0,0
192787,-100,4,2,5,90,0,0
199493,-133.333333333333,4,2,5,90,0,0
199846,-100,4,2,5,90,0,0
200198,-133.333333333333,4,2,5,90,0,0
200551,-100,4,2,5,90,0,0
200904,-133.333333333333,4,2,5,90,0,0
201257,-100,4,2,5,90,0,0
202669,-76.9230769230769,4,2,5,90,0,0
203022,-100,4,2,5,90,0,0
204081,-125,4,2,5,55,0,0
208316,-133.333333333333,4,2,5,55,0,0
209728,-500,4,2,5,55,0,0
210963,-500,4,2,0,40,0,0
213963,-500,4,2,0,40,0,0
214669,-500,4,2,0,40,0,0
218110,-500,4,2,1,5,0,0
218198,-250,4,2,0,50,0,0
218375,-250,4,2,0,40,0,0
218551,-250,4,2,0,30,0,0
218728,-250,4,2,0,20,0,0
218904,-250,4,2,0,15,0,0
219081,-250,4,2,0,10,0,0
219257,-250,4,2,0,5,0,0

[Colours]
Combo1 : 243,243,50
Combo2 : 95,95,95
Combo3 : 223,223,223
Combo4 : 158,238,70

[HitObjects]
263,177,4317,6,0,L|280:246,1,68,2|0,0:0|0:0,0:0:0:0:
420,180,5728,2,0,L|437:249,1,68,2|0,0:0|0:0,0:0:0:0:
283,59,7140,2,0,L|300:128,1,68,2|0,0:0|0:0,0:0:0:0:
104,146,8552,2,0,L|121:215,1,68,2|0,0:0|0:0,0:0:0:0:
292,20,9787,5,0,0:0:0:0:
292,20,9964,2,0,L|288:66,1,42.5,2|0,0:0|0:0,0:0:0:0:
279,144,10316,1,0,3:0:0:0:
212,282,10669,1,0,0:0:0:0:
212,282,10846,2,0,L|224:372,1,85,0|0,3:0|0:0,0:0:0:0:
286,240,11375,1,2,0:0:0:0:
348,304,11552,1,0,0:0:0:0:
348,304,11640,1,0,0:0:0:0:
348,304,11728,1,0,3:0:0:0:
482,168,12081,37,0,0:0:0:0:
482,168,12258,2,0,L|393:153,1,85,0|0,3:0|0:0,0:0:0:0:
241,22,12787,2,0,L|247:68,1,42.5,2|0,0:0|0:0,0:0:0:0:
319,53,13140,1,8,0:0:0:0:
225,231,13493,1,0,0:0:0:0:
148,265,13669,2,0,L|163:117,1,136,8|0,0:0|0:0,0:0:0:0:
0,193,14199,6,0,P|31:182|81:190,1,76.4999976654053,2|0,0:0|0:0,0:0:0:0:
17,340,14552,1,8,0:0:0:0:
66,280,14728,1,0,3:0:0:0:
66,280,14816,1,8,0:0:0:0:
66,280,14905,1,0,3:0:0:0:
140,368,15081,1,8,0:0:0:0:
316,287,15258,2,0,L|309:382,1,85,0|8,1:0|1:0,0:0:0:0:
275,110,17022,38,0,P|238:167|172:167,1,127.5,2|0,0:0|0:0,0:0:0:0:
130,110,17375,1,8,0:0:0:0:
130,110,17552,2,0,L|145:6,1,85,2|2,0:3|0:3,0:0:0:0:
62,250,17905,1,2,0:0:0:0:
22,327,18081,2,0,P|73:291|136:289,1,127.5,8|2,0:0|0:3,0:0:0:0:
215,258,18434,21,2,0:0:0:0:
215,258,18611,2,0,P|238:302|241:352,1,85,2|8,0:3|0:0,0:0:0:0:
417,251,18964,1,2,0:3:0:0:
450,324,19140,1,2,0:0:0:0:
350,293,19316,1,8,0:0:0:0:
458,173,19493,21,2,0:3:0:0:
473,142,19581,1,2,0:3:0:0:
472,108,19669,1,2,0:3:0:0:
455,78,19758,1,2,0:3:0:0:
431,53,19846,2,0,B|397:48|372:85|372:85|347:122|310:112,1,127.5,2|0,0:0|0:0,0:0:0:0:
225,152,20199,1,8,0:0:0:0:
225,152,20375,2,0,L|207:61,1,85,2|2,0:3|0:3,0:0:0:0:
290,255,20728,1,2,0:0:0:0:
303,342,20905,2,0,P|326:272|371:224,1,127.5,8|2,0:0|0:3,0:0:0:0:
98,310,21258,21,2,0:0:0:0:
145,236,21434,2,0,L|60:224,1,85,2|8,0:3|0:0,0:0:0:0:
164,373,21787,1,2,0:3:0:0:
145,236,21964,2,0,L|60:224,1,85,2|8,0:0|0:0,0:0:0:0:
398,241,22316,21,2,0:3:0:0:
416,270,22405,1,2,0:3:0:0:
412,303,22493,1,2,0:3:0:0:
392,331,22581,1,2,0:3:0:0:
360,343,22669,2,0,B|328:340|304:314|304:314|278:287|237:298,1,127.5,2|0,0:0|0:0,0:0:0:0:
243,214,23022,1,8,0:0:0:0:
243,214,23199,2,0,P|227:179|226:124,1,85,2|2,0:3|0:3,0:0:0:0:
444,160,23552,1,2,0:0:0:0:
386,55,23728,2,0,L|359:181,1,127.5,8|2,0:0|0:3,0:0:0:0:
387,282,24081,21,2,0:0:0:0:
387,282,24258,2,0,P|417:253|458:244,1,85,2|8,0:3|0:0,0:0:0:0:
337,381,24611,1,2,0:3:0:0:
387,282,24787,2,0,P|417:253|458:244,1,85,2|8,0:0|0:0,0:0:0:0:
194,252,25140,21,2,0:3:0:0:
196,273,25228,1,2,0:3:0:0:
199,293,25316,1,2,0:3:0:0:
202,314,25405,1,2,0:3:0:0:
205,333,25493,2,0,P|247:314|246:198,1,170,2|8,0:0|0:0,0:0:0:0:
88,53,26022,2,0,L|109:222,1,170,2|2,0:3|0:0,0:0:0:0:
376,131,26552,2,0,P|343:113|290:122,1,85,8|2,0:0|0:3,0:0:0:0:
348,331,26905,5,2,0:0:0:0:
276,369,27081,1,2,0:3:0:0:
209,330,27258,2,0,L|217:245,1,85,8|2,0:0|0:3,0:0:0:0:
201,58,27611,5,2,0:0:0:0:
182,48,27699,1,2,0:0:0:0:
163,58,27787,1,8,0:0:0:0:
341,142,27964,5,2,0:3:0:0:
379,144,28052,1,2,0:3:0:0:
408,175,28140,1,2,0:3:0:0:
410,215,28228,1,2,0:3:0:0:
367,244,28316,2,0,P|313:228|276:223,1,85,2|2,0:0|0:3,0:0:0:0:
227,353,28669,1,8,0:0:0:0:
180,291,28846,1,2,0:3:0:0:
63,328,29022,2,0,P|67:286|62:255,1,68,2|2,0:3|0:0,0:0:0:0:
109,65,29375,1,8,0:0:0:0:
214,113,29552,1,2,0:3:0:0:
136,141,29728,38,0,P|213:160|263:189,1,136,2|8,0:0|0:0,0:0:0:0:
466,125,30258,1,2,0:3:0:0:
395,98,30434,2,0,L|406:29,1,68,2|2,0:3|0:0,0:0:0:0:
350,277,30787,1,8,0:0:0:0:
390,212,30964,1,2,0:3:0:0:
465,225,31140,2,0,P|483:259|487:295,1,68,2|2,0:0|0:3,0:0:0:0:
320,367,31493,1,8,0:0:0:0:
237,299,31669,2,0,B|214:285|189:299|189:299|167:315|130:303,1,102,2|2,0:3|0:3,0:0:0:0:
106,238,32022,1,2,0:1:0:0:
326,169,32199,2,0,L|257:143,1,68,8|2,0:0|0:1,0:0:0:0:
84,93,32552,6,0,P|97:61|102:28,1,68,2|2,0:0|0:3,0:0:0:0:
12,132,32905,1,8,0:0:0:0:
145,165,33081,1,2,0:3:0:0:
145,165,33169,1,0,0:0:0:0:
145,165,33258,1,2,0:3:0:0:
203,105,33434,1,2,0:0:0:0:
287,140,33611,2,0,L|275:226,1,85,2|2,0:1|0:3,0:0:0:0:
108,323,33964,38,0,P|149:328|185:352,1,85,2|2,0:0|0:3,0:0:0:0:
329,293,34317,1,8,0:0:0:0:
353,372,34494,1,2,0:3:0:0:
482,265,34670,2,0,P|441:283|405:314,1,85,2|2,0:3|0:0,0:0:0:0:
334,113,35023,1,8,0:0:0:0:
383,180,35200,1,2,0:3:0:0:
427,83,35375,6,0,L|252:52,1,170,2|8,0:0|0:0,0:0:0:0:
140,195,35906,1,2,0:3:0:0:
163,108,36081,2,0,P|120:122|71:122,1,85,2|2,0:3|0:0,0:0:0:0:
126,327,36435,1,8,0:0:0:0:
75,266,36612,1,2,0:3:0:0:
232,276,36788,2,0,L|219:369,2,85,2|2|8,0:0|0:3|0:0,0:0:0:0:
339,89,37316,1,2,0:3:0:0:
364,168,37493,1,2,0:3:0:0:
441,142,37670,1,2,0:1:0:0:
356,291,37847,2,0,P|397:256|435:239,1,85,8|0,0:0|0:0,0:0:0:0:
305,13,38200,38,0,L|276:188,1,170,2|8,0:0|0:0,0:0:0:0:
171,296,38729,5,2,0:3:0:0:
171,296,38817,1,2,0:3:0:0:
171,296,38906,1,2,0:3:0:0:
128,210,39082,1,2,0:0:0:0:
34,219,39258,2,0,P|58:293|60:353,1,118.999996368408,2|2,0:1|0:3,0:0:0:0:
92,99,39611,6,0,P|133:96|178:116,2,85,2|2|8,0:0|0:3|0:0,0:0:0:0:
269,47,40140,1,2,0:3:0:0:
269,47,40316,2,0,L|252:130,1,85,2|2,0:3|0:0,0:0:0:0:
407,210,40669,1,8,0:0:0:0:
334,176,40846,1,2,0:3:0:0:
305,249,41022,2,0,P|348:215|465:185,1,170,2|8,0:0|0:0,0:0:0:0:
168,352,41728,1,2,0:3:0:0:
120,288,41905,1,2,0:0:0:0:
4,362,42081,2,0,L|14:272,1,85,8|2,0:0|0:3,0:0:0:0:
253,77,42434,6,0,P|218:105|195:155,1,85,2|2,0:0|0:3,0:0:0:0:
56,185,42787,2,0,P|41:146|43:104,1,85,8|2,0:0|0:3,0:0:0:0:
271,277,43140,2,0,P|312:295|318:348,1,85,2|2,0:3|0:0,0:0:0:0:
157,379,43493,2,0,L|179:204,1,170,8|2,0:0|0:0,0:0:0:0:
383,171,44022,1,2,0:3:0:0:
437,227,44199,2,0,B|430:257|410:265|410:265|384:261|367:242,1,85,8|2,0:0|0:3,0:0:0:0:
174,55,44552,1,2,0:3:0:0:
228,118,44728,1,2,0:0:0:0:
296,29,44905,1,2,0:1:0:0:
50,184,45258,37,2,0:0:0:0:
112,233,45434,1,2,0:3:0:0:
32,325,45611,2,0,P|76:316|129:319,1,85,8|2,0:0|0:3,0:0:0:0:
329,264,45964,2,0,B|282:270|265:316|265:316|246:364|196:365,1,170,2|8,0:3|0:0,0:0:0:0:
272,22,46669,6,0,L|277:121,1,85,2|2,0:0|0:3,0:0:0:0:
178,186,47022,1,8,0:0:0:0:
148,100,47199,1,2,0:3:0:0:
314,196,47375,1,2,0:3:0:0:
175,367,47552,1,2,0:0:0:0:
123,301,47728,1,8,0:0:0:0:
199,273,47905,1,2,0:3:0:0:
364,375,48081,38,0,L|379:263,1,93.5000028533936,2|2,1:2|0:3,0:0:0:0:
279,359,48434,1,8,0:0:0:0:
379,209,48611,1,2,1:2:0:0:
379,209,48699,1,0,0:0:0:0:
379,209,48787,1,2,1:2:0:0:
261,137,48964,2,0,P|311:116|355:69,1,110.499994941712,8|2,0:0|0:3,0:0:0:0:
272,221,49316,1,2,1:2:0:0:
94,126,49493,5,8,1:2:0:0:
173,92,49669,1,2,0:3:0:0:
173,92,49758,1,2,0:3:0:0:
173,92,49846,1,2,1:2:0:0:
105,25,50022,1,8,0:0:0:0:
107,223,50199,37,2,0:3:0:0:
133,194,50287,1,2,0:3:0:0:
170,185,50375,1,2,0:3:0:0:
205,201,50464,1,2,0:3:0:0:
221,223,50552,22,0,L|208:282,1,59.4999981842042,6|0,0:0|0:0,0:0:0:0:
120,364,50905,2,0,P|102:335|74:318,1,68,2|2,0:0|0:0,0:0:0:0:
305,323,51258,2,0,P|370:306|444:317,1,136,8|2,0:0|0:3,0:0:0:0:
467,196,51787,1,2,0:0:0:0:
467,196,51875,1,2,0:0:0:0:
467,196,51964,2,0,P|443:149|422:135,1,68,8|2,0:0|0:3,0:0:0:0:
308,30,52316,2,0,L|333:179,1,136,2|8,0:0|0:0,0:0:0:0:
205,96,52846,1,2,0:3:0:0:
229,173,53022,2,0,L|220:215,2,34,2|2|8,0:0|0:0|0:0,0:0:0:0:
8,124,53552,5,2,0:3:0:0:
12,267,53728,1,2,0:0:0:0:
83,234,53905,1,2,0:0:0:0:
135,292,54081,2,0,B|137:321|115:337|117:366,1,68,8|2,0:0|0:3,0:0:0:0:
330,270,54434,1,2,0:3:0:0:
264,312,54611,1,2,0:0:0:0:
316,372,54787,2,0,P|360:348|391:354,1,68,8|2,0:0|0:3,0:0:0:0:
420,144,55140,2,0,L|449:285,1,136,2|8,0:0|0:0,0:0:0:0:
325,194,55669,1,2,0:3:0:0:
307,114,55845,2,0,L|314:80,2,34,2|2|8,0:0|0:0|0:0,0:0:0:0:
125,275,56375,37,2,0:3:0:0:
59,98,56552,1,2,0:0:0:0:
141,154,56728,1,2,0:0:0:0:
65,180,56905,2,0,P|137:186|208:218,1,136,8|2,0:0|0:3,0:0:0:0:
343,373,57434,1,2,0:0:0:0:
269,335,57611,2,0,L|280:263,1,68,8|2,0:0|0:3,0:0:0:0:
421,193,57964,6,0,B|426:159|395:131|395:131|365:103|378:58,1,136,2|8,0:0|0:0,0:0:0:0:
256,147,58493,1,2,0:3:0:0:
313,205,58669,2,0,L|345:190,2,34,2|2|8,0:0|0:0|0:0,0:0:0:0:
171,246,59022,2,0,P|201:260|224:289,1,68,2|2,0:3|0:3,0:0:0:0:
176,124,59375,1,2,0:0:0:0:
113,173,59552,1,2,0:0:0:0:
50,130,59728,2,0,P|54:74|59:58,1,68,8|2,0:0|0:3,0:0:0:0:
16,311,60081,37,2,0:3:0:0:
97,269,60258,1,2,0:0:0:0:
97,269,60346,1,2,0:0:0:0:
97,269,60434,2,0,P|155:281|197:353,1,136,8|2,0:0|0:0,0:0:0:0:
422,85,62199,21,6,0:0:0:0:
362,37,62375,1,2,0:3:0:0:
316,97,62552,1,8,0:0:0:0:
362,37,62728,1,2,0:3:0:0:
388,212,62905,1,2,0:3:0:0:
262,191,63081,2,0,L|308:176,1,42.5,2|0,0:0|0:0,0:0:0:0:
373,288,63258,2,0,P|348:341|291:326,1,127.5,8|2,0:0|0:3,0:0:0:0:
215,294,63611,5,2,0:0:0:0:
192,104,63787,1,2,0:1:0:0:
289,221,63964,1,8,0:0:0:0:
66,197,64140,1,2,0:1:0:0:
137,171,64317,1,2,0:3:0:0:
56,117,64493,2,0,B|25:153|41:196|41:196|58:243|24:280,1,170,2|2,0:0|0:3,0:0:0:0:
202,370,65022,37,2,0:0:0:0:
133,340,65199,1,2,0:3:0:0:
167,273,65375,1,8,0:0:0:0:
133,340,65552,1,2,0:3:0:0:
303,216,65728,1,2,0:3:0:0:
424,329,65905,2,0,L|413:377,1,42.5,2|0,0:0|0:0,0:0:0:0:
277,303,66081,2,0,P|312:253|373:252,1,127.5,8|2,0:0|0:3,0:0:0:0:
429,197,66434,5,2,0:0:0:0:
290,93,66611,1,0,1:0:0:0:
341,154,66787,1,8,1:0:0:0:
352,47,66964,1,0,1:0:0:0:
154,104,67140,1,2,0:3:0:0:
287,1,67316,2,0,L|262:174,1,170,2|2,0:0|0:3,0:0:0:0:
186,265,67846,38,0,P|158:223|117:210,1,85,2|2,0:0|0:3,0:0:0:0:
272,377,68199,2,0,P|291:328|327:297,2,85,8|2|2,0:0|0:3|0:3,0:0:0:0:
372,371,68728,1,2,0:0:0:0:
372,371,68905,38,0,P|399:359|438:356,1,63.7500024318696,8|2,0:0|0:3,0:0:0:0:
453,169,69258,6,0,L|361:149,1,85,2|2,0:0|0:3,0:0:0:0:
371,370,69611,22,0,P|384:341|389:310,1,63.7500024318696,8|2,0:0|0:3,0:0:0:0:
74,266,69964,22,0,L|166:246,1,85,2|2,0:3|0:0,0:0:0:0:
432,355,70316,38,0,P|408:337|386:305,1,63.7500024318696,8|0,0:0|0:0,0:0:0:0:
259,100,70669,5,2,0:0:0:0:
318,151,70846,1,2,0:3:0:0:
378,92,71022,2,0,L|364:-6,1,85,8|2,0:0|0:3,0:0:0:0:
142,116,71375,2,0,B|189:123|205:166|205:166|223:213|273:219,1,170,2|8,0:3|0:0,0:0:0:0:
399,278,71905,1,2,0:3:0:0:
399,278,72081,6,0,P|321:287|213:386,1,220.999989883423,2|10,0:1|0:1,0:0:0:0:
106,344,72611,1,2,0:3:0:0:
106,344,72699,1,2,0:3:0:0:
106,344,72787,1,2,0:3:0:0:
153,270,72964,1,2,0:0:0:0:
54,231,73140,2,0,L|46:146,1,85,10|2,0:1|0:3,0:0:0:0:
146,35,73493,38,0,P|196:31|238:55,2,85,2|2|8,0:0|0:3|0:0,0:0:0:0:
248,123,74023,1,2,0:3:0:0:
248,123,74199,2,0,L|219:204,1,68,2|2,0:3|0:0,0:0:0:0:
417,37,74552,1,8,0:0:0:0:
464,106,74729,1,2,0:3:0:0:
328,165,74905,2,0,B|360:154|387:189|387:189|417:222|458:208,1,136,2|8,0:0|0:0,0:0:0:0:
341,351,75435,1,2,0:3:0:0:
261,362,75611,2,0,L|272:293,1,68,2|2,0:3|0:0,0:0:0:0:
123,137,75964,1,8,0:0:0:0:
72,194,76141,1,2,0:3:0:0:
120,258,76317,6,0,P|154:260|194:236,1,68,2|2,0:0|0:3,0:0:0:0:
386,193,76670,1,8,0:0:0:0:
306,235,76846,2,0,B|321:118,1,102,2|2,0:3|0:3,0:0:0:0:
303,45,77199,1,2,0:0:0:0:
303,45,77376,2,0,P|273:24|234:19,1,68,8|2,0:0|0:3,0:0:0:0:
242,101,77728,2,0,P|234:160|115:228,1,203.999993774414,2|0,0:0|0:0,0:0:0:0:
430,48,79140,38,0,P|433:91|458:159,3,101.999996887207,2|2|2|2,0:0|0:0|0:0|0:0,0:0:0:0:
71,260,80552,2,0,P|65:309|32:375,2,101.999996887207,2|2|2,0:0|0:0|0:0,0:0:0:0:
249,359,81787,5,0,0:0:0:0:
283,290,81964,2,0,L|255:230,1,50.9999984436036,2|0,0:0|0:0,0:0:0:0:
224,257,82316,2,0,L|240:197,1,50.9999984436036,2|0,0:0|0:0,0:0:0:0:
309,161,82669,2,0,L|298:94,1,50.9999984436036,2|0,0:0|0:0,0:0:0:0:
214,58,83022,2,0,L|225:-13,1,50.9999984436036,2|0,0:0|0:0,0:0:0:0:
364,20,83375,37,2,0:0:0:0:
491,152,83640,1,0,0:0:0:0:
452,316,83905,1,0,0:0:0:0:
459,305,84081,5,2,0:0:0:0:
408,232,84346,1,0,0:0:0:0:
407,144,84611,1,0,0:0:0:0:
380,141,84787,6,0,L|391:255,2,101.999996887207,2|2|2,0:0|0:0|0:0,0:0:0:0:
93,246,85846,5,2,0:0:0:0:
150,196,86022,1,0,0:0:0:0:
214,246,86199,2,0,L|195:358,2,101.999996887207,2|2|2,0:0|0:0|0:0,0:0:0:0:
252,44,87258,1,2,0:0:0:0:
350,229,87611,2,0,P|392:200|451:183,1,101.999996887207,2|2,0:0|0:0,0:0:0:0:
92,113,88316,2,0,P|51:83|29:78,1,50.9999984436036,2|0,0:0|0:0,0:0:0:0:
159,160,88669,2,0,P|170:124|171:101,1,50.9999984436036,2|0,0:0|0:0,0:0:0:0:
88,230,89022,2,0,L|101:337,2,101.999996887207,2|2|2,0:0|0:0|0:0,0:0:0:0:
256,192,89905,12,0,91669,0:0:0:0:
259,105,91846,6,0,L|343:92,2,85,2|2|8,0:0|0:3|0:0,0:0:0:0:
184,211,92375,1,2,0:3:0:0:
184,211,92551,2,0,P|137:188|74:191,1,85,2|2,0:3|0:0,0:0:0:0:
218,362,92904,1,8,0:0:0:0:
240,286,93081,1,2,0:3:0:0:
311,318,93258,6,0,P|354:284|471:254,1,170,8|8,0:0|0:0,0:0:0:0:
102,74,93963,1,2,0:3:0:0:
161,135,94140,1,2,0:0:0:0:
271,45,94316,2,0,L|259:132,1,85,8|2,0:0|0:3,0:0:0:0:
44,264,94669,2,0,P|64:227|98:201,1,85,8|2,0:0|0:3,0:0:0:0:
165,379,95022,2,0,P|150:340|152:298,1,85,8|2,0:0|0:3,0:0:0:0:
310,98,95375,2,0,P|351:116|357:169,1,85,2|2,0:3|0:0,0:0:0:0:
282,287,95728,2,0,L|478:264,1,170,8|2,0:0|0:0,0:0:0:0:
121,219,96257,37,2,0:3:0:0:
201,201,96434,2,0,P|190:240|188:287,1,85,8|2,0:0|0:3,0:0:0:0:
269,64,96787,1,2,0:3:0:0:
205,25,96963,1,2,0:0:0:0:
172,112,97140,2,0,P|115:74|36:67,1,127.5,2|2,0:1|0:1,0:0:0:0:
0,126,97493,6,0,B|-3:149|8:164|8:164|25:184|18:210,1,85,2|2,0:0|0:3,0:0:0:0:
67,359,97846,2,0,P|87:317|127:291,1,85,8|2,0:0|0:3,0:0:0:0:
279,159,98199,2,0,P|275:240|263:351,1,170,2|8,0:3|0:0,0:0:0:0:
100,88,98904,2,0,P|148:78|186:37,1,85,8|2,0:0|0:3,0:0:0:0:
145,203,99257,1,8,0:0:0:0:
202,152,99434,1,2,0:3:0:0:
237,346,99610,37,2,0:3:0:0:
346,237,99787,1,2,0:0:0:0:
395,303,99963,1,8,0:0:0:0:
425,210,100140,1,2,0:3:0:0:
268,58,100316,6,0,L|366:70,1,85,2|2,1:2|0:3,0:0:0:0:
285,141,100669,1,8,0:0:0:0:
104,63,100846,1,2,1:2:0:0:
104,63,100934,1,0,0:0:0:0:
104,63,101022,1,2,1:2:0:0:
188,139,101199,2,0,P|137:160|90:211,1,110.499994941712,8|2,0:0|0:3,0:0:0:0:
43,123,101551,1,2,1:2:0:0:
111,318,101728,37,8,1:2:0:0:
188,288,101904,1,2,0:3:0:0:
188,288,101993,1,2,0:3:0:0:
188,288,102081,1,2,0:0:0:0:
217,357,102257,1,8,0:0:0:0:
277,175,102434,2,0,P|310:271|358:361,1,203.999993774414,2|0,0:0|0:0,0:0:0:0:
292,275,103846,21,6,0:0:0:0:
260,344,104022,1,2,0:3:0:0:
330,374,104199,1,8,0:0:0:0:
260,344,104375,1,2,0:3:0:0:
466,145,104552,1,2,0:3:0:0:
425,264,104728,2,0,L|445:207,1,42.5,2|0,0:0|0:0,0:0:0:0:
306,126,104905,2,0,P|367:113|366:192,1,127.5,8|2,0:0|0:3,0:0:0:0:
277,194,105258,5,2,0:0:0:0:
121,87,105434,1,2,0:1:0:0:
274,199,105611,1,8,0:0:0:0:
279,12,105787,2,0,L|259:69,1,42.5,2|2,0:1|0:3,0:0:0:0:
186,154,105964,1,2,0:3:0:0:
38,139,106140,2,0,B|85:146|101:189|101:189|119:236|169:242,1,170,2|2,0:0|0:3,0:0:0:0:
22,369,106669,37,2,0:0:0:0:
95,346,106846,1,2,0:3:0:0:
67,274,107022,1,8,0:0:0:0:
95,346,107199,1,2,0:3:0:0:
294,227,107375,1,2,0:3:0:0:
228,337,107552,2,0,L|270:345,1,42.5,2|0,0:0|0:0,0:0:0:0:
354,285,107728,2,0,P|405:251|408:190,1,127.5,8|2,0:0|0:3,0:0:0:0:
326,118,108081,5,2,0:0:0:0:
154,187,108258,1,0,1:0:0:0:
177,262,108434,1,8,1:2:0:0:
229,163,108611,1,2,1:3:0:0:
384,20,108787,1,2,0:3:0:0:
335,132,108964,2,0,B|347:99|382:93|382:93|446:102|480:157,1,170,2|2,0:0|0:3,0:0:0:0:
242,89,109493,38,0,P|214:47|173:34,1,85,2|2,0:0|0:3,0:0:0:0:
277,306,109846,2,0,P|262:230|264:169,1,127.5,8|2,0:0|0:3,0:0:0:0:
182,155,110199,1,2,0:3:0:0:
165,358,110375,1,2,0:0:0:0:
24,270,110552,38,0,P|48:288|70:320,1,63.7500024318696,8|2,0:0|0:3,0:0:0:0:
140,43,110905,6,0,P|101:63|50:59,1,85,2|2,0:0|0:3,0:0:0:0:
67,315,111258,22,0,P|71:284|87:249,1,63.7500024318696,8|2,0:0|0:3,0:0:0:0:
297,334,111611,22,0,P|337:366|391:378,1,85,2|2,0:3|0:0,0:0:0:0:
85,254,111964,38,0,P|56:265|17:268,1,63.7500024318696,8|2,0:0|0:3,0:0:0:0:
332,101,112316,5,2,2:0:0:0:
283,160,112493,1,2,1:3:0:0:
200,115,112669,2,0,L|208:209,1,85,8|2,1:2|1:3,0:0:0:0:
483,105,113022,2,0,B|436:112|420:155|420:155|402:202|352:208,1,170,2|8,0:1|0:0,0:0:0:0:
218,317,113552,1,2,0:3:0:0:
218,317,113728,2,0,B|230:336|249:345|249:345|291:348|331:279|254:229,1,165.749992412568,2|0,0:1|0:0,0:0:0:0:
283,160,114081,2,0,P|277:97|307:41,1,127.5,10|2,0:1|0:3,0:0:0:0:
197,58,114434,21,2,0:3:0:0:
191,87,114611,2,0,L|11:57,1,170,2|2,0:0|0:3,0:0:0:0:
58,330,115140,5,6,0:0:0:0:
33,257,115316,1,2,0:3:0:0:
104,230,115493,1,8,0:0:0:0:
33,257,115669,1,2,0:3:0:0:
276,162,115846,1,2,0:3:0:0:
184,293,116022,2,0,L|195:333,1,42.5,2|0,0:0|0:0,0:0:0:0:
372,320,116199,2,0,P|349:249|294:283,1,127.5,8|2,0:0|0:3,0:0:0:0:
317,368,116552,37,2,0:0:0:0:
482,278,116728,1,2,0:1:0:0:
377,148,116905,1,8,0:0:0:0:
510,96,117081,2,0,L|469:87,1,42.5,2|2,0:1|0:3,0:0:0:0:
326,51,117258,1,2,0:3:0:0:
249,204,117434,2,0,P|254:113|248:30,1,170,2|2,0:0|0:3,0:0:0:0:
320,265,117964,5,2,0:0:0:0:
279,329,118140,1,2,0:3:0:0:
344,368,118316,1,8,0:0:0:0:
320,265,118493,1,2,0:3:0:0:
96,368,118669,2,0,P|91:342|79:319,1,42.5,2|2,0:3|0:3,0:0:0:0:
161,288,118846,2,0,P|147:267|126:255,1,42.5,2|0,0:0|0:0,0:0:0:0:
12,189,119022,2,0,L|161:156,1,152.999995330811,8|2,0:0|0:3,0:0:0:0:
217,235,119375,37,2,0:0:0:0:
116,81,119552,1,0,1:0:0:0:
187,52,119728,1,8,1:2:0:0:
86,12,119905,1,2,1:3:0:0:
369,124,120081,1,2,0:3:0:0:
368,39,120258,2,0,B|340:5|302:19|297:43|297:43|275:141,1,170,2|2,0:0|0:3,0:0:0:0:
421,355,120787,6,0,P|457:334|499:335,1,85,2|2,0:0|0:3,0:0:0:0:
268,365,121140,2,0,P|272:301|252:241,1,127.5,8|2,0:0|0:3,0:0:0:0:
178,207,121493,1,2,0:3:0:0:
83,367,121669,1,2,0:0:0:0:
132,117,121846,6,0,P|96:118|57:104,1,63.7500024318696,8|2,0:0|0:3,0:0:0:0:
331,114,122199,22,0,L|344:30,1,85,2|2,0:0|0:3,0:0:0:0:
95,167,122552,38,0,P|84:132|59:99,1,63.7500024318696,8|2,0:0|0:3,0:0:0:0:
331,288,122905,6,0,B|340:305|361:321|361:321|404:318|447:293,1,101.999996887207,2|2,0:3|0:0,0:0:0:0:
95,167,123258,22,0,P|112:135|144:109,1,63.7500024318696,8|2,0:0|0:3,0:0:0:0:
21,323,123611,6,0,P|20:344|20:365,1,42.5,2|0,0:1|0:0,0:0:0:0:
44,331,123787,2,0,L|43:374,1,42.5,2|0,0:1|0:0,0:0:0:0:
82,317,123964,2,0,L|81:360,1,42.5,2|0,0:1|0:0,0:0:0:0:
115,272,124140,2,0,L|114:315,1,42.5,2|0,0:1|0:0,0:0:0:0:
189,252,124316,2,0,L|188:295,1,42.5,2|0,0:1|0:0,0:0:0:0:
271,315,124493,2,0,L|272:272,1,42.5,2|0,0:1|0:0,0:0:0:0:
357,361,124669,2,0,L|358:318,1,42.5,2|0,0:1|0:0,0:0:0:0:
469,286,124846,2,0,L|470:243,1,42.5,2|0,0:1|0:0,0:0:0:0:
436,64,125022,5,2,0:1:0:0:
436,64,125140,2,0,P|407:51|395:31,1,56.6666666666667,2|2,0:1|0:1,0:0:0:0:
329,103,125375,1,2,0:1:0:0:
329,103,125493,2,0,P|332:134|320:155,1,56.6666666666667,2|2,0:1|0:1,0:0:0:0:
421,184,125728,1,2,0:1:0:0:
421,184,125845,2,0,P|446:164|470:164,1,56.6666666666667,2|2,0:1|0:1,0:0:0:0:
434,139,126081,6,0,B|392:138|365:178|365:178|336:220|292:216,1,165.749992412568,0|0,0:0|0:0,0:0:0:0:
111,221,126434,2,0,P|143:229|157:351,1,170,2|8,0:0|0:0,0:0:0:0:
42,171,126964,2,0,P|97:156|106:163,1,42.5,2|0,0:0|0:0,0:0:0:0:
192,36,127140,2,0,L|206:146,1,85,2|8,0:0|0:0,0:0:0:0:
291,226,127493,1,2,0:3:0:0:
291,226,127581,1,2,0:3:0:0:
291,226,127670,1,2,0:0:0:0:
377,327,127846,6,0,P|405:345|498:274,1,170,2|8,0:0|0:0,0:0:0:0:
471,47,128375,2,0,P|444:97|448:107,1,42.5,2|0,0:0|0:0,0:0:0:0:
308,147,128552,2,0,L|295:236,1,85,2|2,0:0|0:3,0:0:0:0:
193,157,129258,6,0,P|150:90|72:108,1,170,2|8,0:0|0:0,0:0:0:0:
212,256,129787,2,0,P|252:218|267:218,1,42.5,2|0,0:0|0:0,0:0:0:0:
330,76,129964,2,0,L|432:94,1,85,2|8,0:0|0:0,0:0:0:0:
492,279,130316,1,2,0:3:0:0:
492,279,130405,1,2,0:3:0:0:
492,279,130493,2,0,B|477:307|477:307|451:325|413:314,1,85,2|8,0:0|0:0,0:0:0:0:
331,187,130846,1,2,0:3:0:0:
331,187,130935,1,2,0:3:0:0:
331,187,131022,2,0,B|363:185|363:185|391:198|401:237,1,85,2|0,0:0|0:0,0:0:0:0:
338,374,131375,5,2,0:3:0:0:
338,374,131464,2,0,B|320:346|320:346|317:315|340:295|340:295|349:325|361:351|344:377,1,170,2|2,0:1|0:1,0:0:0:0:
154,350,132081,6,0,P|105:330|30:335,1,101.999996887207,6|2,1:2|1:3,0:0:0:0:
203,213,132434,1,8,1:2:0:0:
120,236,132611,1,2,1:2:0:0:
176,130,132787,1,2,1:2:0:0:
191,243,132964,1,8,1:2:0:0:
86,164,133140,1,2,1:3:0:0:
233,206,133316,1,2,1:2:0:0:
108,275,133493,1,2,1:2:0:0:
172,102,133669,1,2,1:3:0:0:
285,114,133846,6,0,P|292:61|334:0,1,101.999996887207,8|2,1:2|1:2,0:0:0:0:
483,226,134199,1,2,1:2:0:0:
413,195,134375,2,0,B|374:184|341:232|341:232|339:230|339:230|305:273|252:262,1,170,8|2,1:2|0:0,0:0:0:0:
394,384,134905,5,2,1:2:0:0:
238,329,135081,1,2,1:3:0:0:
146,363,135258,1,8,1:2:0:0:
235,288,135434,1,2,1:2:0:0:
288,122,135611,1,2,1:2:0:0:
405,220,135787,1,8,1:2:0:0:
319,205,135964,1,2,1:3:0:0:
368,85,136140,1,2,1:2:0:0:
366,186,136316,1,8,1:2:0:0:
259,137,136493,1,2,1:3:0:0:
449,145,136669,2,0,L|441:40,1,101.999996887207,2|8,0:1|0:0,0:0:0:0:
227,215,137022,5,2,0:1:0:0:
239,135,137199,2,0,B|220:90|161:75|161:75|99:58|95:3,1,203.999993774414,2|0,0:1|0:0,0:0:0:0:
102,314,137728,1,2,0:0:0:0:
171,273,137905,1,2,0:3:0:0:
131,352,138081,1,10,0:1:0:0:
102,234,138258,1,2,0:1:0:0:
225,333,138434,1,2,0:1:0:0:
89,358,138611,1,8,0:0:0:0:
134,201,138787,1,2,0:1:0:0:
59,377,138964,1,2,0:1:0:0:
328,239,139140,6,0,L|312:344,1,101.999996887207,2|2,0:1|0:1,0:0:0:0:
287,44,139493,1,2,0:1:0:0:
277,168,139669,1,2,1:0:0:0:
490,113,139846,1,2,0:0:0:0:
426,168,140022,1,2,0:1:0:0:
488,68,140199,1,2,0:1:0:0:
462,197,140375,1,2,0:1:0:0:
243,103,140552,6,0,B|221:89|196:110|196:110|171:128|146:122,1,101.999996887207,2|2,1:2|1:3,0:0:0:0:
64,184,140905,1,8,1:2:0:0:
174,258,141081,1,2,1:2:0:0:
154,42,141258,1,2,1:2:0:0:
235,178,141434,1,8,1:2:0:0:
143,226,141611,1,2,1:3:0:0:
135,82,141787,1,2,1:2:0:0:
186,323,141964,1,2,1:2:0:0:
247,242,142140,1,2,1:3:0:0:
158,274,142316,1,8,1:2:0:0:
321,345,142493,1,8,1:2:0:0:
136,323,142669,1,2,1:3:0:0:
228,214,142846,1,2,1:3:0:0:
225,362,143022,5,8,0:0:0:0:
225,362,143111,1,8,0:0:0:0:
225,362,143199,1,8,0:0:0:0:
225,362,143287,1,8,0:0:0:0:
225,362,143375,1,0,0:0:0:0:
140,118,146199,5,8,0:0:0:0:
63,147,146375,2,0,L|69:36,1,93.5000028533936,2|8,0:3|0:0,0:0:0:0:
145,131,146904,2,0,B|177:159|177:159|200:161|224:144,1,93.5000028533936,8|4,0:0|0:0,0:0:0:0:
368,245,147610,5,8,0:0:0:0:
445,274,147787,2,0,L|441:164,1,93.5000028533936,2|8,0:0|0:0,0:0:0:0:
381,331,148316,2,0,B|349:329|335:348|335:348|321:367|289:365,1,93.5000028533936,8|2,0:0|0:3,0:0:0:0:
55,343,149022,38,0,L|59:238,1,93.5000028533936,8|0,0:0|0:0,0:0:0:0:
134,339,149551,1,8,0:0:0:0:
165,268,149728,1,8,0:0:0:0:
282,370,150081,1,4,0:0:0:0:
353,226,150434,2,0,B|363:195|338:158|338:158|310:123|329:85,1,140.25000428009,8|8,0:0|0:0,0:0:0:0:
428,192,151140,1,8,0:0:0:0:
209,332,151493,1,0,1:0:0:0:
240,311,151581,1,0,1:0:0:0:
238,273,151669,1,0,1:0:0:0:
201,265,151757,1,0,1:0:0:0:
181,296,151846,22,0,L|192:356,1,46.7500014266968,8|2,0:0|0:3,0:0:0:0:
349,314,152199,2,0,P|315:329|296:347,1,46.7500014266968,8|2,0:0|0:3,0:0:0:0:
81,205,152551,2,0,P|115:220|134:238,1,46.7500014266968,8|2,0:0|0:3,0:0:0:0:
252,47,152904,2,0,P|238:81|237:107,1,46.7500014266968,8|2,0:0|0:3,0:0:0:0:
458,204,153257,2,0,P|425:172|349:181,1,127.500004863739,8|8,0:0|0:0,0:0:0:0:
305,249,153787,1,2,0:3:0:0:
179,180,153963,2,0,L|170:116,1,63.7500024318696,8|2,0:0|0:3,0:0:0:0:
78,297,154316,1,8,0:0:0:0:
124,369,154493,1,2,0:0:0:0:
227,257,154669,6,0,B|235:289|220:323|220:323|200:367|222:393,1,127.500004863739,8|8,0:0|0:0,0:0:0:0:
348,111,155375,2,0,P|375:95|407:92,1,63.7500024318696,8|2,0:0|0:3,0:0:0:0:
90,175,155728,2,0,L|77:112,1,63.7500024318696,8|2,0:0|0:3,0:0:0:0:
217,30,156081,2,0,L|224:14,30,15.9375006079674,2|2|2|2|2|2|2|2|2|2|2|2|2|2|2|2|8|8|8|8|8|8|8|8|8|8|8|8|8|8|8,1:3|1:3|1:3|1:3|1:3|1:3|1:3|1:3|1:3|1:3|1:3|1:3|1:3|1:3|1:3|1:3|1:3|1:3|1:3|1:3|1:3|1:3|1:3|1:3|1:3|1:3|1:3|1:3|1:3|1:3|1:3,0:0:0:0:
266,131,157493,5,14,0:0:0:0:
342,108,157846,1,10,0:0:0:0:
342,108,158022,2,0,L|346:209,1,93.5000028533936,2|2,0:0|0:0,0:0:0:0:
430,228,158551,1,10,0:0:0:0:
318,342,158904,5,10,0:0:0:0:
397,339,159081,2,0,L|394:290,1,46.7500014266968,2|8,0:0|0:0,0:0:0:0:
311,260,159434,1,2,0:0:0:0:
321,359,159610,2,0,P|274:357|230:372,1,93.5000028533936,10|8,0:0|0:0,0:0:0:0:
154,215,160316,5,10,0:0:0:0:
71,204,160669,1,10,0:0:0:0:
71,204,160846,2,0,L|79:304,1,93.5000028533936,2|2,0:0|0:0,0:0:0:0:
142,345,161375,1,10,0:0:0:0:
230,159,161728,5,10,0:0:0:0:
182,102,161904,2,0,L|179:48,1,46.7500014266968,2|8,0:0|0:0,0:0:0:0:
159,230,162257,1,2,0:0:0:0:
244,170,162434,2,0,B|226:194|235:216|235:216|246:240|229:267,1,93.5000028533936,10|8,0:0|0:0,0:0:0:0:
485,108,163140,38,0,P|465:85|419:85,1,76.4999976654053,10|0,1:2|0:0,0:0:0:0:
381,241,163493,1,10,1:2:0:0:
328,180,163669,2,0,P|328:107|305:27,1,152.999995330811,2|2,0:0|0:0,0:0:0:0:
321,307,164199,2,0,P|291:319|247:322,1,76.4999976654053,10|0,1:2|0:0,0:0:0:0:
101,252,164551,5,10,1:2:0:0:
35,303,164728,2,0,L|54:380,1,76.4999976654053,2|8,0:0|1:2,0:0:0:0:
110,264,165081,1,2,0:0:0:0:
77,177,165257,2,0,B|112:166|149:190|149:190|184:214|224:198,1,152.999995330811,10|8,1:2|1:2,0:0:0:0:
429,337,165963,38,0,P|391:342|359:367,1,76.4999976654053,10|0,1:2|0:0,0:0:0:0:
137,347,166316,1,10,1:2:0:0:
218,368,166493,2,0,P|223:296|254:217,1,152.999995330811,2|0,0:0|0:0,0:0:0:0:
428,140,167022,2,0,P|398:162|382:205,1,76.4999976654053,10|0,1:2|0:0,0:0:0:0:
215,122,167375,1,10,1:2:0:0:
283,86,167551,1,0,1:0:0:0:
235,22,167728,1,10,1:2:0:0:
161,62,167904,2,0,L|179:139,1,76.4999976654053,0|10,0:0|1:2,0:0:0:0:
93,356,168434,5,8,1:2:0:0:
110,341,168522,1,0,1:0:0:0:
110,318,168610,1,0,1:0:0:0:
41,280,168787,6,0,B|87:275|112:317|112:317|140:361|192:360,1,170,2|8,0:0|0:0,0:0:0:0:
318,234,169316,1,2,0:3:0:0:
339,369,169493,1,2,0:3:0:0:
263,316,169669,1,2,0:0:0:0:
397,288,169846,2,0,P|359:326|347:363,1,85,8|2,0:0|0:0,0:0:0:0:
180,244,170199,5,2,0:0:0:0:
240,178,170375,1,2,0:3:0:0:
426,171,170551,1,8,0:0:0:0:
408,136,170640,1,0,0:0:0:0:
371,146,170728,1,2,0:3:0:0:
364,183,170816,1,0,0:0:0:0:
397,201,170904,2,0,P|440:178|457:144,1,85,2|2,0:3|0:0,0:0:0:0:
302,20,171257,2,0,B|276:21|257:15|257:15|242:28|215:36,1,85,8|2,0:0|0:0,0:0:0:0:
223,280,171610,6,0,L|200:101,1,170,2|8,0:0|0:0,0:0:0:0:
274,344,172140,1,2,0:3:0:0:
93,354,172316,1,2,0:3:0:0:
135,279,172493,1,2,0:0:0:0:
10,358,172669,2,0,P|46:336|95:341,1,85,8|2,0:0|0:0,0:0:0:0:
106,193,173022,6,0,P|60:179|38:151,1,85,2|2,0:0|0:3,0:0:0:0:
7,142,173287,1,2,0:3:0:0:
18,105,173375,1,8,0:0:0:0:
32,69,173463,1,0,0:0:0:0:
68,79,173551,1,8,0:0:0:0:
180,115,173728,1,2,0:3:0:0:
131,270,173904,1,2,0:0:0:0:
127,282,173993,1,2,0:3:0:0:
123,294,174081,2,0,L|42:267,1,85,12|0,0:0|0:0,0:0:0:0:
233,362,174434,6,0,B|271:346|278:294|278:294|284:246|328:232,1,170,2|8,0:0|0:0,0:0:0:0:
444,265,174963,1,2,0:3:0:0:
299,139,175140,1,2,0:3:0:0:
376,102,175316,1,2,0:0:0:0:
257,64,175493,2,0,B|275:88|271:117|271:117|244:145,1,85,8|2,0:0|0:3,0:0:0:0:
51,309,175846,5,2,0:0:0:0:
104,238,176022,1,2,0:3:0:0:
284,293,176198,1,8,0:0:0:0:
294,310,176287,1,0,0:0:0:0:
285,332,176375,1,2,0:0:0:0:
283,342,176463,1,2,0:0:0:0:
282,352,176551,2,0,B|253:344|236:354|236:354|216:365|192:355,1,85,2|2,0:3|0:0,0:0:0:0:
212,86,176904,2,0,P|210:131|234:167,1,85,8|2,0:0|0:3,0:0:0:0:
15,233,177257,6,0,L|183:255,1,170,2|8,0:0|0:0,0:0:0:0:
372,288,177787,1,2,0:0:0:0:
317,137,177963,1,2,0:3:0:0:
401,162,178140,1,2,0:0:0:0:
420,78,178316,2,0,B|397:66|373:83|373:83|351:98|323:88,1,85,8|2,0:0|0:3,0:0:0:0:
132,10,178669,1,10,0:0:0:0:
56,8,181493,5,6,0:0:0:0:
84,86,181669,1,2,0:3:0:0:
148,40,181846,1,8,0:0:0:0:
84,86,182022,1,2,0:3:0:0:
234,237,182198,1,2,0:3:0:0:
66,214,182375,2,0,L|71:256,1,42.5,2|0,0:0|0:0,0:0:0:0:
122,326,182551,2,0,B|155:328|181:298|181:298|207:267|231:272,1,127.5,8|2,0:0|0:3,0:0:0:0:
312,334,182904,5,2,0:0:0:0:
263,152,183081,1,2,0:1:0:0:
442,101,183257,1,8,0:0:0:0:
487,259,183434,1,2,0:1:0:0:
472,249,183522,1,2,0:3:0:0:
470,268,183610,1,2,0:3:0:0:
383,175,183787,2,0,L|406:0,1,170,2|2,0:0|0:3,0:0:0:0:
303,224,184316,21,2,0:0:0:0:
239,177,184493,1,2,0:3:0:0:
198,260,184669,1,8,0:0:0:0:
57,168,184846,1,2,0:3:0:0:
141,347,185022,1,2,0:3:0:0:
262,380,185198,2,0,L|272:338,1,42.5,2|0,0:0|0:0,0:0:0:0:
191,231,185375,2,0,B|160:212|125:221|125:221|102:249|63:255,1,127.5,8|2,0:0|0:3,0:0:0:0:
0,223,185728,37,2,0:0:0:0:
166,47,185904,1,0,1:0:0:0:
214,121,186081,1,8,1:2:0:0:
329,27,186257,1,2,1:3:0:0:
331,40,186346,1,2,0:3:0:0:
333,54,186434,1,2,0:3:0:0:
451,156,186610,2,0,B|407:176|384:116|384:116|421:63|463:97,1,170,2|2,0:0|0:3,0:0:0:0:
311,218,187140,22,0,P|279:200|223:203,1,85,2|2,0:0|0:3,0:0:0:0:
419,256,187493,2,0,P|401:317|410:380,1,127.5,8|2,0:0|0:3,0:0:0:0:
322,376,187846,1,2,0:3:0:0:
253,284,188022,1,2,0:0:0:0:
48,382,188198,6,0,P|46:348|35:316,1,63.7500024318696,8|2,0:0|0:3,0:0:0:0:
195,77,188551,6,0,P|195:121|216:169,1,85,2|2,0:0|0:3,0:0:0:0:
95,341,188904,6,0,P|64:334|36:320,1,63.7500024318696,8|2,0:0|0:3,0:0:0:0:
368,222,189257,6,0,P|355:262|329:295,1,85,2|2,0:3|0:0,0:0:0:0:
95,341,189610,6,0,P|66:359|43:385,1,63.7500024318696,8|2,0:0|0:3,0:0:0:0:
68,130,189963,5,2,2:0:0:0:
131,173,190140,1,2,1:3:0:0:
222,104,190316,2,0,L|216:199,1,85,8|2,1:2|1:3,0:0:0:0:
294,376,190669,2,0,B|338:374|361:332|361:332|385:289|440:290,1,170,2|8,0:1|0:0,0:0:0:0:
471,140,191198,1,2,0:3:0:0:
471,140,191375,6,0,B|520:150|518:81|518:81|467:44|445:82,1,165.749992412568,2|0,0:1|0:0,0:0:0:0:
365,49,191728,2,0,P|337:125|336:184,1,127.5,10|2,0:1|0:3,0:0:0:0:
243,290,192081,1,2,0:1:0:0:
267,305,192257,2,0,L|236:120,1,170,2|2,0:0|0:1,0:0:0:0:
28,203,192787,21,6,0:0:0:0:
103,224,192963,1,2,0:3:0:0:
79,301,193140,1,8,0:0:0:0:
36,176,193316,1,2,0:3:0:0:
254,225,193493,1,2,0:3:0:0:
263,73,193669,2,0,L|274:113,1,42.5,2|0,0:0|0:0,0:0:0:0:
229,310,193846,2,0,P|206:239|151:273,1,127.5,8|2,0:0|0:3,0:0:0:0:
155,329,194199,21,2,0:0:0:0:
323,370,194375,1,2,0:1:0:0:
340,157,194551,1,8,0:0:0:0:
432,274,194728,1,2,0:1:0:0:
435,295,194816,1,2,0:3:0:0:
421,289,194904,1,2,0:3:0:0:
355,124,195081,2,0,B|398:120|430:169|430:169|453:209|502:208,1,170,2|2,0:0|0:3,0:0:0:0:
266,28,195610,37,2,0:0:0:0:
190,174,195787,1,2,0:3:0:0:
261,225,195963,2,0,L|269:137,1,85,8|2,0:0|0:3,0:0:0:0:
179,310,196316,1,2,0:3:0:0:
298,298,196493,1,2,0:0:0:0:
114,376,196669,2,0,P|100:322|34:280,1,127.5,8|2,0:0|0:3,0:0:0:0:
23,212,197022,5,2,0:0:0:0:
165,120,197198,1,0,1:0:0:0:
95,61,197375,1,8,1:2:0:0:
217,40,197551,1,2,1:3:0:0:
217,40,197640,1,2,0:3:0:0:
217,40,197728,1,2,0:3:0:0:
272,217,197904,2,0,P|283:130|322:38,1,170,2|2,0:0|0:3,0:0:0:0:
98,227,198434,22,0,P|140:204|178:215,1,85,2|2,0:0|0:3,0:0:0:0:
299,369,198787,2,0,P|241:334|221:271,1,127.5,8|2,0:0|0:3,0:0:0:0:
293,241,199140,1,2,0:3:0:0:
457,297,199316,1,2,0:0:0:0:
217,147,199493,22,0,P|249:143|286:135,1,63.7500024318696,8|2,0:0|0:3,0:0:0:0:
492,13,199846,6,0,L|474:104,1,85,2|2,0:0|0:3,0:0:0:0:
255,197,200198,6,0,P|239:172|215:148,1,63.7500024318696,8|2,0:0|0:3,0:0:0:0:
24,209,200551,6,0,L|42:300,1,85,2|2,0:3|0:0,0:0:0:0:
255,197,200904,6,0,P|265:165|280:139,1,63.75,8|0,0:0|0:0,0:0:0:0:
457,323,201257,5,2,2:0:0:0:
381,357,201434,1,2,1:3:0:0:
257,290,201610,2,0,L|160:290,1,85,8|2,1:2|1:3,0:0:0:0:
280,138,201963,2,0,B|318:150|340:191|340:191|360:236|412:240,1,170,2|8,0:1|0:0,0:0:0:0:
269,60,202493,1,2,0:3:0:0:
269,60,202669,6,0,P|248:29|204:101,1,165.749992412568,2|0,0:1|0:0,0:0:0:0:
194,191,203022,2,0,P|145:165|74:163,1,127.5,10|2,0:1|0:3,0:0:0:0:
90,241,203375,1,2,0:1:0:0:
13,313,203551,1,2,0:0:0:0:
138,374,203728,1,10,0:1:0:0:
139,365,203816,1,0,0:0:0:0:
139,356,203904,1,2,0:1:0:0:
140,347,203993,1,0,0:0:0:0:
164,320,204081,6,0,L|303:337,1,136,2|8,0:0|0:0,0:0:0:0:
426,289,204610,1,2,0:3:0:0:
348,176,204787,2,0,L|358:244,1,68,2|2,0:3|0:0,0:0:0:0:
388,100,205140,5,8,0:0:0:0:
351,32,205316,1,2,0:3:0:0:
427,17,205493,1,2,0:0:0:0:
472,125,205669,1,2,0:3:0:0:
472,125,205757,1,0,0:0:0:0:
472,125,205846,1,8,0:0:0:0:
347,163,206022,1,2,0:3:0:0:
265,107,206198,6,0,L|277:36,1,68,2|2,0:3|0:0,0:0:0:0:
188,186,206551,1,8,0:0:0:0:
123,138,206728,1,2,0:3:0:0:
57,191,206904,2,0,L|76:331,1,136,2|8,0:0|0:0,0:0:0:0:
229,352,207434,2,0,P|200:336|165:331,1,68,2|2,0:3|0:3,0:0:0:0:
268,195,207787,1,2,0:0:0:0:
344,273,207963,5,8,0:0:0:0:
332,290,208051,1,0,0:0:0:0:
327,310,208140,1,2,0:3:0:0:
327,330,208228,1,2,0:3:0:0:
338,346,208316,2,0,P|418:306|460:141,1,255,2|0,0:0|0:0,0:0:0:0:
171,67,209728,2,0,L|167:83,2,17,2|0|0,0:0|0:0|0:0,0:0:0:0:
385,181,211140,2,0,L|381:197,2,17,2|0|0,0:0|0:0|0:0,0:0:0:0:
132,216,212552,2,0,L|128:232,2,17,2|0|0,0:0|0:0|0:0,0:0:0:0:
344,283,213963,2,0,L|328:351,1,68,2|0,0:0|0:0,0:0:0:0:
256,192,214757,12,0,218110,0:0:0:0:
249,124,218198,6,0,B|187:166|187:166|229:314,1,221
