osu file format v14

[General]
AudioFilename: audio.mp3
AudioLeadIn: 0
PreviewTime:69629
Countdown: 0
SampleSet: Soft
StackLeniency: 0.8
Mode: 0
LetterboxInBreaks: 0
WidescreenStoryboard: 1

[Editor]
Bookmarks: 2733,8250,11009,13767,16526,19974,25491,31009,36526,42043,47905,53078,58595,62560,64112,69629,72388,74974,78940,80664,83422,84802,86009,87905,97043,98595
DistanceSpacing: 1.2
BeatDivisor: 4
GridSize: 8
TimelineZoom: 1.400006

[Metadata]
Title:Kimi Sketch
TitleUnicode:キミスケッチ
Artist:Amehurashi
ArtistUnicode:アメフラシ
Creator:R3aCt10n
Version:Normal
Source:
Tags:japanese j-pop jpop pop rock jrock j-rock 葉露 haro biz_nuko 雪月 yuzuki のう nounoknown 潜 mog mashimo 真霜 best friend hate short female vocal amefurashi
BeatmapID:3497896
BeatmapSetID:1582517

[Difficulty]
HPDrainRate:4
CircleSize:3.3
OverallDifficulty:4
ApproachRate:5
SliderMultiplier:0.999999999999999
SliderTickRate:1

[Events]
//Background and Video events
0,0,"BG.png",0,0
Video,1695,"Video.mp4"
//Break Periods
//Storyboard Layer 0 (Background)
//Storyboard Layer 1 (Fail)
//Storyboard Layer 2 (Pass)
//Storyboard Layer 3 (Foreground)
//Storyboard Layer 4 (Overlay)
//Storyboard Sound Samples

[TimingPoints]
1354,344.827586206897,4,2,1,50,1,0
1354,-111.111111111111,4,2,1,50,0,0
8250,-111.111111111111,4,2,1,70,0,0
19974,344.827586206897,4,2,1,50,1,0
19974,-111.111111111111,4,2,1,50,0,0
25491,-111.111111111111,4,2,1,65,0,0
31008,-111.111111111111,4,2,1,50,0,0
36525,-111.111111111111,4,2,1,65,0,0
42042,-111.111111111111,4,2,1,60,0,0
64111,-111.111111111111,4,2,1,65,0,0
69629,-100,4,2,1,70,0,1
79801,-100,4,2,1,60,0,0
80663,-100,4,2,1,75,0,1
91698,-111.111111111111,4,2,1,65,0,0
97301,-111.111111111111,4,2,1,60,0,0
98594,-111.111111111111,4,2,1,50,0,0

[Colours]
Combo1 : 23,247,90
Combo2 : 0,226,225
Combo3 : 0,177,255
Combo4 : 255,225,0

[HitObjects]
133,38,2733,6,0,P|148:102|151:169,1,134.999995880127,2|0,0:2|0:0,0:0:0:0:
195,201,3422,2,0,L|205:244,2,44.999998626709,2|0|2,0:2|0:0|0:2,0:0:0:0:
277,131,4112,2,0,P|341:120|394:159,1,134.999995880127,2|0,0:2|0:0,0:0:0:0:
442,185,4802,2,0,L|452:228,2,44.999998626709,2|0|2,0:2|0:0|0:2,0:0:0:0:
374,269,5491,6,0,B|326:293|282:261|282:261|242:229|190:249,1,179.999994506836,2|2,0:2|0:2,0:0:0:0:
69,95,8250,6,0,L|26:106,2,44.999998626709,0|8|0,1:2|1:2|1:2,0:0:0:0:
113,126,8767,1,8,1:2:0:0:
113,126,8940,2,0,L|155:137,1,44.999998626709,0|8,1:2|1:2,0:0:0:0:
193,97,9285,2,0,L|235:85,1,44.999998626709,0|8,1:2|1:2,0:0:0:0:
335,42,9802,1,8,1:2:0:0:
335,42,9975,2,0,L|341:86,1,44.999998626709,0|8,1:2|1:2,0:0:0:0:
320,136,10319,2,0,P|308:178|323:220,1,89.999997253418,0|0,1:2|1:2,0:0:0:0:
391,310,11009,6,0,L|380:353,2,44.999998626709,4|8|0,1:2|1:2|1:2,0:0:0:0:
436,280,11526,1,8,1:2:0:0:
436,280,11699,2,0,L|442:236,1,44.999998626709,0|8,1:2|1:2,0:0:0:0:
478,195,12044,2,0,L|472:151,1,44.999998626709,0|8,1:2|1:2,0:0:0:0:
409,62,12560,1,8,1:2:0:0:
409,62,12733,2,0,L|365:56,1,44.999998626709,0|8,1:2|1:2,0:0:0:0:
327,95,13077,2,0,P|282:100|237:93,1,89.999997253418,0|0,1:2|1:2,0:0:0:0:
183,96,13595,1,8,1:2:0:0:
183,96,13767,6,0,P|179:52|200:13,2,89.999997253418,8|8|8,1:2|1:2|1:2,0:0:0:0:
109,175,14802,1,8,1:2:0:0:
199,233,15147,2,0,P|243:227|288:224,2,89.999997253418,8|8|8,1:2|1:2|1:2,0:0:0:0:
111,296,16181,1,8,1:2:0:0:
188,371,16526,5,8,1:2:0:0:
188,371,16698,2,0,L|232:365,1,44.999998626709,0|0,1:2|1:2,0:0:0:0:
267,323,17043,2,0,P|311:319|350:340,1,89.999997253418,8|0,0:2|1:2,0:0:0:0:
392,374,17560,2,0,L|436:368,1,44.999998626709,0|8,1:2|0:2,0:0:0:0:
459,318,17905,6,0,P|462:228|482:140,1,179.999994506836,0|0,3:2|3:2,0:0:0:0:
298,96,19974,6,0,P|260:72|216:75,1,89.999997253418,6|2,1:2|1:2,0:0:0:0:
122,22,20663,2,0,L|98:111,1,89.999997253418,10|0,0:2|0:0,0:0:0:0:
55,141,21180,2,0,L|66:183,1,44.999998626709,2|2,1:2|0:2,0:0:0:0:
150,261,21698,1,2,0:2:0:0:
150,261,21870,1,2,1:2:0:0:
66,329,22215,2,0,L|22:318,2,44.999998626709,2|2|2,0:2|0:2|0:2,0:0:0:0:
97,372,22732,6,0,L|141:361,1,44.999998626709,2|2,1:2|0:2,0:0:0:0:
190,339,23077,2,0,L|234:350,1,44.999998626709,2|2,1:2|0:2,0:0:0:0:
278,380,23422,1,10,0:2:0:0:
353,236,23939,1,2,1:2:0:0:
353,236,24111,1,2,2:2:0:0:
428,316,24456,2,0,L|472:305,1,44.999998626709,2|2,0:2|1:2,0:0:0:0:
508,266,24801,1,10,2:2:0:0:
461,168,25146,2,0,L|417:157,1,44.999998626709,2|0,1:2|0:0,0:0:0:0:
369,130,25491,6,0,P|324:135|279:132,1,89.999997253418,6|2,1:2|1:2,0:0:0:0:
212,216,26180,2,0,L|169:227,1,44.999998626709,2|8,1:2|0:2,0:0:0:0:
134,269,26525,2,0,L|93:253,1,44.999998626709,2|8,1:2|0:2,0:0:0:0:
52,215,26870,2,0,P|46:170|66:131,1,89.999997253418,2|2,1:2|1:2,0:0:0:0:
117,111,27387,1,10,0:2:0:0:
117,111,27560,1,2,1:2:0:0:
188,29,27905,2,0,L|229:45,1,44.999998626709,0|10,1:2|0:2,0:0:0:0:
269,82,28249,5,2,1:2:0:0:
372,52,28594,2,0,L|362:8,2,44.999998626709,2|10|2,1:2|0:2|1:2,0:0:0:0:
412,88,29111,1,10,0:2:0:0:
412,88,29284,2,0,L|406:133,1,44.999998626709,2|10,1:2|0:2,0:0:0:0:
433,179,29629,1,0,1:2:0:0:
380,273,29974,2,0,L|335:267,1,44.999998626709,2|10,3:2|0:2,0:0:0:0:
283,251,30318,2,0,L|240:263,2,44.999998626709,10|10|0,3:2|0:2|3:2,0:0:0:0:
303,144,31008,6,0,L|279:57,1,89.999997253418,6|2,1:2|1:2,0:0:0:0:
180,12,31697,2,0,P|135:8|98:32,1,89.999997253418,10|0,0:2|0:0,0:0:0:0:
59,69,32214,1,2,1:2:0:0:
59,69,32387,1,2,2:2:0:0:
155,122,32732,2,0,L|166:165,1,44.999998626709,2|2,0:2|1:2,0:0:0:0:
175,218,33077,2,0,P|137:242|93:239,1,89.999997253418,8|2,2:2|0:2,0:0:0:0:
40,248,33594,1,2,0:2:0:0:
40,248,33766,6,0,L|62:335,1,89.999997253418,2|2,1:2|1:2,0:0:0:0:
165,367,34456,2,0,P|208:376|248:358,1,89.999997253418,10|0,0:2|0:0,0:0:0:0:
293,327,34973,1,2,1:2:0:0:
293,327,35146,1,2,2:2:0:0:
390,374,35491,2,0,L|433:363,1,44.999998626709,2|2,0:2|1:2,0:0:0:0:
470,324,35836,2,0,P|464:279|434:247,1,89.999997253418,10|2,2:2|0:2,0:0:0:0:
354,175,36525,6,0,P|309:169|264:172,1,89.999997253418,14|10,0:2|3:2,0:0:0:0:
181,242,37214,2,0,L|140:225,1,44.999998626709,10|2,0:2|1:2,0:0:0:0:
99,188,37559,2,0,L|58:204,1,44.999998626709,10|2,0:2|1:2,0:0:0:0:
18,166,37904,2,0,P|13:121|33:82,1,89.999997253418,10|10,0:2|0:2,0:0:0:0:
70,43,38421,1,2,1:2:0:0:
70,43,38594,1,10,0:2:0:0:
169,86,38939,2,0,L|211:75,1,44.999998626709,8|2,0:2|0:2,0:0:0:0:
254,39,39284,6,0,L|342:53,1,89.999997253418,2|2,1:2|1:2,0:0:0:0:
425,123,39974,2,0,L|469:113,2,44.999998626709,2|10|2,1:2|0:2|1:2,0:0:0:0:
394,167,40491,1,10,0:2:0:0:
394,167,40663,1,2,1:2:0:0:
459,253,41008,2,0,L|448:296,1,44.999998626709,10|2,0:2|1:2,0:0:0:0:
424,345,41353,1,0,3:2:0:0:
261,264,42042,5,4,1:2:0:0:
190,346,42387,1,10,0:2:0:0:
104,280,42732,2,0,L|123:192,1,89.999997253418,2|0,0:2|0:0,0:0:0:0:
159,151,43249,2,0,P|209:143|247:177,1,89.999997253418,2|10,1:2|0:2,0:0:0:0:
281,198,43767,2,0,L|324:187,1,44.999998626709,2|2,0:2|1:2,0:0:0:0:
369,157,44111,1,8,0:2:0:0:
383,49,44456,1,8,0:2:0:0:
280,14,44801,6,0,L|192:34,1,89.999997253418,2|10,1:2|0:2,0:0:0:0:
155,73,45318,1,2,1:2:0:0:
155,73,45491,2,0,L|110:64,1,44.999998626709,2|10,0:2|0:2,0:0:0:0:
19,5,46008,2,0,P|-2:43|7:86,1,89.999997253418,2|10,1:2|0:2,0:0:0:0:
92,152,46698,2,0,P|102:195|80:233,1,89.999997253418,2|2,1:2|0:2,0:0:0:0:
48,277,47215,2,0,L|57:322,1,44.999998626709,10|2,0:2|0:2,0:0:0:0:
93,361,47560,5,0,1:2:0:0:
149,269,47905,1,14,0:2:0:0:
225,344,48249,1,2,0:2:0:0:
225,344,48422,2,0,L|268:333,1,44.999998626709,10|0,0:2|0:0,0:0:0:0:
322,330,48767,2,0,P|342:290|332:247,1,89.999997253418,2|10,1:2|0:2,0:0:0:0:
240,189,49456,1,2,1:2:0:0:
240,189,49629,2,0,L|196:199,1,44.999998626709,10|0,0:2|0:0,0:0:0:0:
146,219,49974,2,0,L|102:209,1,44.999998626709,8|2,0:2|0:2,0:0:0:0:
67,168,50318,5,0,1:2:0:0:
126,77,50663,2,0,L|136:121,1,44.999998626709,10|2,0:2|1:2,0:0:0:0:
239,91,51180,2,0,L|229:47,1,44.999998626709,10|2,0:2|0:2,0:0:0:0:
278,24,51525,2,0,P|322:19|363:37,1,89.999997253418,2|10,1:2|0:2,0:0:0:0:
399,77,52042,2,0,L|379:165,1,89.999997253418,2|10,0:2|0:2,0:0:0:0:
284,218,52732,1,8,3:2:0:0:
200,149,53077,5,0,3:2:0:0:
124,226,53422,1,2,1:2:0:0:
196,306,53767,2,0,P|239:315|281:301,1,89.999997253418,2|0,1:2|1:2,0:0:0:0:
328,327,54284,2,0,P|370:317|408:340,1,89.999997253418,2|2,0:2|0:2,0:0:0:0:
460,325,54801,1,2,1:2:0:0:
460,325,54974,2,0,L|480:237,1,89.999997253418,2|0,0:2|0:0,0:0:0:0:
405,158,55663,1,2,0:2:0:0:
405,158,55836,6,0,P|396:206|385:246,1,89.999997253418,2|2,1:2|1:2,0:0:0:0:
333,262,56353,2,0,L|342:305,2,44.999998626709,2|2|2,0:2|1:2|0:2,0:0:0:0:
284,238,56870,1,2,1:2:0:0:
284,238,57043,2,0,P|245:217|202:227,1,89.999997253418,2|2,0:2|0:2,0:0:0:0:
105,179,57732,1,2,0:2:0:0:
153,82,58077,2,0,P|200:68|249:59,1,89.999997253418,2|2,0:2|0:2,0:0:0:0:
294,56,58594,5,0,1:2:0:0:
391,8,58939,1,2,1:2:0:0:
479,69,59284,1,2,1:2:0:0:
479,69,59456,2,0,L|469:113,1,44.999998626709,2|0,0:2|1:2,0:0:0:0:
438,157,59802,2,0,P|385:165|344:129,1,89.999997253418,2|2,0:2|0:2,0:0:0:0:
258,193,60491,1,2,0:2:0:0:
258,193,60663,2,0,L|161:176,1,89.999997253418,2|0,1:2|1:2,0:0:0:0:
125,146,61180,1,2,1:2:0:0:
125,146,61353,5,2,1:2:0:0:
39,211,61698,1,2,1:2:0:0:
132,264,62042,1,2,1:2:0:0:
48,332,62387,2,0,P|55:360|60:388,1,44.999998626709,2|10,1:2|0:2,0:0:0:0:
238,191,64111,6,0,P|282:180|329:178,1,89.999997253418,6|2,1:2|0:2,0:0:0:0:
409,233,64801,1,10,0:2:0:0:
470,155,65146,1,2,0:2:0:0:
399,84,65491,2,0,P|354:73|307:71,1,89.999997253418,10|0,0:2|1:2,0:0:0:0:
225,19,66180,2,0,P|204:58|214:101,1,89.999997253418,10|0,0:2|1:2,0:0:0:0:
153,190,66870,5,10,0:2:0:0:
237,257,67215,2,0,P|258:250|280:247,1,44.999998626709,0|0,1:2|3:2,0:0:0:0:
312,292,67560,2,0,P|333:298|355:301,1,44.999998626709,0|0,3:2|3:2,0:0:0:0:
395,265,67905,2,0,P|416:258|438:254,1,44.999998626709,0|0,3:2|3:2,0:0:0:0:
298,111,69629,6,0,P|303:86|311:62,2,50,14|2|10,0:2|1:2|0:2,0:0:0:0:
271,153,70146,1,0,1:2:0:0:
271,153,70318,2,0,P|220:162|174:130,1,99.9999999999999,10|10,0:2|0:2,0:0:0:0:
98,80,71008,2,0,P|90:103|84:128,1,50,10|2,0:2|1:2,0:0:0:0:
42,156,71353,2,0,P|49:179|55:204,1,50,10|2,0:2|1:2,0:0:0:0:
93,236,71698,1,10,0:2:0:0:
50,326,72042,1,10,0:2:0:0:
141,367,72387,6,0,P|194:354|248:343,1,99.9999999999999,10|10,0:2|0:2,0:0:0:0:
310,275,73077,2,0,P|258:255|206:238,1,99.9999999999999,10|10,0:2|0:2,0:0:0:0:
191,197,73594,1,0,1:2:0:0:
191,197,73767,2,0,P|256:148|338:150,1,150,10|8,0:2|0:2,0:0:0:0:
389,219,74629,1,8,0:2:0:0:
478,175,74974,1,2,1:2:0:0:
478,175,75146,6,0,P|466:126|455:77,1,99.9999999999999,6|10,0:2|0:2,0:0:0:0:
370,23,75836,2,0,P|327:0|279:8,1,99.9999999999999,2|10,1:2|0:2,0:0:0:0:
207,79,76525,2,0,P|156:88|110:56,1,99.9999999999999,2|8,1:2|0:2,0:0:0:0:
73,39,77042,1,2,0:2:0:0:
73,39,77215,1,2,1:2:0:0:
9,116,77560,1,10,0:2:0:0:
75,190,77905,6,0,P|123:201|172:212,1,99.9999999999999,2|8,1:2|0:2,0:0:0:0:
206,175,78422,2,0,P|254:164|303:152,1,99.9999999999999,2|0,0:2|0:0,0:0:0:0:
353,161,78939,1,10,0:2:0:0:
353,161,79111,2,0,P|386:196|391:245,1,99.9999999999999,2|2,0:2|0:2,0:0:0:0:
347,336,79801,1,10,0:2:0:0:
278,262,80146,1,10,0:2:0:0:
278,262,80318,1,10,0:2:0:0:
201,326,80663,6,0,P|196:351|188:375,2,50,14|2|10,0:2|1:2|0:2,0:0:0:0:
195,276,81180,1,0,1:2:0:0:
195,276,81353,2,0,P|152:250|103:257,1,99.9999999999999,10|10,0:2|0:2,0:0:0:0:
54,170,82042,1,10,0:2:0:0:
54,170,82215,2,0,P|30:162|5:156,2,50,0|10|2,1:2|0:2|1:2,0:0:0:0:
98,147,82732,6,0,P|122:141|146:133,1,50,10|0,0:2|1:2,0:0:0:0:
190,156,83076,1,10,0:2:0:0:
243,71,83422,6,0,P|266:78|291:84,1,50,10|2,0:2|1:2,0:0:0:0:
325,46,83767,2,0,P|348:53|373:59,1,50,10|2,0:2|1:2,0:0:0:0:
422,63,84111,2,0,P|429:111|406:154,1,99.9999999999999,10|10,0:2|0:2,0:0:0:0:
443,186,84628,1,0,1:2:0:0:
443,186,84801,6,0,P|416:257|443:327,1,150,10|8,0:2|0:2,0:0:0:0:
359,382,85663,1,4,0:2:0:0:
271,333,86008,1,2,1:2:0:0:
271,333,86180,2,0,P|259:284|248:235,1,99.9999999999999,6|8,0:2|0:2,0:0:0:0:
285,201,86698,2,0,P|295:153|307:104,1,99.9999999999999,2|0,0:2|0:0,0:0:0:0:
288,56,87215,2,0,P|263:50|240:43,1,50,10|2,0:2|0:0,0:0:0:0:
197,70,87560,5,0,1:2:0:0:
119,133,87905,2,0,P|95:125|70:119,1,50,10|0,0:2|0:0,0:0:0:0:
33,153,88249,2,0,P|10:197|39:250,1,99.9999999999999,2|8,1:2|0:2,0:0:0:0:
49,288,88767,1,2,0:2:0:0:
49,288,88939,1,2,1:2:0:0:
115,363,89284,1,8,0:2:0:0:
115,363,89456,1,2,0:2:0:0:
174,282,89801,1,2,0:2:0:0:
174,282,89974,2,0,P|198:287|222:295,1,50,10|0,0:2|0:0,0:0:0:0:
271,301,90318,6,0,P|292:256|288:207,1,99.9999999999999,0|10,1:2|0:2,0:0:0:0:
243,185,90836,2,0,P|239:135|260:91,1,99.9999999999999,10|8,0:2|0:2,0:0:0:0:
301,61,91353,1,10,0:2:0:0:
232,4,91698,1,4,0:2:0:0:
168,65,92042,2,0,P|146:59|124:53,1,44.999998626709,2|0,0:2|3:2,0:0:0:0:
81,68,92387,2,0,P|54:102|56:146,1,89.999997253418,0|2,0:0|3:2,0:0:0:0:
65,191,92905,1,2,1:2:0:0:
65,191,93077,6,0,P|109:180|154:167,1,89.999997253418,8|2,0:2|0:2,0:0:0:0:
232,209,93767,1,0,0:0:0:0:
300,151,94111,1,2,3:2:0:0:
375,200,94456,2,0,P|361:253|350:306,1,89.999997253418,6|2,1:2|0:2,0:0:0:0:
277,336,95146,2,0,P|255:330|233:324,1,44.999998626709,10|0,0:2|0:0,0:0:0:0:
198,351,95490,2,0,P|176:356|154:361,1,44.999998626709,0|2,0:0|1:2,0:0:0:0:
110,349,95836,6,0,B|52:284|124:190|124:190|190:88|114:10,1,359.999989013672,14|2,0:2|0:2,0:0:0:0:
231,146,98594,5,2,0:2:0:0:
315,178,99974,1,2,0:2:0:0:
270,253,101353,1,2,0:2:0:0:
