osu file format v14

[General]
AudioFilename: audio.mp3
AudioLeadIn: 0
PreviewTime: 67239
Countdown: 0
SampleSet: Soft
StackLeniency: 0.7
Mode: 3
LetterboxInBreaks: 0
SpecialStyle: 0
WidescreenStoryboard: 1

[Editor]
DistanceSpacing: 1.4
BeatDivisor: 4
GridSize: 4
TimelineZoom: 1.8

[Metadata]
Title:Kimi Sketch
TitleUnicode:キミスケッチ
Artist:Amehurashi
ArtistUnicode:アメフラシ
Creator:Crisper
Version:Normal
Source:
Tags:deta5859 amefurashi japanese j-rock jrock rock 葉露 Haro biz_nuko 雪月 yuzuki aplysia のう nounoknown 潜 mog 真霜 mashimo best friend hate 日向 hikagekko vocal female
BeatmapID:3372375
BeatmapSetID:1651011

[Difficulty]
HPDrainRate:7
CircleSize:4
OverallDifficulty:7
ApproachRate:5
SliderMultiplier:1.4
SliderTickRate:1

[Events]
//Background and Video events
Video,35,"video.mp4"
0,0,"bg2.jpg",0,0
//Break Periods
//Storyboard Layer 0 (Background)
//Storyboard Layer 1 (Fail)
//Storyboard Layer 2 (Pass)
//Storyboard Layer 3 (Foreground)
//Storyboard Layer 4 (Overlay)
//Storyboard Sound Samples
Sample,34825,0,"cymlocrsh.wav",60
Sample,72929,0,"cymlocrsh.wav",60
Sample,78446,0,"cymlocrsh.wav",60
Sample,83963,0,"cymlocrsh.wav",60
Sample,88618,0,"cymlocrsh.wav",60

[TimingPoints]
1032,344.827586206897,4,2,1,40,1,0
18274,344.827586206897,4,2,1,40,1,0
67929,-100,4,2,1,40,0,1
89998,-100,4,2,1,40,0,0

[HitObjects]
192,192,342,5,0,0:0:0:0:
320,192,687,1,0,0:0:0:0:
448,192,859,1,0,0:0:0:0:
64,192,1032,128,0,1376:0:0:0:0:
192,192,1376,128,0,1721:0:0:0:0:
448,192,1721,1,0,0:0:0:0:
64,192,1894,1,0,0:0:0:0:
448,192,2066,1,0,0:0:0:0:
64,192,2238,1,0,0:0:0:0:
448,192,2411,128,0,2756:0:0:0:0:
320,192,2756,128,0,3100:0:0:0:0:
64,192,3100,1,0,0:0:0:0:
448,192,3273,1,0,0:0:0:0:
64,192,3445,1,0,0:0:0:0:
448,192,3618,1,0,0:0:0:0:
192,192,3790,128,0,4135:0:0:0:0:
320,192,4135,128,0,4480:0:0:0:0:
64,192,4480,1,0,0:0:0:0:
448,192,4825,1,0,0:0:0:0:
192,192,5169,1,0,0:0:0:0:
64,192,5342,1,0,0:0:0:0:
448,192,5514,128,0,5859:0:0:0:0:
320,192,5859,128,0,6204:0:0:0:0:
320,192,6549,1,0,0:0:0:100:e80 kick L.wav
448,192,6549,1,0,0:0:0:60:cymlocrsh.wav
64,192,6721,1,0,0:0:0:50:LR_Snare Clap High.wav
192,192,6721,1,0,0:0:0:0:
448,192,6894,1,0,0:0:0:100:e80 kick L.wav
64,192,7066,1,0,0:0:0:50:LR_Snare Clap High.wav
320,192,7066,1,0,0:0:0:0:
192,192,7238,1,0,0:0:0:100:e80 kick L.wav
320,192,7411,1,0,0:0:0:50:LR_Snare Clap High.wav
448,192,7411,1,0,0:0:0:0:
192,192,7583,1,0,0:0:0:100:e80 kick L.wav
64,192,7756,1,0,0:0:0:50:LR_Snare Clap High.wav
448,192,7756,1,0,0:0:0:0:
320,192,7928,1,0,0:0:0:100:e80 kick L.wav
64,192,8100,1,0,0:0:0:50:LR_Snare Clap High.wav
192,192,8100,1,0,0:0:0:0:
320,192,8273,1,0,0:0:0:100:e80 kick L.wav
192,192,8445,1,0,0:0:0:50:LR_Snare Clap High.wav
448,192,8445,1,0,0:0:0:0:
64,192,8618,1,0,0:0:0:100:e80 kick L.wav
192,192,8790,1,0,0:0:0:50:LR_Snare Clap High.wav
320,192,8790,1,0,0:0:0:0:
448,192,8963,1,0,0:0:0:100:e80 kick L.wav
64,192,9135,1,0,0:0:0:50:LR_Snare Clap High.wav
192,192,9135,1,0,0:0:0:0:
320,192,9307,1,0,0:0:0:100:e80 kick L.wav
448,192,9307,1,0,0:0:0:60:cymlocrsh.wav
64,192,9480,1,0,0:0:0:50:LR_Snare Clap High.wav
192,192,9480,1,0,0:0:0:0:
448,192,9652,1,0,0:0:0:100:e80 kick L.wav
64,192,9825,1,0,0:0:0:50:LR_Snare Clap High.wav
320,192,9825,1,0,0:0:0:0:
192,192,9997,1,0,0:0:0:100:e80 kick L.wav
320,192,10169,1,0,0:0:0:50:LR_Snare Clap High.wav
448,192,10169,1,0,0:0:0:0:
64,192,10342,1,0,0:0:0:100:e80 kick L.wav
192,192,10514,1,0,0:0:0:50:LR_Snare Clap High.wav
320,192,10514,1,0,0:0:0:0:
448,192,10687,1,0,0:0:0:100:e80 kick L.wav
64,192,10859,1,0,0:0:0:50:LR_Snare Clap High.wav
320,192,10859,1,0,0:0:0:0:
192,192,11032,1,0,0:0:0:100:e80 kick L.wav
64,192,11204,1,0,0:0:0:50:LR_Snare Clap High.wav
448,192,11204,1,0,0:0:0:0:
320,192,11376,1,0,0:0:0:100:e80 kick L.wav
64,192,11549,1,0,0:0:0:50:LR_Snare Clap High.wav
192,192,11549,1,0,0:0:0:0:
320,192,11721,1,0,0:0:0:100:e80 kick L.wav
448,192,11721,1,0,0:0:0:50:LR_Snare Clap High.wav
64,192,11894,1,0,0:0:0:50:LR_Snare Clap High.wav
192,192,11980,1,0,0:0:0:50:LR_Snare Clap High.wav
320,192,12066,1,0,0:0:0:100:e80 kick L.wav
448,192,12066,1,0,0:0:0:50:LR_Snare Clap High.wav
64,192,12411,1,0,0:0:0:100:e80 kick L.wav
448,192,12411,1,0,0:0:0:50:LR_Snare Clap High.wav
192,192,12756,1,0,0:0:0:100:e80 kick L.wav
448,192,12756,1,0,0:0:0:50:LR_Snare Clap High.wav
192,192,13100,1,0,0:0:0:100:e80 kick L.wav
320,192,13100,1,0,0:0:0:50:LR_Snare Clap High.wav
64,192,13445,1,0,0:0:0:100:e80 kick L.wav
320,192,13445,1,0,0:0:0:50:LR_Snare Clap High.wav
64,192,13790,1,0,0:0:0:100:e80 kick L.wav
448,192,13790,1,0,0:0:0:50:LR_Snare Clap High.wav
64,192,14135,1,0,0:0:0:100:e80 kick L.wav
192,192,14135,1,0,0:0:0:50:LR_Snare Clap High.wav
192,192,14480,1,0,0:0:0:100:e80 kick L.wav
320,192,14480,1,0,0:0:0:50:LR_Snare Clap High.wav
64,192,14825,1,0,0:0:0:60:cymlocrsh.wav
448,192,14825,1,0,0:0:0:50:LR_Snare Clap High.wav
320,192,14997,1,0,0:0:0:100:e80 kick L.wav
192,192,15169,1,0,0:0:0:100:e80 kick L.wav
64,192,15342,1,0,0:0:0:50:LR_Snare Clap High.wav
448,192,15342,1,0,0:0:0:0:
320,192,15514,1,0,0:0:0:100:e80 kick L.wav
64,192,15687,1,0,0:0:0:50:rock2_7_a1.wav
192,192,15859,1,0,0:0:0:65:rock2_7_d2.wav
320,192,16032,1,0,0:0:0:50:LR_Snare Clap High.wav
448,192,16032,1,0,0:0:0:0:
64,192,16204,1,0,0:0:0:100:e80 kick L.wav
192,192,16204,1,0,0:0:0:50:LR_Snare Clap High.wav
64,192,16463,1,0,0:0:0:100:e80 kick L.wav
448,192,16463,1,0,0:0:0:50:LR_Snare Clap High.wav
320,192,16721,1,0,0:0:0:100:e80 kick L.wav
448,192,16721,1,0,0:0:0:50:LR_Snare Clap High.wav
64,192,16894,1,0,0:0:0:50:LR_Snare Clap High.wav
192,192,16894,1,0,0:0:0:0:
448,192,17009,1,0,0:0:0:50:rock2_7_a1.wav
320,192,17123,1,0,0:0:0:50:rock2_7_a1.wav
192,192,17238,1,0,0:0:0:65:rock2_7_d2.wav
64,192,17353,1,0,0:0:0:100:e80 kick L.wav
320,192,17468,1,0,0:0:0:50:LR_Snare Clap High.wav
448,192,17468,1,0,0:0:0:0:
448,192,18100,1,0,0:0:0:50:rock2_7_a1.wav
320,192,18187,1,0,0:0:0:65:rock2_7_d2.wav
192,192,18273,1,0,0:0:0:100:e80 kick L.wav
64,192,18273,1,0,0:0:0:60:cymlocrsh.wav
64,192,18618,1,0,0:0:0:100:e80 kick L.wav
64,192,18963,1,0,0:0:0:100:e80 kick L.wav
448,192,18963,1,0,0:0:0:50:LR_Snare Clap High.wav
320,192,19308,1,0,0:0:0:0:
192,192,19480,1,0,0:0:0:100:e80 kick L.wav
448,192,19653,1,0,0:0:0:0:
192,192,19825,1,0,0:0:0:100:e80 kick L.wav
64,192,19998,1,0,0:0:0:0:
320,192,20170,1,0,0:0:0:100:e80 kick L.wav
192,192,20342,1,0,0:0:0:50:LR_Snare Clap High.wav
448,192,20342,1,0,0:0:0:0:
64,192,20515,1,0,0:0:0:0:
448,192,20687,1,0,0:0:0:0:
320,192,20860,1,0,0:0:0:0:
64,192,21032,1,0,0:0:0:100:e80 kick L.wav
192,192,21032,1,0,0:0:0:0:
64,192,21377,1,0,0:0:0:100:e80 kick L.wav
64,192,21722,1,0,0:0:0:100:e80 kick L.wav
448,192,21722,1,0,0:0:0:50:LR_Snare Clap High.wav
320,192,22067,1,0,0:0:0:0:
192,192,22239,1,0,0:0:0:100:e80 kick L.wav
448,192,22411,1,0,0:0:0:0:
320,192,22584,1,0,0:0:0:100:e80 kick L.wav
64,192,22756,1,0,0:0:0:0:
192,192,22929,1,0,0:0:0:100:e80 kick L.wav
320,192,23101,1,0,0:0:0:50:LR_Snare Clap High.wav
448,192,23101,1,0,0:0:0:0:
192,192,23274,1,0,0:0:0:100:e80 kick L.wav
64,192,23446,1,0,0:0:0:100:e80 kick L.wav
448,192,23446,128,0,23791:0:0:0:0:
64,192,23791,1,0,0:0:0:100:e80 kick L.wav
192,192,23791,1,0,0:0:0:60:cymlocrsh.wav
320,192,23963,1,0,0:0:0:50:LR_Snare Clap High.wav
448,192,23963,1,0,0:0:0:0:
192,192,24136,1,0,0:0:0:100:e80 kick L.wav
64,192,24308,1,0,0:0:0:50:LR_Snare Clap High.wav
448,192,24308,1,0,0:0:0:0:
320,192,24480,1,0,0:0:0:100:e80 kick L.wav
64,192,24653,1,0,0:0:0:50:LR_Snare Clap High.wav
192,192,24653,1,0,0:0:0:0:
448,192,24825,1,0,0:0:0:100:e80 kick L.wav
192,192,24998,1,0,0:0:0:50:LR_Snare Clap High.wav
320,192,24998,1,0,0:0:0:0:
64,192,25170,1,0,0:0:0:100:e80 kick L.wav
192,192,25342,1,0,0:0:0:50:LR_Snare Clap High.wav
448,192,25342,1,0,0:0:0:0:
320,192,25515,1,0,0:0:0:100:e80 kick L.wav
64,192,25687,1,0,0:0:0:50:LR_Snare Clap High.wav
192,192,25687,1,0,0:0:0:0:
448,192,25860,1,0,0:0:0:100:e80 kick L.wav
64,192,26032,1,0,0:0:0:50:LR_Snare Clap High.wav
320,192,26032,1,0,0:0:0:0:
192,192,26205,1,0,0:0:0:100:e80 kick L.wav
320,192,26377,1,0,0:0:0:50:LR_Snare Clap High.wav
448,192,26377,1,0,0:0:0:0:
64,192,26549,1,0,0:0:0:100:e80 kick L.wav
192,192,26549,1,0,0:0:0:60:cymlocrsh.wav
320,192,26722,1,0,0:0:0:50:LR_Snare Clap High.wav
448,192,26722,1,0,0:0:0:0:
64,192,26894,1,0,0:0:0:100:e80 kick L.wav
192,192,27067,1,0,0:0:0:50:LR_Snare Clap High.wav
448,192,27067,1,0,0:0:0:0:
320,192,27239,1,0,0:0:0:100:e80 kick L.wav
64,192,27411,1,0,0:0:0:50:LR_Snare Clap High.wav
192,192,27411,1,0,0:0:0:0:
320,192,27584,1,0,0:0:0:100:e80 kick L.wav
64,192,27756,1,0,0:0:0:50:LR_Snare Clap High.wav
448,192,27756,1,0,0:0:0:0:
192,192,27929,1,0,0:0:0:100:e80 kick L.wav
320,192,28101,1,0,0:0:0:50:rock2_7_a1.wav
64,192,28274,1,0,0:0:0:100:e80 kick L.wav
320,192,28446,1,0,0:0:0:50:LR_Snare Clap High.wav
448,192,28446,1,0,0:0:0:0:
64,192,28618,1,0,0:0:0:50:LR_Snare Clap High.wav
192,192,28618,1,0,0:0:0:0:
448,192,28791,1,0,0:0:0:50:rock2_7_a1.wav
192,192,28963,1,0,0:0:0:65:rock2_7_d2.wav
320,192,29308,1,0,0:0:0:100:e80 kick L.wav
448,192,29308,1,0,0:0:0:60:cymlocrsh.wav
448,192,29653,1,0,0:0:0:100:e80 kick L.wav
64,192,29998,1,0,0:0:0:100:e80 kick L.wav
448,192,29998,1,0,0:0:0:50:LR_Snare Clap High.wav
192,192,30342,1,0,0:0:0:0:
320,192,30515,1,0,0:0:0:100:e80 kick L.wav
64,192,30687,1,0,0:0:0:0:
192,192,30860,1,0,0:0:0:100:e80 kick L.wav
448,192,31032,1,0,0:0:0:0:
320,192,31205,1,0,0:0:0:100:e80 kick L.wav
64,192,31377,1,0,0:0:0:50:LR_Snare Clap High.wav
192,192,31377,1,0,0:0:0:0:
448,192,31549,1,0,0:0:0:0:
64,192,31722,1,0,0:0:0:0:
192,192,31894,1,0,0:0:0:0:
320,192,32067,1,0,0:0:0:100:e80 kick L.wav
448,192,32067,1,0,0:0:0:0:
448,192,32411,1,0,0:0:0:100:e80 kick L.wav
64,192,32756,1,0,0:0:0:100:e80 kick L.wav
448,192,32756,1,0,0:0:0:50:LR_Snare Clap High.wav
192,192,33101,1,0,0:0:0:0:
320,192,33274,1,0,0:0:0:100:e80 kick L.wav
64,192,33446,1,0,0:0:0:0:
192,192,33618,1,0,0:0:0:100:e80 kick L.wav
448,192,33791,1,0,0:0:0:0:
320,192,33963,1,0,0:0:0:100:e80 kick L.wav
64,192,34136,1,0,0:0:0:50:LR_Snare Clap High.wav
192,192,34136,1,0,0:0:0:0:
320,192,34308,1,0,0:0:0:100:e80 kick L.wav
64,192,34480,128,0,34825:0:0:0:0:
320,192,34825,1,0,0:0:0:100:e80 kick L.wav
448,192,34825,1,0,0:0:0:50:LR_Snare Clap High.wav
192,192,34998,1,0,0:0:0:100:e80 kick L.wav
64,192,35170,1,0,0:0:0:50:LR_Snare Clap High.wav
448,192,35170,1,0,0:0:0:0:
320,192,35342,1,0,0:0:0:100:e80 kick L.wav
64,192,35515,1,0,0:0:0:50:LR_Snare Clap High.wav
192,192,35515,1,0,0:0:0:0:
448,192,35687,1,0,0:0:0:100:e80 kick L.wav
192,192,35860,1,0,0:0:0:50:LR_Snare Clap High.wav
320,192,35860,1,0,0:0:0:0:
64,192,36032,1,0,0:0:0:100:e80 kick L.wav
320,192,36205,1,0,0:0:0:50:LR_Snare Clap High.wav
448,192,36205,1,0,0:0:0:60:cymlocrsh.wav
64,192,36377,1,0,0:0:0:100:e80 kick L.wav
192,192,36549,1,0,0:0:0:50:LR_Snare Clap High.wav
320,192,36549,1,0,0:0:0:0:
448,192,36722,1,0,0:0:0:100:e80 kick L.wav
64,192,36894,1,0,0:0:0:50:LR_Snare Clap High.wav
192,192,36894,1,0,0:0:0:60:cymlocrsh.wav
320,192,37067,1,0,0:0:0:100:e80 kick L.wav
64,192,37239,1,0,0:0:0:100:e80 kick L.wav
448,192,37239,1,0,0:0:0:50:LR_Snare Clap High.wav
320,192,37584,1,0,0:0:0:100:e80 kick L.wav
448,192,37584,1,0,0:0:0:60:cymlocrsh.wav
64,192,37756,1,0,0:0:0:50:LR_Snare Clap High.wav
192,192,37756,1,0,0:0:0:0:
320,192,37929,1,0,0:0:0:100:e80 kick L.wav
64,192,38101,1,0,0:0:0:50:LR_Snare Clap High.wav
448,192,38101,1,0,0:0:0:0:
192,192,38274,1,0,0:0:0:100:e80 kick L.wav
320,192,38446,1,0,0:0:0:50:LR_Snare Clap High.wav
448,192,38446,1,0,0:0:0:0:
192,192,38618,1,0,0:0:0:100:e80 kick L.wav
64,192,38791,1,0,0:0:0:50:LR_Snare Clap High.wav
320,192,38791,1,0,0:0:0:0:
448,192,38963,1,0,0:0:0:100:e80 kick L.wav
64,192,39136,1,0,0:0:0:50:LR_Snare Clap High.wav
192,192,39136,1,0,0:0:0:0:
320,192,39308,1,0,0:0:0:50:LR_Snare Clap High.wav
448,192,39308,1,0,0:0:0:0:
192,192,39394,1,0,0:0:0:50:LR_Snare Clap High.wav
64,192,39480,1,0,0:0:0:100:e80 kick L.wav
320,192,39653,1,0,0:0:0:50:LR_Snare Clap High.wav
448,192,39653,1,0,0:0:0:65:rock2_7_d2.wav
64,192,39911,1,0,0:0:0:50:LR_Snare Clap High.wav
448,192,39911,1,0,0:0:0:65:rock2_7_d2.wav
64,192,40170,1,0,0:0:0:50:LR_Snare Clap High.wav
192,192,40170,1,0,0:0:0:65:rock2_7_d2.wav
320,192,40342,1,0,0:0:0:100:e80 kick L.wav
448,192,40342,1,0,0:0:0:60:cymlocrsh.wav
64,192,40687,1,0,0:0:0:50:LR_Snare Clap High.wav
448,192,40687,1,0,0:0:0:0:
192,192,40860,1,0,0:0:0:100:e80 kick L.wav
320,192,41032,1,0,0:0:0:0:
64,192,41205,1,0,0:0:0:0:
320,192,41377,1,0,0:0:0:0:
192,192,41549,1,0,0:0:0:100:e80 kick L.wav
448,192,41722,1,0,0:0:0:0:
64,192,41894,1,0,0:0:0:50:LR_Snare Clap High.wav
192,192,41894,1,0,0:0:0:0:
320,192,42067,1,0,0:0:0:0:
64,192,42239,1,0,0:0:0:100:e80 kick L.wav
192,192,42411,1,0,0:0:0:50:LR_Snare Clap High.wav
448,192,42411,1,0,0:0:0:0:
320,192,42584,1,0,0:0:0:0:
192,192,42756,1,0,0:0:0:50:LR_Snare Clap High.wav
448,192,42756,1,0,0:0:0:0:
64,192,42929,1,0,0:0:0:0:
320,192,43101,1,0,0:0:0:100:e80 kick L.wav
448,192,43101,1,0,0:0:0:60:cymlocrsh.wav
64,192,43446,1,0,0:0:0:50:LR_Snare Clap High.wav
448,192,43446,1,0,0:0:0:0:
320,192,43618,1,0,0:0:0:100:e80 kick L.wav
192,192,43791,1,0,0:0:0:0:
448,192,43963,1,0,0:0:0:0:
192,192,44136,1,0,0:0:0:0:
320,192,44308,1,0,0:0:0:100:e80 kick L.wav
64,192,44480,1,0,0:0:0:0:
320,192,44653,1,0,0:0:0:50:LR_Snare Clap High.wav
448,192,44653,1,0,0:0:0:0:
192,192,44825,1,0,0:0:0:0:
448,192,44998,1,0,0:0:0:100:e80 kick L.wav
64,192,45170,1,0,0:0:0:50:LR_Snare Clap High.wav
320,192,45170,1,0,0:0:0:0:
192,192,45342,1,0,0:0:0:0:
64,192,45515,1,0,0:0:0:50:LR_Snare Clap High.wav
320,192,45515,1,0,0:0:0:0:
448,192,45687,1,0,0:0:0:0:
64,192,45860,1,0,0:0:0:100:e80 kick L.wav
192,192,45860,1,0,0:0:0:60:cymlocrsh.wav
64,192,46205,1,0,0:0:0:50:LR_Snare Clap High.wav
448,192,46205,1,0,0:0:0:0:
192,192,46377,1,0,0:0:0:100:e80 kick L.wav
320,192,46549,1,0,0:0:0:0:
64,192,46722,1,0,0:0:0:0:
320,192,46894,1,0,0:0:0:0:
192,192,47067,1,0,0:0:0:100:e80 kick L.wav
448,192,47239,1,0,0:0:0:0:
64,192,47411,1,0,0:0:0:50:LR_Snare Clap High.wav
192,192,47411,1,0,0:0:0:0:
320,192,47584,1,0,0:0:0:0:
64,192,47756,1,0,0:0:0:100:e80 kick L.wav
192,192,47929,1,0,0:0:0:50:LR_Snare Clap High.wav
320,192,47929,1,0,0:0:0:0:
448,192,48101,1,0,0:0:0:0:
192,192,48274,1,0,0:0:0:50:LR_Snare Clap High.wav
320,192,48274,1,0,0:0:0:0:
64,192,48446,1,0,0:0:0:0:
320,192,48618,1,0,0:0:0:100:e80 kick L.wav
448,192,48618,1,0,0:0:0:60:cymlocrsh.wav
64,192,48963,1,0,0:0:0:50:LR_Snare Clap High.wav
448,192,48963,1,0,0:0:0:0:
192,192,49136,1,0,0:0:0:100:e80 kick L.wav
320,192,49308,1,0,0:0:0:0:
64,192,49480,1,0,0:0:0:0:
320,192,49653,1,0,0:0:0:0:
192,192,49825,1,0,0:0:0:100:e80 kick L.wav
448,192,49998,1,0,0:0:0:0:
64,192,50170,1,0,0:0:0:50:LR_Snare Clap High.wav
192,192,50170,1,0,0:0:0:0:
320,192,50342,1,0,0:0:0:0:
64,192,50515,1,0,0:0:0:100:e80 kick L.wav
320,192,50687,1,0,0:0:0:0:
192,192,50860,1,0,0:0:0:0:
448,192,51032,1,0,0:0:0:50:LR_Snare Clap High.wav
320,192,51118,1,0,0:0:0:50:LR_Snare Clap High.wav
64,192,51205,1,0,0:0:0:50:LR_Snare Clap High.wav
192,192,51291,1,0,0:0:0:50:LR_Snare Clap High.wav
320,192,51377,1,0,0:0:0:100:e80 kick L.wav
448,192,51377,1,0,0:0:0:0:
448,192,51722,1,0,0:0:0:100:e80 kick L.wav
192,192,52067,128,0,52584:0:0:0:100:e80 kick L.wav
448,192,52067,1,0,0:0:0:0:
448,192,52411,1,0,0:0:0:100:e80 kick L.wav
320,192,52584,1,0,0:0:0:0:
64,192,52756,1,0,0:0:0:100:e80 kick L.wav
192,192,52756,1,0,0:0:0:0:
448,192,52929,1,0,0:0:0:0:
64,192,53101,1,0,0:0:0:100:e80 kick L.wav
448,192,53274,128,0,53705:0:0:0:0:
64,192,53446,1,0,0:0:0:100:e80 kick L.wav
192,192,53705,1,0,0:0:0:100:e80 kick L.wav
320,192,53963,1,0,0:0:0:100:e80 kick L.wav
192,192,54049,1,0,0:0:0:0:
64,192,54136,1,0,0:0:0:100:e80 kick L.wav
448,192,54136,1,0,0:0:0:0:
448,192,54480,1,0,0:0:0:100:e80 kick L.wav
192,192,54653,1,0,0:0:0:0:
448,192,54825,1,0,0:0:0:100:e80 kick L.wav
64,192,54998,1,0,0:0:0:0:
448,192,55170,1,0,0:0:0:100:e80 kick L.wav
320,192,55342,1,0,0:0:0:0:
64,192,55515,1,0,0:0:0:100:e80 kick L.wav
320,192,55687,1,0,0:0:0:0:
64,192,55860,1,0,0:0:0:100:e80 kick L.wav
448,192,56032,1,0,0:0:0:0:
64,192,56205,1,0,0:0:0:100:e80 kick L.wav
192,192,56205,1,0,0:0:0:50:LR_Snare Clap High.wav
320,192,56377,1,0,0:0:0:50:rock2_7_a1.wav
448,192,56549,1,0,0:0:0:65:rock2_7_d2.wav
192,192,56722,1,0,0:0:0:100:e80 kick L.wav
320,192,56894,1,0,0:0:0:100:e80 kick L.wav
448,192,56894,1,0,0:0:0:0:
64,192,57239,128,0,57584:0:0:0:100:e80 kick L.wav
448,192,57239,1,0,0:0:0:0:
448,192,57584,1,0,0:0:0:100:e80 kick L.wav
192,192,57756,1,0,0:0:0:0:
448,192,57929,1,0,0:0:0:100:e80 kick L.wav
320,192,58101,1,0,0:0:0:0:
64,192,58274,1,0,0:0:0:100:e80 kick L.wav
448,192,58446,1,0,0:0:0:0:
64,192,58618,1,0,0:0:0:100:e80 kick L.wav
320,192,58791,1,0,0:0:0:0:
64,192,58963,1,0,0:0:0:100:e80 kick L.wav
448,192,58963,128,0,59222:0:0:0:0:
192,192,59222,1,0,0:0:0:100:e80 kick L.wav
320,192,59480,1,0,0:0:0:100:e80 kick L.wav
64,192,59653,1,0,0:0:0:100:e80 kick L.wav
448,192,59653,1,0,0:0:0:0:
448,192,59998,1,0,0:0:0:100:e80 kick L.wav
64,192,60342,128,0,60687:0:0:0:100:e80 kick L.wav
448,192,60342,1,0,0:0:0:0:
448,192,60687,1,0,0:0:0:100:e80 kick L.wav
64,192,60860,1,0,0:0:0:50:LR_Snare Clap High.wav
192,192,60860,1,0,0:0:0:0:
320,192,61205,1,0,0:0:0:0:
64,192,61549,1,0,0:0:0:50:LR_Snare Clap High.wav
192,192,61636,1,0,0:0:0:50:LR_Snare Clap High.wav
320,192,61722,1,0,0:0:0:50:LR_Snare Clap High.wav
448,192,61722,1,0,0:0:0:0:
64,192,61894,1,0,0:0:0:50:LR_Snare Clap High.wav
192,192,61894,1,0,0:0:0:0:
320,192,62067,1,0,0:0:0:50:rock2_7_a1.wav
64,192,62411,1,0,0:0:0:100:e80 kick L.wav
448,192,62411,1,0,0:0:0:60:cymlocrsh.wav
64,192,62756,1,0,0:0:0:0:
192,192,62756,1,0,0:0:0:0:
320,192,62929,1,0,0:0:0:100:e80 kick L.wav
64,192,63101,1,0,0:0:0:50:LR_Snare Clap High.wav
448,192,63101,1,0,0:0:0:0:
320,192,63446,1,0,0:0:0:0:
448,192,63446,1,0,0:0:0:0:
192,192,63618,1,0,0:0:0:100:e80 kick L.wav
64,192,63791,1,0,0:0:0:100:e80 kick L.wav
448,192,63791,1,0,0:0:0:0:
64,192,64136,1,0,0:0:0:100:e80 kick L.wav
192,192,64136,1,0,0:0:0:0:
64,192,64480,1,0,0:0:0:50:LR_Snare Clap High.wav
448,192,64480,1,0,0:0:0:0:
320,192,64825,1,0,0:0:0:0:
448,192,64825,1,0,0:0:0:0:
192,192,64998,1,0,0:0:0:100:e80 kick L.wav
320,192,65084,1,0,0:0:0:100:e80 kick L.wav
64,192,65170,1,0,0:0:0:50:LR_Snare Clap High.wav
448,192,65170,1,0,0:0:0:60:cymlocrsh.wav
320,192,65515,1,0,0:0:0:50:LR_Snare Clap High.wav
192,192,65687,1,0,0:0:0:50:LR_Snare Clap High.wav
320,192,65860,1,0,0:0:0:50:LR_Snare Clap High.wav
448,192,65860,1,0,0:0:0:65:rock2_7_d2.wav
64,192,66032,1,0,0:0:0:50:LR_Snare Clap High.wav
192,192,66032,1,0,0:0:0:65:rock2_7_d2.wav
320,192,66205,1,0,0:0:0:50:LR_Snare Clap High.wav
448,192,66205,1,0,0:0:0:65:rock2_7_d2.wav
64,192,66377,1,0,0:0:0:50:LR_Snare Clap High.wav
192,192,66377,1,0,0:0:0:65:rock2_7_d2.wav
192,192,67239,128,0,67584:0:0:0:0:
320,192,67584,1,0,0:0:0:0:
448,192,67756,1,0,0:0:0:0:
64,192,67929,1,0,0:0:0:50:LR_Snare Clap High.wav
192,192,67929,1,0,0:0:0:60:cymlocrsh.wav
320,192,68101,1,0,0:0:0:100:e80 kick L.wav
192,192,68274,1,0,0:0:0:50:LR_Snare Clap High.wav
448,192,68274,1,0,0:0:0:0:
64,192,68446,1,0,0:0:0:100:e80 kick L.wav
192,192,68618,1,0,0:0:0:50:LR_Snare Clap High.wav
320,192,68618,1,0,0:0:0:0:
448,192,68791,1,0,0:0:0:100:e80 kick L.wav
64,192,68963,1,0,0:0:0:50:LR_Snare Clap High.wav
320,192,68963,1,0,0:0:0:0:
192,192,69136,1,0,0:0:0:100:e80 kick L.wav
320,192,69308,1,0,0:0:0:50:LR_Snare Clap High.wav
448,192,69308,1,0,0:0:0:0:
192,192,69480,1,0,0:0:0:100:e80 kick L.wav
64,192,69653,1,0,0:0:0:50:LR_Snare Clap High.wav
320,192,69653,1,0,0:0:0:0:
448,192,69825,1,0,0:0:0:100:e80 kick L.wav
192,192,69998,1,0,0:0:0:50:LR_Snare Clap High.wav
320,192,69998,1,0,0:0:0:0:
64,192,70170,1,0,0:0:0:100:e80 kick L.wav
192,192,70342,1,0,0:0:0:50:LR_Snare Clap High.wav
448,192,70342,1,0,0:0:0:0:
320,192,70515,1,0,0:0:0:100:e80 kick L.wav
64,192,70687,1,0,0:0:0:50:LR_Snare Clap High.wav
192,192,70687,1,0,0:0:0:0:
448,192,70860,1,0,0:0:0:100:e80 kick L.wav
64,192,71032,1,0,0:0:0:50:LR_Snare Clap High.wav
320,192,71032,1,0,0:0:0:0:
192,192,71205,1,0,0:0:0:100:e80 kick L.wav
320,192,71377,1,0,0:0:0:50:LR_Snare Clap High.wav
448,192,71377,1,0,0:0:0:0:
64,192,71549,1,0,0:0:0:100:e80 kick L.wav
192,192,71722,1,0,0:0:0:50:LR_Snare Clap High.wav
448,192,71722,1,0,0:0:0:0:
320,192,71894,1,0,0:0:0:100:e80 kick L.wav
64,192,72067,1,0,0:0:0:50:LR_Snare Clap High.wav
192,192,72067,1,0,0:0:0:0:
320,192,72411,1,0,0:0:0:100:e80 kick L.wav
64,192,72584,1,0,0:0:0:50:LR_Snare Clap High.wav
192,192,72584,1,0,0:0:0:0:
64,192,72929,1,0,0:0:0:100:e80 kick L.wav
448,192,72929,128,0,73274:0:0:0:50:LR_Snare Clap High.wav
320,192,73274,1,0,0:0:0:100:e80 kick L.wav
64,192,73446,1,0,0:0:0:100:e80 kick L.wav
192,192,73446,1,0,0:0:0:0:
448,192,73618,1,0,0:0:0:0:
64,192,73791,128,0,74136:0:0:0:100:e80 kick L.wav
320,192,73791,1,0,0:0:0:50:LR_Snare Clap High.wav
192,192,74136,1,0,0:0:0:100:e80 kick L.wav
320,192,74136,128,0,74480:0:0:0:0:
192,192,74480,128,0,74825:0:0:0:100:e80 kick L.wav
448,192,74480,1,0,0:0:0:50:LR_Snare Clap High.wav
64,192,74825,1,0,0:0:0:100:e80 kick L.wav
448,192,74825,128,0,75170:0:0:0:0:
64,192,75170,1,0,0:0:0:100:e80 kick L.wav
192,192,75170,1,0,0:0:0:50:LR_Snare Clap High.wav
320,192,75342,1,0,0:0:0:0:
192,192,75515,1,0,0:0:0:100:e80 kick L.wav
448,192,75687,1,0,0:0:0:0:
64,192,75860,128,0,76205:0:0:0:100:e80 kick L.wav
320,192,75860,1,0,0:0:0:50:LR_Snare Clap High.wav
192,192,76205,1,0,0:0:0:100:e80 kick L.wav
448,192,76205,128,0,76549:0:0:0:0:
64,192,76549,1,0,0:0:0:100:e80 kick L.wav
192,192,76549,1,0,0:0:0:50:LR_Snare Clap High.wav
320,192,76722,1,0,0:0:0:0:
64,192,76894,1,0,0:0:0:100:e80 kick L.wav
192,192,77067,1,0,0:0:0:0:
320,192,77239,1,0,0:0:0:100:e80 kick L.wav
448,192,77239,1,0,0:0:0:50:LR_Snare Clap High.wav
192,192,77411,128,0,77756:0:0:0:0:
320,192,77756,1,0,0:0:0:0:
64,192,77929,1,0,0:0:0:50:LR_Snare Clap High.wav
192,192,77929,1,0,0:0:0:0:
320,192,78101,1,0,0:0:0:50:LR_Snare Clap High.wav
448,192,78101,1,0,0:0:0:0:
64,192,78446,1,0,0:0:0:100:e80 kick L.wav
192,192,78446,1,0,0:0:0:50:LR_Snare Clap High.wav
320,192,78618,1,0,0:0:0:50:LR_Snare Clap High.wav
448,192,78618,1,0,0:0:0:0:
192,192,78705,1,0,0:0:0:50:LR_Snare Clap High.wav
64,192,78791,1,0,0:0:0:50:LR_Snare Clap High.wav
320,192,78963,1,0,0:0:0:50:LR_Snare Clap High.wav
448,192,78963,1,0,0:0:0:60:cymlocrsh.wav
192,192,79136,1,0,0:0:0:100:e80 kick L.wav
64,192,79308,1,0,0:0:0:50:LR_Snare Clap High.wav
320,192,79308,1,0,0:0:0:0:
448,192,79480,1,0,0:0:0:100:e80 kick L.wav
192,192,79653,1,0,0:0:0:50:LR_Snare Clap High.wav
320,192,79653,1,0,0:0:0:0:
64,192,79825,1,0,0:0:0:100:e80 kick L.wav
192,192,79998,1,0,0:0:0:50:LR_Snare Clap High.wav
448,192,79998,1,0,0:0:0:0:
320,192,80170,1,0,0:0:0:100:e80 kick L.wav
64,192,80342,1,0,0:0:0:50:LR_Snare Clap High.wav
192,192,80342,1,0,0:0:0:0:
320,192,80515,1,0,0:0:0:100:e80 kick L.wav
192,192,80687,1,0,0:0:0:50:LR_Snare Clap High.wav
448,192,80687,1,0,0:0:0:0:
64,192,80860,1,0,0:0:0:100:e80 kick L.wav
192,192,81032,1,0,0:0:0:50:LR_Snare Clap High.wav
320,192,81032,1,0,0:0:0:0:
448,192,81205,1,0,0:0:0:100:e80 kick L.wav
64,192,81377,1,0,0:0:0:50:LR_Snare Clap High.wav
320,192,81377,1,0,0:0:0:0:
192,192,81549,1,0,0:0:0:100:e80 kick L.wav
320,192,81722,1,0,0:0:0:50:LR_Snare Clap High.wav
448,192,81722,1,0,0:0:0:0:
64,192,81894,1,0,0:0:0:100:e80 kick L.wav
192,192,82067,1,0,0:0:0:50:LR_Snare Clap High.wav
448,192,82067,1,0,0:0:0:0:
320,192,82239,1,0,0:0:0:100:e80 kick L.wav
64,192,82411,1,0,0:0:0:50:LR_Snare Clap High.wav
192,192,82411,1,0,0:0:0:0:
448,192,82584,1,0,0:0:0:100:e80 kick L.wav
64,192,82756,1,0,0:0:0:50:LR_Snare Clap High.wav
320,192,82756,1,0,0:0:0:0:
192,192,82929,1,0,0:0:0:100:e80 kick L.wav
320,192,83101,1,0,0:0:0:50:LR_Snare Clap High.wav
448,192,83101,1,0,0:0:0:0:
192,192,83446,1,0,0:0:0:100:e80 kick L.wav
320,192,83618,1,0,0:0:0:50:LR_Snare Clap High.wav
448,192,83618,1,0,0:0:0:0:
64,192,83963,128,0,84308:0:0:0:100:e80 kick L.wav
448,192,83963,1,0,0:0:0:50:LR_Snare Clap High.wav
192,192,84308,1,0,0:0:0:100:e80 kick L.wav
320,192,84480,1,0,0:0:0:100:e80 kick L.wav
448,192,84480,128,0,84998:0:0:0:60:cymlocrsh.wav
64,192,84825,1,0,0:0:0:100:e80 kick L.wav
192,192,84825,1,0,0:0:0:50:LR_Snare Clap High.wav
320,192,84998,128,0,85515:0:0:0:0:
64,192,85170,1,0,0:0:0:100:e80 kick L.wav
192,192,85515,128,0,85860:0:0:0:100:e80 kick L.wav
448,192,85515,1,0,0:0:0:50:LR_Snare Clap High.wav
64,192,85860,1,0,0:0:0:100:e80 kick L.wav
448,192,85860,1,0,0:0:0:0:
64,192,86205,128,0,86549:0:0:0:100:e80 kick L.wav
320,192,86205,1,0,0:0:0:50:LR_Snare Clap High.wav
192,192,86549,1,0,0:0:0:100:e80 kick L.wav
320,192,86549,1,0,0:0:0:0:
448,192,86722,1,0,0:0:0:0:
64,192,86894,1,0,0:0:0:100:e80 kick L.wav
192,192,86894,1,0,0:0:0:50:LR_Snare Clap High.wav
320,192,87067,1,0,0:0:0:0:
64,192,87239,128,0,87756:0:0:0:100:e80 kick L.wav
448,192,87239,1,0,0:0:0:0:
320,192,87584,1,0,0:0:0:100:e80 kick L.wav
448,192,87584,1,0,0:0:0:50:LR_Snare Clap High.wav
192,192,87756,1,0,0:0:0:0:
320,192,87929,1,0,0:0:0:100:e80 kick L.wav
448,192,88101,1,0,0:0:0:0:
64,192,88274,1,0,0:0:0:100:e80 kick L.wav
192,192,88274,1,0,0:0:0:50:LR_Snare Clap High.wav
320,192,88446,1,0,0:0:0:0:
64,192,88618,1,0,0:0:0:100:e80 kick L.wav
448,192,88618,1,0,0:0:0:50:LR_Snare Clap High.wav
192,192,88963,1,0,0:0:0:100:e80 kick L.wav
320,192,89136,1,0,0:0:0:50:LR_Snare Clap High.wav
448,192,89136,1,0,0:0:0:0:
64,192,89480,1,0,0:0:0:100:e80 kick L.wav
192,192,89480,1,0,0:0:0:60:cymlocrsh.wav
320,192,89653,1,0,0:0:0:50:LR_Snare Clap High.wav
448,192,89653,1,0,0:0:0:0:
192,192,89739,1,0,0:0:0:50:LR_Snare Clap High.wav
64,192,89825,1,0,0:0:0:50:LR_Snare Clap High.wav
320,192,89998,1,0,0:0:0:100:e80 kick L.wav
448,192,89998,1,0,0:0:0:60:cymlocrsh.wav
192,192,90515,1,0,0:0:0:50:rock2_7_a1.wav
320,192,91032,1,0,0:0:0:50:LR_Snare Clap High.wav
448,192,91032,1,0,0:0:0:0:
64,192,91205,1,0,0:0:0:65:rock2_7_d2.wav
192,192,91291,1,0,0:0:0:65:rock2_7_d2.wav
320,192,91377,1,0,0:0:0:100:e80 kick L.wav
448,192,91377,1,0,0:0:0:0:
192,192,91894,1,0,0:0:0:50:rock2_7_a1.wav
320,192,92239,1,0,0:0:0:65:rock2_7_d2.wav
64,192,92411,1,0,0:0:0:65:rock2_7_d2.wav
448,192,92584,1,0,0:0:0:50:LR_Snare Clap High.wav
320,192,92670,1,0,0:0:0:50:LR_Snare Clap High.wav
64,192,92756,1,0,0:0:0:100:e80 kick L.wav
192,192,92756,1,0,0:0:0:50:LR_Snare Clap High.wav
192,192,93274,1,0,0:0:0:50:rock2_7_a1.wav
320,192,93446,1,0,0:0:0:50:rock2_7_a1.wav
64,192,93618,1,0,0:0:0:65:rock2_7_d2.wav
192,192,93791,1,0,0:0:0:65:rock2_7_d2.wav
320,192,93963,1,0,0:0:0:100:e80 kick L.wav
64,192,94136,1,0,0:0:0:100:e80 kick L.wav
448,192,94136,128,0,96549:0:0:0:60:cymlocrsh.wav
64,192,96894,1,0,0:0:0:0:
448,192,96894,1,0,0:0:0:0:
320,192,97067,1,0,0:0:0:0:
192,192,97239,1,0,0:0:0:0:
448,192,97411,1,0,0:0:0:0:
320,192,97584,128,0,97929:0:0:0:0:
192,192,97929,128,0,98274:0:0:0:0:
64,192,98274,1,0,0:0:0:0:
448,192,98274,1,0,0:0:0:0:
320,192,98618,1,0,0:0:0:0:
192,192,98963,128,0,99308:0:0:0:0:
320,192,99308,128,0,99653:0:0:0:0:
64,192,99653,1,0,0:0:0:0:
448,192,99653,1,0,0:0:0:0:
