osu file format v14

[General]
AudioFilename: audio.mp3
AudioLeadIn: 0
PreviewTime: 67239
Countdown: 0
SampleSet: Soft
StackLeniency: 0.7
Mode: 3
LetterboxInBreaks: 0
SpecialStyle: 0
WidescreenStoryboard: 0

[Editor]
DistanceSpacing: 1.4
BeatDivisor: 4
GridSize: 4
TimelineZoom: 1.7

[Metadata]
Title:Kimi Sketch
TitleUnicode:キミスケッチ
Artist:Amehurashi
ArtistUnicode:アメフラシ
Creator:Crisper
Version:Lost Item
Source:
Tags:deta5859 amefurashi japanese j-rock jrock rock 葉露 Haro biz_nuko 雪月 yuzuki aplysia のう nounoknown 潜 mog 真霜 mashimo best friend hate 日向 hikagekko vocal female
BeatmapID:3370447
BeatmapSetID:1651011

[Difficulty]
HPDrainRate:8
CircleSize:4
OverallDifficulty:8
ApproachRate:5
SliderMultiplier:1.4
SliderTickRate:1

[Events]
//Background and Video events
Video,35,"video.mp4"
0,0,"bg2.jpg",0,0
//Break Periods
//Storyboard Layer 0 (Background)
//Storyboard Layer 1 (Fail)
//Storyboard Layer 2 (Pass)
//Storyboard Layer 3 (Foreground)
//Storyboard Layer 4 (Overlay)
//Storyboard Sound Samples

[TimingPoints]
1032,344.827586206897,4,2,1,40,1,0
18274,344.827586206897,4,2,1,40,1,0
67929,-100,4,2,1,40,0,1
89998,-100,4,2,1,40,0,0

[HitObjects]
320,192,342,128,0,687:0:0:0:0:
192,192,687,128,0,859:0:0:0:0:
320,192,859,128,0,1032:0:0:0:0:
64,192,1032,128,0,1204:0:0:0:0:
448,192,1032,128,0,1721:0:0:0:0:
192,192,1204,128,0,1376:0:0:0:0:
320,192,1376,128,0,1549:0:0:0:0:
192,192,1549,128,0,1721:0:0:0:0:
64,192,1721,1,0,0:0:0:0:
320,192,1721,128,0,1894:0:0:0:0:
192,192,1894,1,0,0:0:0:0:
64,192,2066,1,0,0:0:0:0:
448,192,2066,128,0,2238:0:0:0:0:
192,192,2238,1,0,0:0:0:0:
64,192,2411,128,0,3100:0:0:0:0:
320,192,2411,128,0,2583:0:0:0:0:
448,192,2583,128,0,2756:0:0:0:0:
192,192,2756,128,0,2928:0:0:0:0:
320,192,2928,128,0,3100:0:0:0:0:
192,192,3100,128,0,3273:0:0:0:0:
448,192,3100,1,0,0:0:0:0:
320,192,3273,1,0,0:0:0:0:
64,192,3445,128,0,3618:0:0:0:0:
448,192,3445,1,0,0:0:0:0:
320,192,3618,1,0,0:0:0:0:
192,192,3790,128,0,3963:0:0:0:0:
448,192,3790,128,0,4480:0:0:0:0:
64,192,4135,128,0,4307:0:0:0:0:
320,192,4480,128,0,4652:0:0:0:0:
64,192,4825,128,0,4997:0:0:0:0:
192,192,5169,128,0,5342:0:0:0:0:
448,192,5342,128,0,5514:0:0:0:0:
320,192,5514,128,0,5859:0:0:0:0:
192,192,5859,128,0,6204:0:0:0:0:
64,192,6549,1,0,0:0:0:100:e80 kick L.wav
320,192,6549,1,0,0:0:0:60:cymlocrsh.wav
448,192,6549,128,0,6721:0:0:0:0:
64,192,6721,1,0,0:0:0:50:LR_Snare Clap High.wav
192,192,6721,1,0,0:0:0:0:
192,192,6894,1,0,0:0:0:100:e80 kick L.wav
448,192,6894,128,0,7066:0:0:0:0:
64,192,7066,1,0,0:0:0:50:LR_Snare Clap High.wav
320,192,7066,1,0,0:0:0:0:
192,192,7238,128,0,7411:0:0:0:100:e80 kick L.wav
448,192,7238,1,0,0:0:0:0:
320,192,7411,1,0,0:0:0:50:LR_Snare Clap High.wav
448,192,7411,1,0,0:0:0:0:
64,192,7583,1,0,0:0:0:100:e80 kick L.wav
320,192,7583,128,0,7756:0:0:0:0:
64,192,7756,1,0,0:0:0:50:LR_Snare Clap High.wav
192,192,7756,1,0,0:0:0:0:
320,192,7928,1,0,0:0:0:100:e80 kick L.wav
448,192,7928,1,0,0:0:0:0:
64,192,8100,1,0,0:0:0:50:LR_Snare Clap High.wav
192,192,8100,1,0,0:0:0:0:
192,192,8273,128,0,8445:0:0:0:100:e80 kick L.wav
448,192,8273,1,0,0:0:0:0:
320,192,8445,1,0,0:0:0:50:LR_Snare Clap High.wav
448,192,8445,1,0,0:0:0:0:
64,192,8618,1,0,0:0:0:100:e80 kick L.wav
320,192,8618,128,0,8790:0:0:0:0:
64,192,8790,1,0,0:0:0:50:LR_Snare Clap High.wav
192,192,8790,1,0,0:0:0:0:
192,192,8963,128,0,9135:0:0:0:100:e80 kick L.wav
448,192,8963,1,0,0:0:0:0:
64,192,9135,1,0,0:0:0:50:LR_Snare Clap High.wav
320,192,9135,1,0,0:0:0:0:
64,192,9307,128,0,9480:0:0:0:100:e80 kick L.wav
192,192,9307,1,0,0:0:0:60:cymlocrsh.wav
448,192,9307,1,0,0:0:0:0:
320,192,9480,1,0,0:0:0:50:LR_Snare Clap High.wav
448,192,9480,1,0,0:0:0:0:
64,192,9652,128,0,9825:0:0:0:100:e80 kick L.wav
320,192,9652,1,0,0:0:0:0:
192,192,9825,1,0,0:0:0:50:LR_Snare Clap High.wav
448,192,9825,1,0,0:0:0:0:
64,192,9997,1,0,0:0:0:100:e80 kick L.wav
320,192,9997,128,0,10169:0:0:0:0:
64,192,10169,1,0,0:0:0:50:LR_Snare Clap High.wav
192,192,10169,1,0,0:0:0:0:
192,192,10342,128,0,10514:0:0:0:100:e80 kick L.wav
448,192,10342,1,0,0:0:0:0:
320,192,10514,1,0,0:0:0:50:LR_Snare Clap High.wav
448,192,10514,1,0,0:0:0:0:
64,192,10687,1,0,0:0:0:100:e80 kick L.wav
192,192,10687,1,0,0:0:0:0:
320,192,10859,1,0,0:0:0:50:LR_Snare Clap High.wav
448,192,10859,1,0,0:0:0:0:
64,192,11032,1,0,0:0:0:100:e80 kick L.wav
320,192,11032,128,0,11204:0:0:0:0:
64,192,11204,1,0,0:0:0:50:LR_Snare Clap High.wav
192,192,11204,1,0,0:0:0:0:
192,192,11376,128,0,11549:0:0:0:100:e80 kick L.wav
448,192,11376,1,0,0:0:0:0:
320,192,11549,1,0,0:0:0:50:LR_Snare Clap High.wav
448,192,11549,1,0,0:0:0:0:
64,192,11721,1,0,0:0:0:100:e80 kick L.wav
320,192,11721,128,0,11894:0:0:0:50:LR_Snare Clap High.wav
64,192,11894,1,0,0:0:0:50:LR_Snare Clap High.wav
192,192,11894,1,0,0:0:0:0:
320,192,11980,1,0,0:0:0:50:LR_Snare Clap High.wav
64,192,12066,128,0,12238:0:0:0:100:e80 kick L.wav
192,192,12066,128,0,12238:0:0:0:50:LR_Snare Clap High.wav
448,192,12066,1,0,0:0:0:0:
64,192,12411,128,0,12583:0:0:0:100:e80 kick L.wav
320,192,12411,128,0,12583:0:0:0:50:LR_Snare Clap High.wav
448,192,12411,1,0,0:0:0:0:
64,192,12756,128,0,12928:0:0:0:100:e80 kick L.wav
192,192,12756,1,0,0:0:0:50:LR_Snare Clap High.wav
448,192,12756,128,0,12928:0:0:0:0:
64,192,13100,128,0,13273:0:0:0:100:e80 kick L.wav
192,192,13100,1,0,0:0:0:50:LR_Snare Clap High.wav
320,192,13100,128,0,13273:0:0:0:0:
64,192,13445,1,0,0:0:0:100:e80 kick L.wav
320,192,13445,128,0,13618:0:0:0:50:LR_Snare Clap High.wav
448,192,13445,128,0,13618:0:0:0:0:
64,192,13790,128,0,13963:0:0:0:100:e80 kick L.wav
192,192,13790,1,0,0:0:0:50:LR_Snare Clap High.wav
448,192,13790,128,0,13963:0:0:0:0:
192,192,14135,128,0,14307:0:0:0:100:e80 kick L.wav
320,192,14135,1,0,0:0:0:50:LR_Snare Clap High.wav
448,192,14135,128,0,14307:0:0:0:0:
64,192,14480,128,0,14652:0:0:0:100:e80 kick L.wav
320,192,14480,1,0,0:0:0:50:LR_Snare Clap High.wav
448,192,14480,128,0,14652:0:0:0:0:
64,192,14825,128,0,14997:0:0:0:100:e80 kick L.wav
448,192,14825,1,0,0:0:0:60:cymlocrsh.wav
192,192,14825,1,0,0:0:0:50:LR_Snare Clap High.wav
320,192,14997,1,0,0:0:0:100:e80 kick L.wav
448,192,14997,128,0,15169:0:0:0:0:
64,192,15169,1,0,0:0:0:100:e80 kick L.wav
192,192,15169,1,0,0:0:0:0:
192,192,15342,128,0,15514:0:0:0:50:LR_Snare Clap High.wav
320,192,15342,1,0,0:0:0:0:
448,192,15342,1,0,0:0:0:0:
64,192,15514,1,0,0:0:0:100:e80 kick L.wav
448,192,15514,1,0,0:0:0:0:
64,192,15687,128,0,15859:0:0:0:50:rock2_7_a1.wav
320,192,15687,1,0,0:0:0:0:
192,192,15859,1,0,0:0:0:65:rock2_7_d2.wav
320,192,15859,128,0,16032:0:0:0:0:
64,192,16032,128,0,16204:0:0:0:50:LR_Snare Clap High.wav
448,192,16032,1,0,0:0:0:0:
192,192,16204,1,0,0:0:0:100:e80 kick L.wav
320,192,16204,1,0,0:0:0:50:LR_Snare Clap High.wav
448,192,16204,1,0,0:0:0:0:
192,192,16463,1,0,0:0:0:100:e80 kick L.wav
320,192,16463,1,0,0:0:0:50:LR_Snare Clap High.wav
448,192,16463,1,0,0:0:0:0:
192,192,16721,1,0,0:0:0:100:e80 kick L.wav
320,192,16721,1,0,0:0:0:50:LR_Snare Clap High.wav
448,192,16721,1,0,0:0:0:0:
64,192,16894,1,0,0:0:0:50:LR_Snare Clap High.wav
192,192,16894,1,0,0:0:0:0:
64,192,17009,1,0,0:0:0:50:rock2_7_a1.wav
192,192,17009,1,0,0:0:0:0:
320,192,17123,1,0,0:0:0:50:rock2_7_a1.wav
448,192,17123,1,0,0:0:0:0:
320,192,17238,1,0,0:0:0:65:rock2_7_d2.wav
448,192,17238,1,0,0:0:0:0:
64,192,17353,1,0,0:0:0:100:e80 kick L.wav
192,192,17353,1,0,0:0:0:0:
64,192,17468,1,0,0:0:0:50:LR_Snare Clap High.wav
192,192,17468,1,0,0:0:0:0:
448,192,17468,128,0,17583:0:0:0:0:
320,192,18100,1,0,0:0:0:50:rock2_7_a1.wav
192,192,18187,1,0,0:0:0:65:rock2_7_d2.wav
64,192,18273,128,0,18446:0:0:0:60:cymlocrsh.wav
320,192,18274,1,0,0:0:0:0:
448,192,18274,1,0,0:0:0:100:e80 kick L.wav
64,192,18618,128,0,18791:0:0:0:100:e80 kick L.wav
320,192,18618,1,0,0:0:0:0:
64,192,18963,128,0,19308:0:0:0:100:e80 kick L.wav
320,192,18963,1,0,0:0:0:50:LR_Snare Clap High.wav
448,192,18963,1,0,0:0:0:0:
320,192,19308,1,0,0:0:0:0:
192,192,19480,1,0,0:0:0:100:e80 kick L.wav
448,192,19480,1,0,0:0:0:0:
192,192,19653,128,0,19998:0:0:0:0:
320,192,19825,1,0,0:0:0:100:e80 kick L.wav
448,192,19825,1,0,0:0:0:0:
64,192,19998,1,0,0:0:0:0:
64,192,20170,128,0,20342:0:0:0:100:e80 kick L.wav
448,192,20170,1,0,0:0:0:0:
192,192,20342,1,0,0:0:0:50:LR_Snare Clap High.wav
320,192,20342,1,0,0:0:0:0:
448,192,20342,1,0,0:0:0:0:
192,192,20515,128,0,20687:0:0:0:0:
64,192,20515,1,0,0:0:0:0:
448,192,20687,1,0,0:0:0:0:
448,192,20860,128,0,21032:0:0:0:0:
64,192,20946,1,0,0:0:0:0:
192,192,20989,1,0,0:0:0:0:
320,192,21032,1,0,0:0:0:100:e80 kick L.wav
64,192,21205,1,0,0:0:0:0:
64,192,21377,128,0,21549:0:0:0:100:e80 kick L.wav
448,192,21377,1,0,0:0:0:0:
320,192,21549,1,0,0:0:0:0:
64,192,21722,1,0,0:0:0:100:e80 kick L.wav
192,192,21722,1,0,0:0:0:50:LR_Snare Clap High.wav
320,192,21722,128,0,21894:0:0:0:0:
64,192,22067,1,0,0:0:0:0:
192,192,22239,1,0,0:0:0:100:e80 kick L.wav
448,192,22239,1,0,0:0:0:0:
448,192,22411,128,0,22584:0:0:0:0:
192,192,22584,1,0,0:0:0:100:e80 kick L.wav
320,192,22584,1,0,0:0:0:0:
64,192,22756,128,0,22929:0:0:0:0:
448,192,22929,1,0,0:0:0:0:
192,192,22929,128,0,23101:0:0:0:100:e80 kick L.wav
64,192,23101,1,0,0:0:0:50:LR_Snare Clap High.wav
320,192,23101,1,0,0:0:0:0:
448,192,23101,128,0,23274:0:0:0:0:
64,192,23274,1,0,0:0:0:100:e80 kick L.wav
192,192,23274,1,0,0:0:0:0:
320,192,23446,128,0,23791:0:0:0:0:
192,192,23446,128,0,23618:0:0:0:100:e80 kick L.wav
64,192,23791,128,0,23963:0:0:0:100:e80 kick L.wav
192,192,23791,1,0,0:0:0:60:cymlocrsh.wav
448,192,23791,1,0,0:0:0:0:
320,192,23963,1,0,0:0:0:50:LR_Snare Clap High.wav
448,192,23963,1,0,0:0:0:0:
64,192,24136,1,0,0:0:0:100:e80 kick L.wav
320,192,24136,128,0,24308:0:0:0:0:
64,192,24308,1,0,0:0:0:50:LR_Snare Clap High.wav
192,192,24308,1,0,0:0:0:0:
192,192,24480,128,0,24653:0:0:0:100:e80 kick L.wav
448,192,24480,1,0,0:0:0:0:
64,192,24653,1,0,0:0:0:50:LR_Snare Clap High.wav
448,192,24653,1,0,0:0:0:0:
64,192,24825,128,0,24998:0:0:0:100:e80 kick L.wav
320,192,24825,1,0,0:0:0:0:
320,192,24998,1,0,0:0:0:50:LR_Snare Clap High.wav
448,192,24998,1,0,0:0:0:0:
64,192,25170,1,0,0:0:0:100:e80 kick L.wav
448,192,25170,128,0,25515:0:0:0:0:
64,192,25342,1,0,0:0:0:50:LR_Snare Clap High.wav
192,192,25342,1,0,0:0:0:0:
320,192,25515,1,0,0:0:0:0:
192,192,25515,128,0,25687:0:0:0:100:e80 kick L.wav
64,192,25687,1,0,0:0:0:50:LR_Snare Clap High.wav
448,192,25687,1,0,0:0:0:0:
320,192,25774,1,0,0:0:0:0:
64,192,25860,128,0,26205:0:0:0:100:e80 kick L.wav
192,192,25860,1,0,0:0:0:0:
320,192,26032,1,0,0:0:0:50:LR_Snare Clap High.wav
448,192,26032,1,0,0:0:0:0:
192,192,26205,1,0,0:0:0:100:e80 kick L.wav
448,192,26205,1,0,0:0:0:0:
192,192,26377,128,0,26549:0:0:0:50:LR_Snare Clap High.wav
320,192,26377,1,0,0:0:0:0:
64,192,26549,1,0,0:0:0:100:e80 kick L.wav
320,192,26549,128,0,26722:0:0:0:60:cymlocrsh.wav
448,192,26549,1,0,0:0:0:0:
64,192,26722,1,0,0:0:0:50:LR_Snare Clap High.wav
192,192,26722,1,0,0:0:0:0:
320,192,26894,1,0,0:0:0:100:e80 kick L.wav
448,192,26894,1,0,0:0:0:0:
64,192,27067,1,0,0:0:0:50:LR_Snare Clap High.wav
448,192,27067,128,0,27411:0:0:0:0:
192,192,27239,1,0,0:0:0:100:e80 kick L.wav
320,192,27239,1,0,0:0:0:0:
64,192,27411,1,0,0:0:0:50:LR_Snare Clap High.wav
192,192,27411,1,0,0:0:0:0:
64,192,27584,128,0,27756:0:0:0:100:e80 kick L.wav
448,192,27584,1,0,0:0:0:0:
320,192,27756,1,0,0:0:0:50:LR_Snare Clap High.wav
448,192,27756,128,0,27929:0:0:0:0:
64,192,27929,1,0,0:0:0:100:e80 kick L.wav
192,192,27929,1,0,0:0:0:0:
192,192,28101,128,0,28274:0:0:0:50:rock2_7_a1.wav
320,192,28101,1,0,0:0:0:0:
320,192,28274,128,0,28446:0:0:0:100:e80 kick L.wav
448,192,28274,1,0,0:0:0:0:
64,192,28446,128,0,28618:0:0:0:50:LR_Snare Clap High.wav
192,192,28446,1,0,0:0:0:0:
192,192,28618,128,0,28791:0:0:0:50:LR_Snare Clap High.wav
448,192,28618,1,0,0:0:0:0:
320,192,28791,1,0,0:0:0:50:rock2_7_a1.wav
448,192,28791,128,0,28963:0:0:0:0:
64,192,28963,1,0,0:0:0:65:rock2_7_d2.wav
192,192,28963,1,0,0:0:0:0:
64,192,29308,1,0,0:0:0:100:e80 kick L.wav
192,192,29308,1,0,0:0:0:60:cymlocrsh.wav
448,192,29308,128,0,29480:0:0:0:0:
192,192,29653,1,0,0:0:0:100:e80 kick L.wav
448,192,29653,128,0,29825:0:0:0:0:
64,192,29998,1,0,0:0:0:100:e80 kick L.wav
320,192,29998,1,0,0:0:0:50:LR_Snare Clap High.wav
448,192,29998,128,0,30342:0:0:0:0:
192,192,30342,1,0,0:0:0:0:
64,192,30515,1,0,0:0:0:100:e80 kick L.wav
320,192,30515,1,0,0:0:0:0:
320,192,30687,128,0,31032:0:0:0:0:
64,192,30860,1,0,0:0:0:100:e80 kick L.wav
192,192,30860,1,0,0:0:0:0:
448,192,31032,1,0,0:0:0:0:
64,192,31205,1,0,0:0:0:100:e80 kick L.wav
448,192,31205,128,0,31377:0:0:0:0:
64,192,31377,1,0,0:0:0:50:LR_Snare Clap High.wav
192,192,31377,1,0,0:0:0:0:
320,192,31377,1,0,0:0:0:0:
448,192,31549,1,0,0:0:0:0:
320,192,31549,128,0,31722:0:0:0:0:
64,192,31722,1,0,0:0:0:0:
64,192,31894,128,0,32067:0:0:0:0:
448,192,31980,1,0,0:0:0:0:
320,192,32024,1,0,0:0:0:0:
192,192,32067,1,0,0:0:0:100:e80 kick L.wav
448,192,32239,1,0,0:0:0:0:
64,192,32411,1,0,0:0:0:100:e80 kick L.wav
448,192,32411,128,0,32584:0:0:0:0:
192,192,32584,1,0,0:0:0:0:
192,192,32756,128,0,32929:0:0:0:100:e80 kick L.wav
320,192,32756,1,0,0:0:0:50:LR_Snare Clap High.wav
448,192,32756,1,0,0:0:0:0:
448,192,33101,1,0,0:0:0:0:
64,192,33274,1,0,0:0:0:100:e80 kick L.wav
320,192,33274,1,0,0:0:0:0:
64,192,33446,128,0,33618:0:0:0:0:
320,192,33618,1,0,0:0:0:100:e80 kick L.wav
448,192,33618,1,0,0:0:0:0:
192,192,33791,128,0,33963:0:0:0:0:
64,192,33963,128,0,34136:0:0:0:100:e80 kick L.wav
448,192,33963,1,0,0:0:0:0:
192,192,34136,1,0,0:0:0:50:LR_Snare Clap High.wav
320,192,34136,1,0,0:0:0:0:
448,192,34136,128,0,34308:0:0:0:0:
64,192,34308,1,0,0:0:0:100:e80 kick L.wav
192,192,34308,1,0,0:0:0:0:
320,192,34480,128,0,34825:0:0:0:0:
64,192,34480,128,0,34653:0:0:0:0:
64,192,34825,1,0,0:0:0:100:e80 kick L.wav
192,192,34825,1,0,0:0:0:50:LR_Snare Clap High.wav
448,192,34825,128,0,34998:0:0:0:60:cymlocrsh.wav
64,192,34998,1,0,0:0:0:100:e80 kick L.wav
320,192,34998,1,0,0:0:0:0:
192,192,35170,1,0,0:0:0:50:LR_Snare Clap High.wav
320,192,35170,128,0,35342:0:0:0:0:
64,192,35342,1,0,0:0:0:100:e80 kick L.wav
448,192,35342,1,0,0:0:0:0:
320,192,35515,1,0,0:0:0:50:LR_Snare Clap High.wav
448,192,35515,128,0,35687:0:0:0:0:
64,192,35687,1,0,0:0:0:100:e80 kick L.wav
192,192,35687,1,0,0:0:0:0:
192,192,35860,128,0,36032:0:0:0:50:LR_Snare Clap High.wav
448,192,35860,1,0,0:0:0:0:
64,192,36032,1,0,0:0:0:100:e80 kick L.wav
320,192,36032,1,0,0:0:0:0:
64,192,36205,128,0,36377:0:0:0:50:LR_Snare Clap High.wav
192,192,36205,1,0,0:0:0:60:cymlocrsh.wav
448,192,36205,1,0,0:0:0:0:
320,192,36377,1,0,0:0:0:100:e80 kick L.wav
448,192,36377,1,0,0:0:0:0:
64,192,36549,1,0,0:0:0:50:LR_Snare Clap High.wav
320,192,36549,128,0,36722:0:0:0:0:
192,192,36722,1,0,0:0:0:100:e80 kick L.wav
448,192,36722,1,0,0:0:0:0:
64,192,36894,1,0,0:0:0:50:LR_Snare Clap High.wav
320,192,36894,1,0,0:0:0:60:cymlocrsh.wav
448,192,36894,128,0,37067:0:0:0:0:
64,192,37067,1,0,0:0:0:100:e80 kick L.wav
192,192,37067,1,0,0:0:0:0:
320,192,37239,1,0,0:0:0:100:e80 kick L.wav
448,192,37239,1,0,0:0:0:50:LR_Snare Clap High.wav
64,192,37411,1,0,0:0:0:0:
64,192,37584,128,0,37756:0:0:0:100:e80 kick L.wav
192,192,37584,1,0,0:0:0:60:cymlocrsh.wav
320,192,37584,1,0,0:0:0:0:
320,192,37756,1,0,0:0:0:50:LR_Snare Clap High.wav
448,192,37756,1,0,0:0:0:0:
192,192,37929,1,0,0:0:0:100:e80 kick L.wav
448,192,37929,128,0,38101:0:0:0:0:
64,192,38101,1,0,0:0:0:50:LR_Snare Clap High.wav
320,192,38101,1,0,0:0:0:0:
192,192,38274,128,0,38446:0:0:0:100:e80 kick L.wav
448,192,38274,1,0,0:0:0:0:
320,192,38446,1,0,0:0:0:50:LR_Snare Clap High.wav
448,192,38446,128,0,38618:0:0:0:0:
64,192,38618,1,0,0:0:0:100:e80 kick L.wav
320,192,38618,128,0,38791:0:0:0:0:
192,192,38791,1,0,0:0:0:0:
64,192,38791,128,0,38963:0:0:0:50:LR_Snare Clap High.wav
320,192,38963,1,0,0:0:0:100:e80 kick L.wav
448,192,38963,128,0,39136:0:0:0:0:
64,192,39136,1,0,0:0:0:50:LR_Snare Clap High.wav
192,192,39136,1,0,0:0:0:0:
320,192,39308,1,0,0:0:0:50:LR_Snare Clap High.wav
448,192,39308,1,0,0:0:0:0:
64,192,39394,1,0,0:0:0:50:LR_Snare Clap High.wav
192,192,39394,1,0,0:0:0:0:
320,192,39480,1,0,0:0:0:100:e80 kick L.wav
448,192,39480,1,0,0:0:0:0:
64,192,39653,1,0,0:0:0:50:LR_Snare Clap High.wav
192,192,39653,1,0,0:0:0:65:rock2_7_d2.wav
320,192,39653,1,0,0:0:0:0:
64,192,39911,1,0,0:0:0:50:LR_Snare Clap High.wav
192,192,39911,1,0,0:0:0:65:rock2_7_d2.wav
320,192,39911,1,0,0:0:0:0:
64,192,40170,1,0,0:0:0:50:LR_Snare Clap High.wav
192,192,40170,1,0,0:0:0:65:rock2_7_d2.wav
320,192,40170,1,0,0:0:0:0:
64,192,40342,1,0,0:0:0:100:e80 kick L.wav
320,192,40342,1,0,0:0:0:60:cymlocrsh.wav
448,192,40342,1,0,0:0:0:0:
64,192,40687,1,0,0:0:0:50:LR_Snare Clap High.wav
448,192,40687,128,0,40860:0:0:0:0:
64,192,40860,1,0,0:0:0:100:e80 kick L.wav
192,192,40860,1,0,0:0:0:0:
448,192,41032,128,0,41377:0:0:0:0:
192,192,41205,1,0,0:0:0:0:
320,192,41205,1,0,0:0:0:0:
192,192,41377,1,0,0:0:0:0:
320,192,41549,128,0,41722:0:0:0:100:e80 kick L.wav
448,192,41549,1,0,0:0:0:0:
192,192,41722,1,0,0:0:0:0:
64,192,41894,1,0,0:0:0:0:
192,192,41894,128,0,42067:0:0:0:50:LR_Snare Clap High.wav
320,192,42067,128,0,42239:0:0:0:0:
192,192,42239,128,0,42411:0:0:0:100:e80 kick L.wav
448,192,42239,1,0,0:0:0:0:
64,192,42411,1,0,0:0:0:50:LR_Snare Clap High.wav
448,192,42411,1,0,0:0:0:0:
192,192,42584,1,0,0:0:0:0:
64,192,42756,1,0,0:0:0:50:LR_Snare Clap High.wav
448,192,42756,1,0,0:0:0:0:
320,192,42929,1,0,0:0:0:0:
192,192,43015,1,0,0:0:0:0:
64,192,43101,1,0,0:0:0:100:e80 kick L.wav
320,192,43101,128,0,43274:0:0:0:60:cymlocrsh.wav
448,192,43101,1,0,0:0:0:0:
448,192,43446,1,0,0:0:0:0:
64,192,43446,128,0,43618:0:0:0:50:LR_Snare Clap High.wav
320,192,43618,1,0,0:0:0:100:e80 kick L.wav
448,192,43618,128,0,43791:0:0:0:0:
192,192,43791,1,0,0:0:0:0:
192,192,43963,128,0,44136:0:0:0:0:
448,192,43963,1,0,0:0:0:0:
320,192,44136,1,0,0:0:0:0:
320,192,44308,128,0,44480:0:0:0:100:e80 kick L.wav
64,192,44308,1,0,0:0:0:0:
192,192,44480,1,0,0:0:0:0:
320,192,44653,1,0,0:0:0:50:LR_Snare Clap High.wav
448,192,44653,128,0,44825:0:0:0:0:
64,192,44825,1,0,0:0:0:0:
192,192,44998,128,0,45170:0:0:0:100:e80 kick L.wav
320,192,44998,1,0,0:0:0:0:
64,192,45170,1,0,0:0:0:50:LR_Snare Clap High.wav
448,192,45170,1,0,0:0:0:0:
320,192,45342,128,0,45515:0:0:0:0:
64,192,45515,1,0,0:0:0:50:LR_Snare Clap High.wav
448,192,45515,1,0,0:0:0:0:
192,192,45687,128,0,45860:0:0:0:0:
64,192,45860,1,0,0:0:0:100:e80 kick L.wav
320,192,45860,1,0,0:0:0:60:cymlocrsh.wav
448,192,45860,1,0,0:0:0:0:
64,192,46205,1,0,0:0:0:50:LR_Snare Clap High.wav
448,192,46205,128,0,46549:0:0:0:0:
192,192,46377,1,0,0:0:0:100:e80 kick L.wav
320,192,46377,128,0,46549:0:0:0:0:
64,192,46549,1,0,0:0:0:0:
64,192,46722,128,0,46894:0:0:0:0:
448,192,46722,1,0,0:0:0:0:
320,192,46894,1,0,0:0:0:0:
64,192,47067,1,0,0:0:0:100:e80 kick L.wav
448,192,47067,128,0,47239:0:0:0:0:
192,192,47239,1,0,0:0:0:0:
64,192,47411,1,0,0:0:0:50:LR_Snare Clap High.wav
320,192,47411,128,0,47756:0:0:0:0:
448,192,47584,1,0,0:0:0:0:
64,192,47756,1,0,0:0:0:100:e80 kick L.wav
192,192,47756,1,0,0:0:0:0:
64,192,47929,128,0,48101:0:0:0:50:LR_Snare Clap High.wav
448,192,47929,1,0,0:0:0:0:
320,192,48101,1,0,0:0:0:0:
64,192,48274,1,0,0:0:0:50:LR_Snare Clap High.wav
448,192,48274,1,0,0:0:0:0:
192,192,48446,128,0,48618:0:0:0:0:
64,192,48618,1,0,0:0:0:100:e80 kick L.wav
320,192,48618,1,0,0:0:0:60:cymlocrsh.wav
448,192,48618,1,0,0:0:0:0:
64,192,48963,1,0,0:0:0:50:LR_Snare Clap High.wav
320,192,48963,1,0,0:0:0:0:
64,192,49136,128,0,49308:0:0:0:100:e80 kick L.wav
448,192,49136,1,0,0:0:0:0:
192,192,49308,1,0,0:0:0:0:
64,192,49480,1,0,0:0:0:0:
320,192,49480,1,0,0:0:0:0:
320,192,49653,128,0,49825:0:0:0:0:
192,192,49825,1,0,0:0:0:100:e80 kick L.wav
448,192,49825,128,0,49998:0:0:0:0:
64,192,49998,1,0,0:0:0:0:
192,192,50170,1,0,0:0:0:50:LR_Snare Clap High.wav
448,192,50170,1,0,0:0:0:0:
192,192,50342,128,0,50515:0:0:0:0:
320,192,50515,1,0,0:0:0:100:e80 kick L.wav
448,192,50515,1,0,0:0:0:0:
320,192,50687,128,0,50860:0:0:0:0:
64,192,50687,1,0,0:0:0:0:
448,192,50860,1,0,0:0:0:0:
64,192,51032,1,0,0:0:0:50:LR_Snare Clap High.wav
192,192,51032,1,0,0:0:0:0:
320,192,51118,1,0,0:0:0:50:LR_Snare Clap High.wav
64,192,51205,1,0,0:0:0:50:LR_Snare Clap High.wav
192,192,51205,1,0,0:0:0:0:
320,192,51291,1,0,0:0:0:50:LR_Snare Clap High.wav
64,192,51377,1,0,0:0:0:100:e80 kick L.wav
448,192,51377,1,0,0:0:0:0:
192,192,51549,1,0,0:0:0:0:
64,192,51722,1,0,0:0:0:100:e80 kick L.wav
320,192,51722,128,0,52067:0:0:0:0:
192,192,51894,1,0,0:0:0:0:
64,192,52067,128,0,52584:0:0:0:100:e80 kick L.wav
448,192,52067,1,0,0:0:0:0:
320,192,52239,1,0,0:0:0:0:
192,192,52411,1,0,0:0:0:100:e80 kick L.wav
448,192,52411,1,0,0:0:0:0:
448,192,52584,128,0,52756:0:0:0:0:
64,192,52756,1,0,0:0:0:100:e80 kick L.wav
192,192,52756,1,0,0:0:0:0:
320,192,52929,128,0,53101:0:0:0:0:
448,192,53101,1,0,0:0:0:0:
64,192,53101,128,0,53274:0:0:0:100:e80 kick L.wav
192,192,53274,128,0,53618:0:0:0:0:
448,192,53446,1,0,0:0:0:100:e80 kick L.wav
320,192,53446,1,0,0:0:0:0:
64,192,53618,1,0,0:0:0:0:
448,192,53705,1,0,0:0:0:100:e80 kick L.wav
320,192,53705,1,0,0:0:0:0:
192,192,53791,1,0,0:0:0:0:
64,192,53963,1,0,0:0:0:100:e80 kick L.wav
448,192,53963,1,0,0:0:0:0:
320,192,54049,1,0,0:0:0:0:
192,192,54136,128,0,54308:0:0:0:100:e80 kick L.wav
64,192,54136,1,0,0:0:0:0:
448,192,54308,1,0,0:0:0:0:
64,192,54480,1,0,0:0:0:100:e80 kick L.wav
320,192,54480,128,0,54653:0:0:0:0:
64,192,54653,128,0,54825:0:0:0:0:
448,192,54653,1,0,0:0:0:0:
192,192,54739,1,0,0:0:0:0:
320,192,54825,1,0,0:0:0:0:
448,192,54825,128,0,54998:0:0:0:100:e80 kick L.wav
192,192,54998,128,0,55170:0:0:0:0:
320,192,55170,1,0,0:0:0:0:
64,192,55170,128,0,55342:0:0:0:100:e80 kick L.wav
448,192,55342,128,0,55515:0:0:0:0:
64,192,55515,1,0,0:0:0:100:e80 kick L.wav
320,192,55515,1,0,0:0:0:0:
192,192,55687,128,0,55860:0:0:0:0:
64,192,55860,1,0,0:0:0:100:e80 kick L.wav
448,192,55860,1,0,0:0:0:0:
320,192,56032,128,0,56205:0:0:0:0:
64,192,56205,1,0,0:0:0:100:e80 kick L.wav
192,192,56205,1,0,0:0:0:50:LR_Snare Clap High.wav
448,192,56205,1,0,0:0:0:0:
64,192,56377,128,0,56549:0:0:0:50:rock2_7_a1.wav
320,192,56377,1,0,0:0:0:0:
192,192,56549,1,0,0:0:0:65:rock2_7_d2.wav
448,192,56549,1,0,0:0:0:0:
320,192,56722,1,0,0:0:0:100:e80 kick L.wav
448,192,56722,128,0,56894:0:0:0:0:
64,192,56894,1,0,0:0:0:100:e80 kick L.wav
192,192,56894,1,0,0:0:0:0:
320,192,57067,1,0,0:0:0:0:
64,192,57239,128,0,57411:0:0:0:100:e80 kick L.wav
448,192,57239,1,0,0:0:0:0:
192,192,57411,1,0,0:0:0:0:
448,192,57584,1,0,0:0:0:0:
320,192,57584,128,0,57756:0:0:0:100:e80 kick L.wav
192,192,57756,128,0,57929:0:0:0:0:
64,192,57929,1,0,0:0:0:100:e80 kick L.wav
448,192,57929,1,0,0:0:0:0:
320,192,58101,128,0,58274:0:0:0:0:
64,192,58274,1,0,0:0:0:100:e80 kick L.wav
192,192,58274,1,0,0:0:0:0:
448,192,58446,128,0,58618:0:0:0:0:
64,192,58618,1,0,0:0:0:100:e80 kick L.wav
320,192,58618,1,0,0:0:0:0:
192,192,58791,1,0,0:0:0:0:
192,192,58963,128,0,59136:0:0:0:100:e80 kick L.wav
448,192,58963,1,0,0:0:0:0:
64,192,59136,1,0,0:0:0:0:
320,192,59222,1,0,0:0:0:100:e80 kick L.wav
448,192,59222,1,0,0:0:0:0:
192,192,59308,1,0,0:0:0:0:
320,192,59480,1,0,0:0:0:100:e80 kick L.wav
64,192,59480,128,0,59653:0:0:0:0:
192,192,59653,128,0,59825:0:0:0:100:e80 kick L.wav
448,192,59653,1,0,0:0:0:0:
320,192,59825,1,0,0:0:0:0:
64,192,59998,1,0,0:0:0:100:e80 kick L.wav
320,192,59998,128,0,60170:0:0:0:0:
192,192,60170,1,0,0:0:0:0:
64,192,60342,128,0,60687:0:0:0:100:e80 kick L.wav
448,192,60342,1,0,0:0:0:0:
192,192,60515,1,0,0:0:0:0:
320,192,60687,1,0,0:0:0:0:
448,192,60687,1,0,0:0:0:100:e80 kick L.wav
64,192,60860,1,0,0:0:0:50:LR_Snare Clap High.wav
448,192,60860,128,0,61205:0:0:0:0:
192,192,60860,1,0,0:0:0:0:
192,192,61205,128,0,61549:0:0:0:0:
320,192,61549,1,0,0:0:0:50:LR_Snare Clap High.wav
448,192,61549,1,0,0:0:0:0:
64,192,61636,1,0,0:0:0:50:LR_Snare Clap High.wav
192,192,61636,1,0,0:0:0:0:
448,192,61722,1,0,0:0:0:0:
320,192,61722,1,0,0:0:0:50:LR_Snare Clap High.wav
64,192,61894,1,0,0:0:0:50:LR_Snare Clap High.wav
192,192,61894,1,0,0:0:0:0:
64,192,62067,1,0,0:0:0:50:rock2_7_a1.wav
448,192,62067,1,0,0:0:0:0:
64,192,62411,1,0,0:0:0:100:e80 kick L.wav
192,192,62411,1,0,0:0:0:60:cymlocrsh.wav
448,192,62411,128,0,62756:0:0:0:0:
64,192,62756,1,0,0:0:0:0:
192,192,62756,128,0,63101:0:0:0:0:
320,192,62929,1,0,0:0:0:100:e80 kick L.wav
448,192,62929,1,0,0:0:0:0:
64,192,63101,128,0,63446:0:0:0:50:LR_Snare Clap High.wav
320,192,63101,1,0,0:0:0:0:
448,192,63101,1,0,0:0:0:0:
320,192,63446,128,0,63791:0:0:0:0:
448,192,63446,1,0,0:0:0:0:
64,192,63618,1,0,0:0:0:100:e80 kick L.wav
192,192,63618,1,0,0:0:0:0:
64,192,63791,1,0,0:0:0:100:e80 kick L.wav
448,192,63791,128,0,64136:0:0:0:0:
192,192,63791,1,0,0:0:0:0:
64,192,64136,1,0,0:0:0:100:e80 kick L.wav
320,192,64136,1,0,0:0:0:0:
192,192,64480,128,0,64825:0:0:0:50:LR_Snare Clap High.wav
320,192,64480,1,0,0:0:0:0:
448,192,64480,1,0,0:0:0:0:
320,192,64825,1,0,0:0:0:0:
448,192,64825,1,0,0:0:0:0:
64,192,64998,1,0,0:0:0:100:e80 kick L.wav
192,192,64998,1,0,0:0:0:0:
320,192,65084,1,0,0:0:0:100:e80 kick L.wav
64,192,65170,128,0,65515:0:0:0:50:LR_Snare Clap High.wav
192,192,65170,1,0,0:0:0:60:cymlocrsh.wav
448,192,65170,1,0,0:0:0:0:
320,192,65515,1,0,0:0:0:50:LR_Snare Clap High.wav
448,192,65515,1,0,0:0:0:0:
320,192,65687,1,0,0:0:0:50:LR_Snare Clap High.wav
448,192,65687,1,0,0:0:0:0:
192,192,65860,1,0,0:0:0:50:LR_Snare Clap High.wav
320,192,65860,1,0,0:0:0:65:rock2_7_d2.wav
448,192,65860,1,0,0:0:0:0:
192,192,66032,1,0,0:0:0:50:LR_Snare Clap High.wav
320,192,66032,1,0,0:0:0:65:rock2_7_d2.wav
448,192,66032,1,0,0:0:0:0:
64,192,66205,1,0,0:0:0:50:LR_Snare Clap High.wav
320,192,66205,1,0,0:0:0:65:rock2_7_d2.wav
448,192,66205,1,0,0:0:0:0:
64,192,66377,1,0,0:0:0:50:LR_Snare Clap High.wav
192,192,66377,1,0,0:0:0:65:rock2_7_d2.wav
320,192,66377,1,0,0:0:0:0:
448,192,66377,1,0,0:0:0:0:
320,192,67239,128,0,67584:0:0:0:0:
448,192,67411,1,0,0:0:0:0:
64,192,67498,1,0,0:0:0:0:
192,192,67584,1,0,0:0:0:0:
192,192,67756,1,0,0:0:0:0:
64,192,67929,1,0,0:0:0:50:LR_Snare Clap High.wav
320,192,67929,1,0,0:0:0:60:cymlocrsh.wav
448,192,67929,1,0,0:0:0:0:
192,192,68101,1,0,0:0:0:100:e80 kick L.wav
320,192,68101,1,0,0:0:0:0:
64,192,68274,1,0,0:0:0:50:LR_Snare Clap High.wav
192,192,68274,1,0,0:0:0:0:
448,192,68274,1,0,0:0:0:0:
64,192,68446,1,0,0:0:0:100:e80 kick L.wav
320,192,68446,1,0,0:0:0:0:
64,192,68618,128,0,68963:0:0:0:50:LR_Snare Clap High.wav
192,192,68618,1,0,0:0:0:0:
448,192,68618,1,0,0:0:0:0:
320,192,68791,1,0,0:0:0:100:e80 kick L.wav
448,192,68791,1,0,0:0:0:0:
192,192,68963,1,0,0:0:0:50:LR_Snare Clap High.wav
320,192,68963,1,0,0:0:0:0:
448,192,68963,128,0,69308:0:0:0:0:
64,192,69136,1,0,0:0:0:100:e80 kick L.wav
192,192,69136,1,0,0:0:0:0:
64,192,69308,1,0,0:0:0:50:LR_Snare Clap High.wav
192,192,69308,1,0,0:0:0:0:
320,192,69308,1,0,0:0:0:0:
320,192,69480,1,0,0:0:0:100:e80 kick L.wav
448,192,69480,1,0,0:0:0:0:
64,192,69653,1,0,0:0:0:50:LR_Snare Clap High.wav
192,192,69653,1,0,0:0:0:0:
448,192,69653,1,0,0:0:0:0:
64,192,69825,1,0,0:0:0:100:e80 kick L.wav
320,192,69825,1,0,0:0:0:0:
64,192,69998,128,0,70342:0:0:0:50:LR_Snare Clap High.wav
192,192,69998,1,0,0:0:0:0:
448,192,69998,1,0,0:0:0:0:
320,192,70170,1,0,0:0:0:100:e80 kick L.wav
448,192,70170,1,0,0:0:0:0:
192,192,70342,1,0,0:0:0:50:LR_Snare Clap High.wav
320,192,70342,1,0,0:0:0:0:
448,192,70342,128,0,70687:0:0:0:0:
64,192,70515,1,0,0:0:0:100:e80 kick L.wav
192,192,70515,1,0,0:0:0:0:
64,192,70687,1,0,0:0:0:50:LR_Snare Clap High.wav
192,192,70687,128,0,70860:0:0:0:0:
320,192,70687,1,0,0:0:0:0:
320,192,70860,1,0,0:0:0:100:e80 kick L.wav
448,192,70860,1,0,0:0:0:0:
64,192,71032,1,0,0:0:0:50:LR_Snare Clap High.wav
192,192,71032,1,0,0:0:0:0:
448,192,71032,128,0,71205:0:0:0:0:
64,192,71205,1,0,0:0:0:100:e80 kick L.wav
320,192,71205,1,0,0:0:0:0:
192,192,71377,1,0,0:0:0:50:LR_Snare Clap High.wav
320,192,71377,128,0,71549:0:0:0:0:
448,192,71377,1,0,0:0:0:0:
64,192,71549,1,0,0:0:0:100:e80 kick L.wav
192,192,71549,1,0,0:0:0:0:
64,192,71722,128,0,71894:0:0:0:50:LR_Snare Clap High.wav
320,192,71722,1,0,0:0:0:0:
448,192,71722,1,0,0:0:0:0:
192,192,71894,1,0,0:0:0:100:e80 kick L.wav
448,192,71894,1,0,0:0:0:0:
64,192,72067,1,0,0:0:0:50:LR_Snare Clap High.wav
192,192,72067,128,0,72239:0:0:0:0:
320,192,72067,1,0,0:0:0:0:
320,192,72239,128,0,72411:0:0:0:0:
64,192,72411,1,0,0:0:0:100:e80 kick L.wav
448,192,72411,128,0,72756:0:0:0:0:
64,192,72584,1,0,0:0:0:50:LR_Snare Clap High.wav
192,192,72584,1,0,0:0:0:0:
320,192,72584,1,0,0:0:0:0:
192,192,72756,128,0,72929:0:0:0:0:
64,192,72929,1,0,0:0:0:100:e80 kick L.wav
320,192,72929,128,0,73274:0:0:0:50:LR_Snare Clap High.wav
448,192,72929,128,0,73274:0:0:0:60:cymlocrsh.wav
64,192,73274,1,0,0:0:0:100:e80 kick L.wav
192,192,73274,1,0,0:0:0:0:
320,192,73360,1,0,0:0:0:0:
64,192,73446,1,0,0:0:0:100:e80 kick L.wav
448,192,73446,1,0,0:0:0:0:
192,192,73446,1,0,0:0:0:60:cymlocrsh.wav
320,192,73618,1,0,0:0:0:0:
64,192,73791,1,0,0:0:0:100:e80 kick L.wav
320,192,73791,128,0,74136:0:0:0:50:LR_Snare Clap High.wav
448,192,73791,1,0,0:0:0:0:
192,192,73963,1,0,0:0:0:0:
64,192,74136,1,0,0:0:0:100:e80 kick L.wav
192,192,74136,128,0,74480:0:0:0:0:
320,192,74308,1,0,0:0:0:0:
64,192,74480,1,0,0:0:0:100:e80 kick L.wav
320,192,74480,128,0,74825:0:0:0:50:LR_Snare Clap High.wav
448,192,74480,1,0,0:0:0:0:
192,192,74653,1,0,0:0:0:0:
64,192,74825,1,0,0:0:0:100:e80 kick L.wav
192,192,74825,128,0,75170:0:0:0:0:
320,192,74998,1,0,0:0:0:0:
64,192,75170,1,0,0:0:0:100:e80 kick L.wav
448,192,75170,1,0,0:0:0:50:LR_Snare Clap High.wav
320,192,75170,1,0,0:0:0:0:
448,192,75342,128,0,75515:0:0:0:0:
64,192,75515,1,0,0:0:0:100:e80 kick L.wav
320,192,75515,128,0,75687:0:0:0:0:
192,192,75687,128,0,75860:0:0:0:0:
64,192,75860,128,0,76205:0:0:0:100:e80 kick L.wav
320,192,75860,1,0,0:0:0:50:LR_Snare Clap High.wav
448,192,75860,1,0,0:0:0:0:
320,192,76032,1,0,0:0:0:0:
192,192,76205,1,0,0:0:0:100:e80 kick L.wav
448,192,76205,128,0,76549:0:0:0:0:
64,192,76377,1,0,0:0:0:0:
64,192,76549,1,0,0:0:0:100:e80 kick L.wav
192,192,76549,1,0,0:0:0:50:LR_Snare Clap High.wav
320,192,76549,1,0,0:0:0:0:
320,192,76722,128,0,77067:0:0:0:0:
64,192,76894,1,0,0:0:0:100:e80 kick L.wav
192,192,76894,1,0,0:0:0:0:
448,192,77067,1,0,0:0:0:0:
320,192,77239,1,0,0:0:0:50:LR_Snare Clap High.wav
448,192,77239,1,0,0:0:0:0:
64,192,77239,128,0,77411:0:0:0:100:e80 kick L.wav
192,192,77411,128,0,77756:0:0:0:0:
320,192,77584,1,0,0:0:0:100:e80 kick L.wav
448,192,77584,1,0,0:0:0:0:
320,192,77756,128,0,77929:0:0:0:0:
64,192,77929,1,0,0:0:0:50:LR_Snare Clap High.wav
192,192,77929,1,0,0:0:0:0:
448,192,77929,1,0,0:0:0:0:
64,192,78101,128,0,78446:0:0:0:50:LR_Snare Clap High.wav
320,192,78101,1,0,0:0:0:0:
448,192,78101,1,0,0:0:0:0:
192,192,78446,1,0,0:0:0:100:e80 kick L.wav
320,192,78446,1,0,0:0:0:50:LR_Snare Clap High.wav
448,192,78446,1,0,0:0:0:60:cymlocrsh.wav
192,192,78618,1,0,0:0:0:50:LR_Snare Clap High.wav
64,192,78618,1,0,0:0:0:0:
448,192,78705,1,0,0:0:0:50:LR_Snare Clap High.wav
320,192,78705,1,0,0:0:0:0:
192,192,78791,1,0,0:0:0:50:LR_Snare Clap High.wav
64,192,78791,1,0,0:0:0:0:
64,192,78963,1,0,0:0:0:50:LR_Snare Clap High.wav
320,192,78963,1,0,0:0:0:60:cymlocrsh.wav
448,192,78963,1,0,0:0:0:0:
192,192,79136,1,0,0:0:0:100:e80 kick L.wav
320,192,79136,1,0,0:0:0:0:
64,192,79308,1,0,0:0:0:50:LR_Snare Clap High.wav
192,192,79308,1,0,0:0:0:0:
448,192,79308,1,0,0:0:0:0:
64,192,79480,1,0,0:0:0:100:e80 kick L.wav
320,192,79480,1,0,0:0:0:0:
64,192,79653,128,0,79998:0:0:0:50:LR_Snare Clap High.wav
192,192,79653,1,0,0:0:0:0:
448,192,79653,1,0,0:0:0:0:
320,192,79825,1,0,0:0:0:100:e80 kick L.wav
448,192,79825,1,0,0:0:0:0:
192,192,79998,1,0,0:0:0:50:LR_Snare Clap High.wav
320,192,79998,1,0,0:0:0:0:
448,192,79998,128,0,80342:0:0:0:0:
64,192,80170,1,0,0:0:0:100:e80 kick L.wav
192,192,80170,1,0,0:0:0:0:
64,192,80342,1,0,0:0:0:50:LR_Snare Clap High.wav
192,192,80342,1,0,0:0:0:0:
320,192,80342,1,0,0:0:0:0:
320,192,80515,1,0,0:0:0:100:e80 kick L.wav
448,192,80515,1,0,0:0:0:0:
64,192,80687,1,0,0:0:0:50:LR_Snare Clap High.wav
192,192,80687,1,0,0:0:0:0:
448,192,80687,1,0,0:0:0:0:
64,192,80860,1,0,0:0:0:100:e80 kick L.wav
320,192,80860,1,0,0:0:0:0:
64,192,81032,128,0,81377:0:0:0:50:LR_Snare Clap High.wav
192,192,81032,1,0,0:0:0:0:
448,192,81032,1,0,0:0:0:0:
320,192,81205,1,0,0:0:0:100:e80 kick L.wav
448,192,81205,1,0,0:0:0:0:
192,192,81377,1,0,0:0:0:50:LR_Snare Clap High.wav
320,192,81377,1,0,0:0:0:0:
448,192,81377,128,0,81722:0:0:0:0:
64,192,81549,1,0,0:0:0:100:e80 kick L.wav
192,192,81549,1,0,0:0:0:0:
64,192,81722,1,0,0:0:0:50:LR_Snare Clap High.wav
192,192,81722,128,0,81894:0:0:0:0:
320,192,81722,1,0,0:0:0:0:
320,192,81894,1,0,0:0:0:100:e80 kick L.wav
448,192,81894,1,0,0:0:0:0:
64,192,82067,1,0,0:0:0:50:LR_Snare Clap High.wav
192,192,82067,1,0,0:0:0:0:
448,192,82067,128,0,82239:0:0:0:0:
64,192,82239,1,0,0:0:0:100:e80 kick L.wav
320,192,82239,1,0,0:0:0:0:
192,192,82411,1,0,0:0:0:50:LR_Snare Clap High.wav
320,192,82411,128,0,82584:0:0:0:0:
448,192,82411,1,0,0:0:0:0:
64,192,82584,1,0,0:0:0:100:e80 kick L.wav
192,192,82584,1,0,0:0:0:0:
64,192,82756,128,0,82929:0:0:0:50:LR_Snare Clap High.wav
320,192,82756,1,0,0:0:0:0:
448,192,82756,1,0,0:0:0:0:
192,192,82929,1,0,0:0:0:100:e80 kick L.wav
448,192,82929,1,0,0:0:0:0:
64,192,83101,1,0,0:0:0:50:LR_Snare Clap High.wav
192,192,83101,128,0,83274:0:0:0:0:
320,192,83101,1,0,0:0:0:0:
448,192,83274,1,0,0:0:0:0:
64,192,83446,1,0,0:0:0:100:e80 kick L.wav
448,192,83446,128,0,83791:0:0:0:0:
64,192,83618,1,0,0:0:0:50:LR_Snare Clap High.wav
192,192,83618,1,0,0:0:0:0:
320,192,83618,1,0,0:0:0:0:
192,192,83791,128,0,83963:0:0:0:0:
64,192,83963,1,0,0:0:0:100:e80 kick L.wav
320,192,83963,128,0,84308:0:0:0:50:LR_Snare Clap High.wav
448,192,83963,128,0,84308:0:0:0:60:cymlocrsh.wav
64,192,84308,1,0,0:0:0:100:e80 kick L.wav
192,192,84308,1,0,0:0:0:0:
320,192,84394,1,0,0:0:0:0:
64,192,84480,1,0,0:0:0:100:e80 kick L.wav
192,192,84480,1,0,0:0:0:60:cymlocrsh.wav
448,192,84480,128,0,84825:0:0:0:0:
320,192,84653,1,0,0:0:0:0:
64,192,84825,1,0,0:0:0:100:e80 kick L.wav
192,192,84825,1,0,0:0:0:50:LR_Snare Clap High.wav
320,192,84825,1,0,0:0:0:0:
64,192,84998,128,0,85342:0:0:0:0:
320,192,85170,1,0,0:0:0:100:e80 kick L.wav
448,192,85170,1,0,0:0:0:0:
192,192,85342,1,0,0:0:0:0:
64,192,85515,1,0,0:0:0:100:e80 kick L.wav
320,192,85515,128,0,85860:0:0:0:50:LR_Snare Clap High.wav
448,192,85515,1,0,0:0:0:0:
192,192,85687,1,0,0:0:0:0:
64,192,85860,1,0,0:0:0:100:e80 kick L.wav
192,192,85860,1,0,0:0:0:0:
448,192,86032,1,0,0:0:0:0:
64,192,86205,128,0,86549:0:0:0:100:e80 kick L.wav
320,192,86205,1,0,0:0:0:50:LR_Snare Clap High.wav
448,192,86205,1,0,0:0:0:0:
192,192,86377,1,0,0:0:0:0:
320,192,86549,1,0,0:0:0:100:e80 kick L.wav
448,192,86549,128,0,86808:0:0:0:0:
64,192,86722,1,0,0:0:0:0:
192,192,86808,128,0,87067:0:0:0:0:
64,192,86894,1,0,0:0:0:100:e80 kick L.wav
320,192,86894,1,0,0:0:0:50:LR_Snare Clap High.wav
448,192,86894,1,0,0:0:0:0:
320,192,87067,128,0,87239:0:0:0:0:
192,192,87239,1,0,0:0:0:100:e80 kick L.wav
448,192,87239,128,0,87584:0:0:0:0:
64,192,87411,1,0,0:0:0:0:
64,192,87584,1,0,0:0:0:100:e80 kick L.wav
192,192,87584,1,0,0:0:0:50:LR_Snare Clap High.wav
320,192,87584,1,0,0:0:0:0:
320,192,87756,128,0,87929:0:0:0:0:
64,192,87929,1,0,0:0:0:100:e80 kick L.wav
192,192,87929,1,0,0:0:0:0:
192,192,88101,128,0,88274:0:0:0:0:
320,192,88274,1,0,0:0:0:50:LR_Snare Clap High.wav
448,192,88274,1,0,0:0:0:0:
64,192,88274,128,0,88446:0:0:0:100:e80 kick L.wav
448,192,88446,128,0,88618:0:0:0:0:
192,192,88618,1,0,0:0:0:100:e80 kick L.wav
320,192,88618,1,0,0:0:0:50:LR_Snare Clap High.wav
64,192,88618,1,0,0:0:0:60:cymlocrsh.wav
448,192,88791,1,0,0:0:0:0:
64,192,88963,1,0,0:0:0:100:e80 kick L.wav
448,192,88963,128,0,89136:0:0:0:0:
192,192,89136,1,0,0:0:0:50:LR_Snare Clap High.wav
320,192,89136,1,0,0:0:0:0:
64,192,89136,1,0,0:0:0:0:
320,192,89308,128,0,89480:0:0:0:0:
192,192,89480,1,0,0:0:0:100:e80 kick L.wav
64,192,89480,1,0,0:0:0:60:cymlocrsh.wav
448,192,89480,1,0,0:0:0:0:
448,192,89653,1,0,0:0:0:50:LR_Snare Clap High.wav
320,192,89653,1,0,0:0:0:0:
192,192,89739,1,0,0:0:0:50:LR_Snare Clap High.wav
64,192,89739,1,0,0:0:0:0:
448,192,89825,1,0,0:0:0:50:LR_Snare Clap High.wav
320,192,89825,1,0,0:0:0:0:
192,192,89998,1,0,0:0:0:100:e80 kick L.wav
320,192,89998,1,0,0:0:0:60:cymlocrsh.wav
64,192,89998,1,0,0:0:0:0:
448,192,90342,128,0,90687:0:0:0:0:
64,192,90515,1,0,0:0:0:50:rock2_7_a1.wav
192,192,90515,128,0,90687:0:0:0:0:
320,192,90687,128,0,91032:0:0:0:0:
64,192,91032,1,0,0:0:0:50:LR_Snare Clap High.wav
448,192,91032,1,0,0:0:0:0:
64,192,91205,128,0,91549:0:0:0:65:rock2_7_d2.wav
320,192,91205,1,0,0:0:0:0:
192,192,91291,1,0,0:0:0:65:rock2_7_d2.wav
320,192,91377,1,0,0:0:0:100:e80 kick L.wav
448,192,91377,1,0,0:0:0:0:
320,192,91722,128,0,92067:0:0:0:0:
192,192,91894,1,0,0:0:0:50:rock2_7_a1.wav
448,192,91894,128,0,92067:0:0:0:0:
64,192,92067,128,0,92239:0:0:0:0:
192,192,92239,1,0,0:0:0:65:rock2_7_d2.wav
448,192,92239,1,0,0:0:0:0:
320,192,92411,1,0,0:0:0:65:rock2_7_d2.wav
448,192,92411,128,0,92584:0:0:0:0:
64,192,92584,1,0,0:0:0:50:LR_Snare Clap High.wav
192,192,92584,1,0,0:0:0:0:
320,192,92670,1,0,0:0:0:50:LR_Snare Clap High.wav
64,192,92756,1,0,0:0:0:100:e80 kick L.wav
448,192,92756,128,0,92929:0:0:0:50:LR_Snare Clap High.wav
192,192,92929,1,0,0:0:0:0:
320,192,93101,128,0,93274:0:0:0:0:
64,192,93274,1,0,0:0:0:50:rock2_7_a1.wav
448,192,93274,1,0,0:0:0:0:
64,192,93446,128,0,93705:0:0:0:50:rock2_7_a1.wav
192,192,93446,1,0,0:0:0:0:
320,192,93618,1,0,0:0:0:65:rock2_7_d2.wav
448,192,93618,1,0,0:0:0:0:
192,192,93705,128,0,93963:0:0:0:0:
320,192,93791,1,0,0:0:0:65:rock2_7_d2.wav
448,192,93791,1,0,0:0:0:0:
64,192,93963,1,0,0:0:0:100:e80 kick L.wav
320,192,93963,128,0,94136:0:0:0:0:
64,192,94136,1,0,0:0:0:100:e80 kick L.wav
192,192,94136,1,0,0:0:0:60:cymlocrsh.wav
448,192,94136,128,0,96549:0:0:0:0:
320,192,95342,128,0,95429:0:0:0:0:
64,192,95429,128,0,95515:0:0:0:0:
192,192,95515,128,0,95601:0:0:0:0:
320,192,95601,128,0,96549:0:0:0:0:
64,192,96894,1,0,0:0:0:0:
448,192,96894,128,0,97067:0:0:0:0:
320,192,97067,128,0,97239:0:0:0:0:
192,192,97239,128,0,97411:0:0:0:0:
448,192,97411,128,0,97584:0:0:0:0:
64,192,97584,128,0,97929:0:0:0:0:
320,192,97929,128,0,98274:0:0:0:0:
192,192,98274,128,0,98446:0:0:0:0:
448,192,98274,1,0,0:0:0:0:
192,192,98618,128,0,98791:0:0:0:0:
320,192,98963,128,0,99308:0:0:0:0:
192,192,99308,128,0,99653:0:0:0:0:
64,192,99653,128,0,99825:0:0:0:0:
448,192,99653,1,0,0:0:0:0:
