osu file format v14

[General]
AudioFilename: audio.mp3
AudioLeadIn: 0
PreviewTime: 50193
Countdown: 0
SampleSet: Normal
StackLeniency: 0.7
Mode: 1
LetterboxInBreaks: 0
WidescreenStoryboard: 1

[Editor]
Bookmarks: 5067,59520,75655,130109
DistanceSpacing: 1.8
BeatDivisor: 3
GridSize: 32
TimelineZoom: 2.1

[Metadata]
Title:complex syndrome
TitleUnicode:コンプレックス症候群
Artist:Amehurashi
ArtistUnicode:アメフラシ
Creator:arcpotato
Version:Oni
Source:
Tags:japanese jpop pop j-pop jrock j-rock rock 葉露 Haro biz 雪月 Yuzuki Female Vocals Amefurashi nou のう mashimo 真霜 shokogun shoukougun yurishe
BeatmapID:3290179
BeatmapSetID:1596288

[Difficulty]
HPDrainRate:5.5
CircleSize:2
OverallDifficulty:5.5
ApproachRate:5
SliderMultiplier:1.4
SliderTickRate:1

[Events]
//Background and Video events
0,0,"BG.jpg",0,100
Video,0,"resized_complexsyndrome_vid.mp4"
//Break Periods
//Storyboard Layer 0 (Background)
//Storyboard Layer 1 (Fail)
//Storyboard Layer 2 (Pass)
//Storyboard Layer 3 (Foreground)
//Storyboard Layer 4 (Overlay)
//Storyboard Sound Samples

[TimingPoints]
25,252.100840336134,4,1,0,80,1,0
25,-133.333333333333,4,1,0,80,0,0
5067,-100,4,1,0,80,0,0
12756,-101.009696289767,4,1,0,80,0,0
12882,-102.039990285761,4,1,0,80,0,0
13008,-103.091518769935,4,1,0,80,0,0
13134,-104.164945045864,4,1,0,80,0,0
13260,-105.260960334029,4,1,0,80,0,0
13386,-106.38028525614,4,1,0,80,0,0
13512,-107.523671415167,4,1,0,80,0,0
13890,-111.106214191274,4,1,0,80,0,0
14016,-112.354042249755,4,1,0,80,0,0
14142,-113.630217254124,4,1,0,80,0,0
14268,-114.935716239628,4,1,0,80,0,0
14646,-119.038624988195,4,1,0,80,0,0
14772,-120.472139921629,4,1,0,80,0,0
15151,-125,4,1,0,60,0,0
18680,-117.647058823529,4,1,0,65,0,0
18806,-111.111111111111,4,1,0,70,0,0
18932,-105.263157894737,4,1,0,75,0,0
19058,-100,4,1,0,80,0,0
23344,-125,4,1,0,80,0,0
27251,-100,4,1,0,80,0,0
31411,-111.111111111111,4,1,0,70,0,0
39478,-125,4,1,0,60,0,0
43386,-111.111111111111,4,1,0,80,0,0
51453,-100,4,1,0,80,0,1
67588,-100,4,1,0,80,0,0
67714,-117.647058823529,4,1,0,70,0,0
75655,-100,4,1,0,80,0,0
83344,-101.009696289767,4,1,0,80,0,0
83470,-102.039990285761,4,1,0,80,0,0
83596,-103.091518769935,4,1,0,80,0,0
83722,-104.164945045864,4,1,0,80,0,0
83848,-105.260960334029,4,1,0,80,0,0
83974,-106.38028525614,4,1,0,80,0,0
84100,-107.523671415167,4,1,0,80,0,0
84478,-111.106214191274,4,1,0,80,0,0
84604,-112.354042249755,4,1,0,80,0,0
84730,-113.630217254124,4,1,0,80,0,0
84856,-114.935716239628,4,1,0,80,0,0
85235,-119.049867774839,4,1,0,80,0,0
85361,-120.483655132862,4,1,0,80,0,0
85739,-125,4,1,0,60,0,0
89772,-111.111111111111,4,1,0,60,0,0
93806,-108.108108108108,4,1,0,90,0,0
94814,-105.263157894737,4,1,0,90,0,0
95823,-102.564102564103,4,1,0,90,0,0
96831,-100,4,1,0,90,0,0
97335,-111.111111111111,4,1,0,90,0,0
97840,-100,4,1,0,80,0,0
109310,-102.040816326531,4,1,0,80,0,0
109562,-104.166666666667,4,1,0,80,0,0
109688,-106.382978723404,4,1,0,80,0,0
109814,-108.695652173913,4,1,0,80,0,0
109940,-111.111111111111,4,1,0,70,0,0
110067,-125,4,1,0,60,0,0
113974,-111.111111111111,4,1,0,60,0,0
122041,-100,4,1,0,80,0,1
138176,-100,4,1,0,80,0,0
138302,-117.647058823529,4,1,0,80,0,0
146243,-142.857142857143,4,1,0,80,0,0

[HitObjects]
128,224,529,5,0,0:0:0:0:
123,192,1033,1,8,0:0:0:0:
64,192,1537,1,0,0:0:0:0:
200,230,1789,1,8,0:0:0:0:
133,196,2041,1,0,0:0:0:0:
263,198,2209,1,8,0:0:0:0:
244,181,2546,1,0,0:0:0:0:
263,198,2924,1,0,0:0:0:0:
138,165,3050,1,8,0:0:0:0:
203,188,3218,1,8,0:0:0:0:
345,218,3386,1,0,0:0:0:0:
206,174,3554,1,8,0:0:0:0:
285,223,3890,1,8,0:0:0:0:
330,197,4058,1,4,0:0:0:0:
185,282,4562,1,0,0:0:0:0:
301,230,4814,1,8,0:0:0:0:
264,224,4940,1,8,0:0:0:0:
301,230,5067,1,4,0:0:0:0:
275,226,5319,1,8,0:0:0:0:
333,240,5571,1,0,0:0:0:0:
301,213,5823,1,8,0:0:0:0:
288,239,6075,1,0,0:0:0:0:
257,202,6201,1,0,0:0:0:0:
283,218,6327,1,8,0:0:0:0:
268,241,6579,1,8,0:0:0:0:
306,151,6642,1,8,0:0:0:0:
267,194,6705,1,0,0:0:0:0:
291,221,6831,1,8,0:0:0:0:
237,248,7335,1,8,0:0:0:0:
170,226,7588,1,8,0:0:0:0:
157,171,7651,1,8,0:0:0:0:
139,171,7714,1,0,0:0:0:0:
180,234,7840,1,8,0:0:0:0:
273,188,8092,1,0,0:0:0:0:
310,229,8344,1,0,0:0:0:0:
273,188,8407,1,0,0:0:0:0:
316,195,8470,1,0,0:0:0:0:
346,177,8596,1,8,0:0:0:0:
347,192,8722,1,0,0:0:0:0:
335,170,8848,1,8,0:0:0:0:
325,191,9100,1,4,0:0:0:0:
252,209,9352,1,0,0:0:0:0:
223,226,9415,1,0,0:0:0:0:
248,218,9478,1,8,0:0:0:0:
226,205,9604,1,8,0:0:0:0:
252,209,9856,1,8,0:0:0:0:
262,170,9982,1,8,0:0:0:0:
206,228,10109,1,0,0:0:0:0:
198,197,10361,1,0,0:0:0:0:
236,167,10613,1,8,0:0:0:0:
274,197,10739,1,0,0:0:0:0:
236,167,10865,1,8,0:0:0:0:
191,167,11117,1,0,0:0:0:0:
269,254,11180,1,0,0:0:0:0:
307,177,11243,1,8,0:0:0:0:
195,232,11369,1,0,0:0:0:0:
237,173,11495,1,0,0:0:0:0:
255,214,11621,1,8,0:0:0:0:
186,210,11873,1,0,0:0:0:0:
194,214,12125,1,8,0:0:0:0:
267,207,12251,1,0,0:0:0:0:
195,210,12377,1,8,0:0:0:0:
195,210,12630,1,8,0:0:0:0:
224,160,12756,1,8,0:0:0:0:
195,210,12882,1,0,0:0:0:0:
224,160,13008,1,0,0:0:0:0:
223,191,13134,1,8,0:0:0:0:
262,195,13260,1,8,0:0:0:0:
224,192,13386,1,0,0:0:0:0:
221,182,13512,1,8,0:0:0:0:
237,171,13890,1,0,0:0:0:0:
212,179,14016,1,0,0:0:0:0:
180,192,14142,1,8,0:0:0:0:
196,172,14268,1,0,0:0:0:0:
237,171,14646,1,0,0:0:0:0:
186,164,14772,1,0,0:0:0:0:
200,160,15151,1,12,0:0:0:0:
224,168,15655,1,0,0:0:0:0:
231,193,15907,1,0,0:0:0:0:
243,182,16159,1,8,0:0:0:0:
250,186,16537,1,0,0:0:0:0:
242,196,16663,1,8,0:0:0:0:
194,164,16915,1,8,0:0:0:0:
251,187,17167,1,8,0:0:0:0:
226,165,17293,1,0,0:0:0:0:
188,105,17419,1,8,0:0:0:0:
212,162,17546,1,0,0:0:0:0:
201,158,17672,1,8,0:0:0:0:
250,155,17924,1,0,0:0:0:0:
240,195,18176,1,8,0:0:0:0:
256,192,18554,12,0,19058,0:0:0:0:
210,197,19184,5,0,0:0:0:0:
211,204,19310,1,8,0:0:0:0:
200,168,19436,1,0,0:0:0:0:
200,168,19562,1,8,0:0:0:0:
237,165,19688,1,8,0:0:0:0:
207,167,19940,1,8,0:0:0:0:
207,167,20067,1,8,0:0:0:0:
191,170,20193,1,0,0:0:0:0:
185,196,20319,1,0,0:0:0:0:
262,198,20445,1,8,0:0:0:0:
169,216,20571,1,8,0:0:0:0:
169,198,20697,1,0,0:0:0:0:
197,235,20949,1,0,0:0:0:0:
254,236,21201,1,8,0:0:0:0:
222,191,21264,1,8,0:0:0:0:
254,236,21327,1,0,0:0:0:0:
213,221,21390,1,0,0:0:0:0:
203,216,21453,1,8,0:0:0:0:
170,163,21579,1,8,0:0:0:0:
198,166,21705,1,0,0:0:0:0:
221,169,21831,1,0,0:0:0:0:
221,160,21957,1,8,0:0:0:0:
237,165,22209,1,0,0:0:0:0:
241,135,22461,1,0,0:0:0:0:
244,131,22588,1,0,0:0:0:0:
262,198,22651,1,0,0:0:0:0:
247,142,22714,1,8,0:0:0:0:
249,124,22840,1,8,0:0:0:0:
247,142,22966,1,0,0:0:0:0:
262,198,23218,1,12,0:0:0:0:
262,198,23722,1,0,0:0:0:0:
262,198,24226,1,8,0:0:0:0:
262,198,24478,1,8,0:0:0:0:
262,198,24730,1,0,0:0:0:0:
262,198,25235,1,8,0:0:0:0:
262,198,25739,1,8,0:0:0:0:
262,198,25991,1,0,0:0:0:0:
340,60,26243,1,12,0:0:0:0:
294,166,26495,1,0,0:0:0:0:
303,90,26747,1,8,0:0:0:0:
160,192,26831,1,0,0:0:0:0:
294,134,26915,1,0,0:0:0:0:
299,106,26999,1,8,0:0:0:0:
285,108,27251,1,4,0:0:0:0:
284,117,27630,1,8,0:0:0:0:
283,157,27756,1,0,0:0:0:0:
248,140,28008,1,8,0:0:0:0:
313,112,28260,1,0,0:0:0:0:
333,95,28386,1,8,0:0:0:0:
147,208,28512,1,0,0:0:0:0:
251,127,28638,1,8,0:0:0:0:
243,145,28764,1,8,0:0:0:0:
218,136,28890,1,0,0:0:0:0:
230,173,29016,1,8,0:0:0:0:
269,153,29268,1,4,0:0:0:0:
295,158,29520,1,4,0:0:0:0:
273,160,29772,1,4,0:0:0:0:
291,166,30024,1,4,0:0:0:0:
262,198,30277,1,8,0:0:0:0:
96,224,30340,1,8,0:0:0:0:
262,198,30403,1,0,0:0:0:0:
262,198,30655,1,0,0:0:0:0:
262,198,30781,1,8,0:0:0:0:
128,224,30844,1,8,0:0:0:0:
262,198,30907,1,0,0:0:0:0:
262,198,31159,1,0,0:0:0:0:
262,198,31285,1,12,0:0:0:0:
262,198,31663,1,0,0:0:0:0:
262,198,32041,1,8,0:0:0:0:
262,198,32293,1,0,0:0:0:0:
262,198,32672,1,0,0:0:0:0:
262,198,33050,1,8,0:0:0:0:
262,198,33302,1,0,0:0:0:0:
262,198,33680,1,0,0:0:0:0:
262,198,34058,1,8,0:0:0:0:
262,198,34310,1,0,0:0:0:0:
251,205,34562,1,8,0:0:0:0:
262,198,34688,1,0,0:0:0:0:
262,198,34940,1,8,0:0:0:0:
262,198,35193,1,0,0:0:0:0:
230,198,35571,1,0,0:0:0:0:
230,198,35823,1,8,0:0:0:0:
166,294,36201,1,8,0:0:0:0:
166,294,36327,1,0,0:0:0:0:
262,198,36579,1,0,0:0:0:0:
262,198,36705,1,8,0:0:0:0:
262,198,37083,1,0,0:0:0:0:
320,96,37209,1,8,0:0:0:0:
262,198,37335,1,8,0:0:0:0:
262,198,37588,1,0,0:0:0:0:
262,198,37840,1,0,0:0:0:0:
262,198,38092,1,8,0:0:0:0:
262,198,38344,1,0,0:0:0:0:
262,198,38596,1,0,0:0:0:0:
262,198,38722,1,8,0:0:0:0:
262,198,38974,1,8,0:0:0:0:
262,198,39100,1,0,0:0:0:0:
262,198,39226,1,0,0:0:0:0:
262,198,39352,1,12,0:0:0:0:
230,166,39856,1,0,0:0:0:0:
262,198,40361,1,8,0:0:0:0:
262,198,40865,1,0,0:0:0:0:
262,198,41117,1,0,0:0:0:0:
262,198,41369,1,8,0:0:0:0:
262,198,41873,1,8,0:0:0:0:
262,198,42125,1,8,0:0:0:0:
262,198,42377,1,0,0:0:0:0:
294,230,42440,1,0,0:0:0:0:
294,198,42503,1,0,0:0:0:0:
294,198,42630,1,8,0:0:0:0:
294,198,42756,1,0,0:0:0:0:
320,224,42819,1,0,0:0:0:0:
294,198,42882,1,8,0:0:0:0:
294,198,43008,1,0,0:0:0:0:
294,198,43134,1,0,0:0:0:0:
294,198,43260,1,8,0:0:0:0:
294,198,43386,1,4,0:0:0:0:
262,198,43638,1,0,0:0:0:0:
262,198,43764,1,0,0:0:0:0:
262,198,43890,1,8,0:0:0:0:
230,198,44268,1,0,0:0:0:0:
230,198,44394,1,8,0:0:0:0:
230,198,44646,1,8,0:0:0:0:
262,198,44772,1,8,0:0:0:0:
230,198,44898,1,0,0:0:0:0:
230,198,45151,1,0,0:0:0:0:
230,198,45403,1,8,0:0:0:0:
262,198,45529,1,0,0:0:0:0:
230,198,45655,1,8,0:0:0:0:
230,198,45907,1,0,0:0:0:0:
262,198,46033,1,8,0:0:0:0:
230,198,46159,1,0,0:0:0:0:
230,198,46411,1,8,0:0:0:0:
262,134,46663,1,0,0:0:0:0:
262,134,46789,1,0,0:0:0:0:
262,198,46915,1,8,0:0:0:0:
262,198,47041,1,0,0:0:0:0:
262,198,47167,1,8,0:0:0:0:
262,198,47419,1,0,0:0:0:0:
230,198,47546,1,0,0:0:0:0:
262,198,47609,1,0,0:0:0:0:
262,198,47672,1,8,0:0:0:0:
262,198,47798,1,8,0:0:0:0:
262,198,47924,1,0,0:0:0:0:
262,198,48050,1,0,0:0:0:0:
262,198,48176,1,8,0:0:0:0:
262,198,48302,1,8,0:0:0:0:
262,198,48365,1,8,0:0:0:0:
262,198,48428,1,0,0:0:0:0:
262,198,48680,1,0,0:0:0:0:
262,198,48806,1,8,0:0:0:0:
262,198,48869,1,8,0:0:0:0:
262,198,48932,1,8,0:0:0:0:
262,198,49058,1,0,0:0:0:0:
262,198,49184,1,8,0:0:0:0:
262,198,49310,1,8,0:0:0:0:
262,198,49436,1,0,0:0:0:0:
262,198,49688,1,0,0:0:0:0:
288,128,49772,1,0,0:0:0:0:
262,198,49856,1,0,0:0:0:0:
262,198,49940,1,0,0:0:0:0:
262,198,50193,1,8,0:0:0:0:
134,198,50445,1,0,0:0:0:0:
262,198,50697,1,0,0:0:0:0:
134,198,50949,1,8,0:0:0:0:
262,198,51453,1,12,0:0:0:0:
262,198,51705,1,0,0:0:0:0:
262,198,51768,1,0,0:0:0:0:
262,198,51831,1,8,0:0:0:0:
262,198,51957,1,8,0:0:0:0:
268,184,52083,1,8,0:0:0:0:
262,198,52209,1,0,0:0:0:0:
262,198,52335,1,0,0:0:0:0:
262,198,52461,1,8,0:0:0:0:
262,198,52714,1,0,0:0:0:0:
262,198,52966,1,8,0:0:0:0:
273,171,53092,1,0,0:0:0:0:
262,198,53218,1,8,0:0:0:0:
262,198,53281,1,8,0:0:0:0:
262,198,53344,1,0,0:0:0:0:
262,198,53470,1,8,0:0:0:0:
262,198,53722,1,0,0:0:0:0:
262,198,53848,1,8,0:0:0:0:
262,198,53974,1,0,0:0:0:0:
262,198,54226,1,8,0:0:0:0:
262,198,54478,1,0,0:0:0:0:
294,262,54604,1,8,0:0:0:0:
262,198,54730,1,0,0:0:0:0:
294,198,54793,1,0,0:0:0:0:
262,198,54856,1,8,0:0:0:0:
262,198,54982,1,8,0:0:0:0:
276,155,55109,1,0,0:0:0:0:
262,198,55235,1,8,0:0:0:0:
262,198,55298,1,8,0:0:0:0:
294,198,55361,1,0,0:0:0:0:
294,198,55487,1,8,0:0:0:0:
294,198,55739,1,0,0:0:0:0:
262,198,55802,1,0,0:0:0:0:
262,198,55865,1,8,0:0:0:0:
230,198,55991,1,8,0:0:0:0:
262,198,56117,1,0,0:0:0:0:
294,198,56243,1,0,0:0:0:0:
179,86,56369,1,8,0:0:0:0:
262,198,56495,1,8,0:0:0:0:
262,198,56558,1,8,0:0:0:0:
262,198,56621,1,0,0:0:0:0:
262,230,56747,1,0,0:0:0:0:
241,179,56873,1,8,0:0:0:0:
230,198,56999,1,0,0:0:0:0:
230,198,57251,1,8,0:0:0:0:
230,230,57503,1,8,0:0:0:0:
230,230,57567,1,8,0:0:0:0:
198,198,57630,1,0,0:0:0:0:
214,196,57756,1,8,0:0:0:0:
256,192,57882,1,8,0:0:0:0:
262,198,58008,1,0,0:0:0:0:
198,230,58071,1,0,0:0:0:0:
198,230,58134,1,8,0:0:0:0:
230,166,58260,1,0,0:0:0:0:
256,192,58386,1,0,0:0:0:0:
230,198,58512,1,8,0:0:0:0:
230,198,58764,1,0,0:0:0:0:
230,198,59016,1,8,0:0:0:0:
230,198,59142,1,8,0:0:0:0:
230,198,59268,1,0,0:0:0:0:
230,198,59394,1,0,0:0:0:0:
230,198,59520,1,12,0:0:0:0:
262,230,59772,1,0,0:0:0:0:
262,230,59835,1,0,0:0:0:0:
230,230,59898,1,8,0:0:0:0:
230,230,60024,1,0,0:0:0:0:
262,230,60151,1,0,0:0:0:0:
230,230,60277,1,8,0:0:0:0:
230,230,60403,1,8,0:0:0:0:
230,230,60529,1,0,0:0:0:0:
262,230,60781,1,0,0:0:0:0:
263,209,60844,1,8,0:0:0:0:
294,230,60907,1,0,0:0:0:0:
262,230,61033,1,8,0:0:0:0:
294,230,61159,1,0,0:0:0:0:
262,230,61285,1,8,0:0:0:0:
294,230,61348,1,8,0:0:0:0:
294,230,61411,1,0,0:0:0:0:
294,230,61537,1,8,0:0:0:0:
294,230,61789,1,8,0:0:0:0:
278,193,61915,1,8,0:0:0:0:
294,230,62041,1,0,0:0:0:0:
262,198,62293,1,8,0:0:0:0:
286,189,62419,1,0,0:0:0:0:
262,198,62546,1,8,0:0:0:0:
230,198,62609,1,8,0:0:0:0:
230,198,62672,1,0,0:0:0:0:
230,198,62798,1,8,0:0:0:0:
278,193,62924,1,0,0:0:0:0:
230,198,63050,1,8,0:0:0:0:
277,192,63113,1,8,0:0:0:0:
230,198,63176,1,8,0:0:0:0:
230,198,63302,1,0,0:0:0:0:
299,177,63428,1,0,0:0:0:0:
230,198,63554,1,8,0:0:0:0:
230,198,63806,1,0,0:0:0:0:
262,198,63869,1,0,0:0:0:0:
262,198,63932,1,8,0:0:0:0:
262,198,64058,1,0,0:0:0:0:
262,198,64184,1,8,0:0:0:0:
230,198,64310,1,0,0:0:0:0:
249,182,64436,1,0,0:0:0:0:
262,198,64562,1,8,0:0:0:0:
271,178,64625,1,0,0:0:0:0:
243,179,64688,1,8,0:0:0:0:
262,198,64814,1,0,0:0:0:0:
262,198,64940,1,8,0:0:0:0:
262,198,65067,1,0,0:0:0:0:
230,198,65193,1,0,0:0:0:0:
262,198,65319,1,8,0:0:0:0:
262,198,65571,1,0,0:0:0:0:
230,198,65634,1,0,0:0:0:0:
230,198,65697,1,8,0:0:0:0:
262,166,65823,1,0,0:0:0:0:
262,198,65949,1,0,0:0:0:0:
262,198,66075,1,8,0:0:0:0:
261,192,66138,1,8,0:0:0:0:
246,204,66201,1,0,0:0:0:0:
230,198,66327,1,8,0:0:0:0:
262,198,66579,1,8,0:0:0:0:
262,198,66705,1,8,0:0:0:0:
262,198,66831,1,0,0:0:0:0:
262,198,66957,1,8,0:0:0:0:
262,198,67083,1,0,0:0:0:0:
262,198,67335,1,8,0:0:0:0:
262,198,67588,1,4,0:0:0:0:
262,198,68344,1,0,0:0:0:0:
262,198,68596,1,0,0:0:0:0:
262,198,68848,1,8,0:0:0:0:
262,198,69100,1,8,0:0:0:0:
262,198,69352,1,0,0:0:0:0:
262,230,69604,1,8,0:0:0:0:
262,198,69856,1,8,0:0:0:0:
262,198,70109,1,8,0:0:0:0:
262,230,70361,1,0,0:0:0:0:
262,230,70613,1,8,0:0:0:0:
262,230,71117,1,0,0:0:0:0:
262,198,71369,1,8,0:0:0:0:
128,224,71621,1,0,0:0:0:0:
76,203,72125,1,0,0:0:0:0:
212,241,72377,1,8,0:0:0:0:
287,35,72630,1,0,0:0:0:0:
200,140,72798,1,8,0:0:0:0:
104,233,73134,1,0,0:0:0:0:
250,148,73512,1,0,0:0:0:0:
193,187,73638,1,8,0:0:0:0:
138,165,73806,1,8,0:0:0:0:
203,188,73974,1,0,0:0:0:0:
172,193,74142,1,8,0:0:0:0:
206,174,74478,1,8,0:0:0:0:
164,206,74646,1,4,0:0:0:0:
244,270,75151,1,0,0:0:0:0:
244,270,75403,1,8,0:0:0:0:
244,270,75529,1,8,0:0:0:0:
244,270,75655,1,4,0:0:0:0:
275,226,75907,1,8,0:0:0:0:
333,240,76159,1,0,0:0:0:0:
301,213,76411,1,8,0:0:0:0:
288,239,76663,1,0,0:0:0:0:
257,202,76789,1,0,0:0:0:0:
283,218,76915,1,8,0:0:0:0:
268,241,77167,1,8,0:0:0:0:
306,151,77230,1,8,0:0:0:0:
267,194,77293,1,0,0:0:0:0:
291,221,77419,1,8,0:0:0:0:
237,248,77924,1,8,0:0:0:0:
170,226,78176,1,8,0:0:0:0:
157,171,78239,1,8,0:0:0:0:
139,171,78302,1,0,0:0:0:0:
180,234,78428,1,8,0:0:0:0:
224,190,78680,1,0,0:0:0:0:
310,229,78932,1,0,0:0:0:0:
323,156,78995,1,0,0:0:0:0:
316,195,79058,1,0,0:0:0:0:
346,177,79184,1,8,0:0:0:0:
347,192,79310,1,0,0:0:0:0:
335,170,79436,1,8,0:0:0:0:
325,191,79688,1,4,0:0:0:0:
252,209,79940,1,0,0:0:0:0:
223,226,80003,1,0,0:0:0:0:
248,218,80067,1,8,0:0:0:0:
226,205,80193,1,8,0:0:0:0:
206,228,80445,1,8,0:0:0:0:
326,170,80571,1,8,0:0:0:0:
252,209,80697,1,0,0:0:0:0:
198,197,80949,1,0,0:0:0:0:
236,167,81201,1,8,0:0:0:0:
274,197,81327,1,0,0:0:0:0:
236,167,81453,1,8,0:0:0:0:
191,167,81705,1,0,0:0:0:0:
269,254,81768,1,0,0:0:0:0:
307,177,81831,1,8,0:0:0:0:
195,232,81957,1,0,0:0:0:0:
254,201,82083,1,0,0:0:0:0:
255,214,82209,1,8,0:0:0:0:
186,210,82461,1,0,0:0:0:0:
194,214,82714,1,8,0:0:0:0:
267,207,82840,1,0,0:0:0:0:
195,210,82966,1,8,0:0:0:0:
195,210,83218,1,8,0:0:0:0:
255,214,83344,1,8,0:0:0:0:
160,192,83470,1,0,0:0:0:0:
256,160,83596,1,0,0:0:0:0:
223,191,83722,1,8,0:0:0:0:
262,195,83848,1,8,0:0:0:0:
288,192,83974,1,0,0:0:0:0:
221,182,84100,1,8,0:0:0:0:
237,171,84478,1,0,0:0:0:0:
212,179,84604,1,0,0:0:0:0:
180,192,84730,1,8,0:0:0:0:
196,172,84856,1,0,0:0:0:0:
237,171,85235,1,0,0:0:0:0:
186,164,85361,1,0,0:0:0:0:
347,219,85739,1,12,0:0:0:0:
353,228,86243,1,0,0:0:0:0:
312,219,86495,1,0,0:0:0:0:
325,225,86747,1,8,0:0:0:0:
182,269,87125,1,0,0:0:0:0:
192,276,87251,1,8,0:0:0:0:
240,246,87503,1,8,0:0:0:0:
163,168,87756,1,8,0:0:0:0:
163,168,87882,1,0,0:0:0:0:
163,168,88008,1,8,0:0:0:0:
163,168,88134,1,8,0:0:0:0:
170,169,88260,1,0,0:0:0:0:
171,175,88512,1,8,0:0:0:0:
172,180,88764,1,0,0:0:0:0:
172,180,89268,1,8,0:0:0:0:
172,180,89772,1,0,0:0:0:0:
328,249,89898,1,0,0:0:0:0:
273,113,90024,1,8,0:0:0:0:
273,113,90277,1,0,0:0:0:0:
273,113,90529,1,8,0:0:0:0:
273,113,90781,1,8,0:0:0:0:
202,104,90907,1,0,0:0:0:0:
273,113,91033,1,8,0:0:0:0:
273,113,91285,1,8,0:0:0:0:
211,96,91411,1,8,0:0:0:0:
211,96,91537,1,0,0:0:0:0:
211,96,91789,1,8,0:0:0:0:
211,96,92041,1,0,0:0:0:0:
211,96,92167,1,0,0:0:0:0:
211,96,92293,1,8,0:0:0:0:
310,194,92419,1,0,0:0:0:0:
310,194,92672,1,8,0:0:0:0:
218,100,92798,1,4,0:0:0:0:
286,199,93806,1,4,0:0:0:0:
286,199,94058,1,4,0:0:0:0:
286,199,94814,1,4,0:0:0:0:
286,199,95067,1,12,0:0:0:0:
300,247,95823,1,12,0:0:0:0:
300,247,96075,1,12,0:0:0:0:
300,209,96831,1,12,0:0:0:0:
300,209,97083,1,4,0:0:0:0:
256,192,97335,1,8,0:0:0:0:
256,192,97419,1,0,0:0:0:0:
256,192,97503,1,0,0:0:0:0:
256,192,97588,1,8,0:0:0:0:
277,152,97840,1,4,0:0:0:0:
277,152,98092,1,8,0:0:0:0:
215,189,98344,1,0,0:0:0:0:
224,160,98470,1,0,0:0:0:0:
177,145,98596,1,8,0:0:0:0:
168,196,98848,1,8,0:0:0:0:
194,228,99100,1,0,0:0:0:0:
194,228,99226,1,8,0:0:0:0:
194,228,99352,1,8,0:0:0:0:
188,153,99478,1,0,0:0:0:0:
188,153,99604,1,8,0:0:0:0:
246,261,99856,1,4,0:0:0:0:
246,261,100109,1,4,0:0:0:0:
246,261,100361,1,4,0:0:0:0:
246,261,100613,1,4,0:0:0:0:
149,186,100865,1,8,0:0:0:0:
288,128,100928,1,8,0:0:0:0:
437,224,100991,1,0,0:0:0:0:
437,224,101243,1,0,0:0:0:0:
437,224,101369,1,8,0:0:0:0:
320,160,101432,1,8,0:0:0:0:
437,224,101495,1,0,0:0:0:0:
437,224,101747,1,0,0:0:0:0:
262,198,101873,1,12,0:0:0:0:
262,198,102251,1,0,0:0:0:0:
262,198,102630,1,8,0:0:0:0:
262,198,102882,1,0,0:0:0:0:
262,198,103260,1,0,0:0:0:0:
262,198,103638,1,8,0:0:0:0:
262,198,103890,1,0,0:0:0:0:
262,198,104268,1,0,0:0:0:0:
262,198,104646,1,8,0:0:0:0:
262,198,104898,1,0,0:0:0:0:
262,198,105151,1,8,0:0:0:0:
262,198,105277,1,0,0:0:0:0:
262,198,105529,1,0,0:0:0:0:
262,198,105781,1,8,0:0:0:0:
256,192,106159,1,0,0:0:0:0:
256,192,106285,1,0,0:0:0:0:
256,192,106411,1,8,0:0:0:0:
256,192,106789,1,0,0:0:0:0:
256,192,106915,1,8,0:0:0:0:
256,192,107167,1,8,0:0:0:0:
256,192,107293,1,0,0:0:0:0:
262,198,107672,1,0,0:0:0:0:
256,192,107798,1,8,0:0:0:0:
262,198,107924,1,8,0:0:0:0:
262,198,108176,1,0,0:0:0:0:
262,198,108428,1,0,0:0:0:0:
262,198,108680,1,8,0:0:0:0:
262,198,108932,1,0,0:0:0:0:
262,198,109184,1,0,0:0:0:0:
262,198,109310,1,8,0:0:0:0:
262,198,109562,1,8,0:0:0:0:
262,198,109688,1,0,0:0:0:0:
262,198,109814,1,0,0:0:0:0:
262,198,109940,1,12,0:0:0:0:
256,192,110445,1,0,0:0:0:0:
256,192,110949,1,8,0:0:0:0:
160,160,111453,1,8,0:0:0:0:
256,192,111705,1,8,0:0:0:0:
256,192,111957,1,0,0:0:0:0:
256,192,112461,1,0,0:0:0:0:
256,192,112714,1,8,0:0:0:0:
256,192,112966,1,0,0:0:0:0:
256,192,113029,1,0,0:0:0:0:
256,192,113092,1,0,0:0:0:0:
256,192,113218,1,8,0:0:0:0:
256,192,113344,1,0,0:0:0:0:
288,256,113407,1,0,0:0:0:0:
256,192,113470,1,8,0:0:0:0:
256,192,113596,1,0,0:0:0:0:
256,192,113722,1,0,0:0:0:0:
256,192,113848,1,8,0:0:0:0:
256,192,113974,1,4,0:0:0:0:
256,192,114226,1,0,0:0:0:0:
256,192,114352,1,0,0:0:0:0:
256,192,114478,1,8,0:0:0:0:
256,192,114856,1,0,0:0:0:0:
256,192,114982,1,8,0:0:0:0:
256,192,115235,1,8,0:0:0:0:
256,192,115361,1,8,0:0:0:0:
256,192,115487,1,0,0:0:0:0:
288,192,115613,1,8,0:0:0:0:
230,198,115739,1,0,0:0:0:0:
256,224,115865,1,0,0:0:0:0:
230,198,115991,1,8,0:0:0:0:
230,198,116243,1,8,0:0:0:0:
230,198,116495,1,0,0:0:0:0:
314,186,116621,1,8,0:0:0:0:
230,198,116747,1,0,0:0:0:0:
262,198,116873,1,0,0:0:0:0:
230,198,116999,1,8,0:0:0:0:
262,134,117251,1,0,0:0:0:0:
262,198,117503,1,8,0:0:0:0:
262,198,117630,1,0,0:0:0:0:
262,198,117756,1,8,0:0:0:0:
256,160,117882,1,8,0:0:0:0:
262,198,118008,1,0,0:0:0:0:
230,198,118134,1,8,0:0:0:0:
262,198,118260,1,0,0:0:0:0:
262,198,118512,1,0,0:0:0:0:
262,198,118638,1,0,0:0:0:0:
262,198,118764,1,8,0:0:0:0:
262,198,118890,1,8,0:0:0:0:
262,198,118953,1,8,0:0:0:0:
262,198,119016,1,0,0:0:0:0:
262,198,119142,1,8,0:0:0:0:
256,192,119268,1,0,0:0:0:0:
262,198,119394,1,8,0:0:0:0:
262,198,119457,1,8,0:0:0:0:
262,198,119520,1,8,0:0:0:0:
262,198,119646,1,0,0:0:0:0:
262,198,119772,1,8,0:0:0:0:
262,198,119898,1,8,0:0:0:0:
262,198,120024,1,0,0:0:0:0:
262,198,120277,1,0,0:0:0:0:
262,198,120361,1,0,0:0:0:0:
262,198,120445,1,0,0:0:0:0:
262,198,120529,1,0,0:0:0:0:
262,198,120781,1,8,0:0:0:0:
134,198,121033,1,0,0:0:0:0:
262,198,121285,1,0,0:0:0:0:
134,198,121537,1,8,0:0:0:0:
262,198,122041,1,12,0:0:0:0:
262,198,122293,1,0,0:0:0:0:
262,198,122356,1,0,0:0:0:0:
262,198,122419,1,8,0:0:0:0:
262,198,122546,1,0,0:0:0:0:
267,162,122672,1,8,0:0:0:0:
262,198,122798,1,0,0:0:0:0:
313,202,122861,1,8,0:0:0:0:
262,198,122924,1,0,0:0:0:0:
262,198,123050,1,8,0:0:0:0:
262,198,123302,1,0,0:0:0:0:
262,198,123554,1,8,0:0:0:0:
262,198,123680,1,0,0:0:0:0:
262,198,123806,1,8,0:0:0:0:
262,198,123869,1,8,0:0:0:0:
262,198,123932,1,0,0:0:0:0:
262,198,124058,1,8,0:0:0:0:
262,198,124310,1,0,0:0:0:0:
262,198,124436,1,0,0:0:0:0:
262,198,124562,1,8,0:0:0:0:
262,198,124814,1,8,0:0:0:0:
262,198,125067,1,0,0:0:0:0:
238,141,125193,1,0,0:0:0:0:
262,198,125319,1,8,0:0:0:0:
252,170,125382,1,8,0:0:0:0:
262,198,125445,1,0,0:0:0:0:
262,198,125571,1,8,0:0:0:0:
262,198,125697,1,0,0:0:0:0:
262,198,125823,1,8,0:0:0:0:
262,198,125886,1,8,0:0:0:0:
294,198,125949,1,0,0:0:0:0:
294,198,126012,1,0,0:0:0:0:
294,198,126075,1,8,0:0:0:0:
294,198,126327,1,0,0:0:0:0:
262,198,126390,1,0,0:0:0:0:
262,198,126453,1,8,0:0:0:0:
277,193,126516,1,8,0:0:0:0:
230,198,126579,1,0,0:0:0:0:
262,198,126705,1,8,0:0:0:0:
294,198,126831,1,0,0:0:0:0:
308,221,126957,1,0,0:0:0:0:
262,198,127083,1,8,0:0:0:0:
262,198,127146,1,8,0:0:0:0:
262,198,127209,1,0,0:0:0:0:
262,230,127335,1,8,0:0:0:0:
228,155,127461,1,8,0:0:0:0:
230,198,127588,1,0,0:0:0:0:
230,198,127840,1,8,0:0:0:0:
230,230,128092,1,8,0:0:0:0:
230,230,128155,1,8,0:0:0:0:
198,198,128218,1,0,0:0:0:0:
214,196,128344,1,8,0:0:0:0:
128,160,128470,1,8,0:0:0:0:
262,198,128596,1,0,0:0:0:0:
198,230,128659,1,0,0:0:0:0:
198,230,128722,1,8,0:0:0:0:
230,166,128848,1,0,0:0:0:0:
230,198,128974,1,0,0:0:0:0:
230,198,129100,1,8,0:0:0:0:
256,224,129352,1,8,0:0:0:0:
288,224,129478,1,0,0:0:0:0:
256,192,129604,1,8,0:0:0:0:
256,224,129667,1,8,0:0:0:0:
256,224,129730,1,8,0:0:0:0:
224,192,129856,1,0,0:0:0:0:
256,224,129982,1,0,0:0:0:0:
256,224,130109,1,12,0:0:0:0:
262,230,130361,1,0,0:0:0:0:
262,230,130424,1,0,0:0:0:0:
230,230,130487,1,8,0:0:0:0:
302,169,130550,1,0,0:0:0:0:
230,230,130613,1,8,0:0:0:0:
262,230,130739,1,0,0:0:0:0:
230,230,130865,1,8,0:0:0:0:
230,230,130991,1,8,0:0:0:0:
230,230,131117,1,0,0:0:0:0:
262,230,131369,1,0,0:0:0:0:
294,230,131432,1,0,0:0:0:0:
294,230,131495,1,8,0:0:0:0:
262,230,131621,1,8,0:0:0:0:
294,230,131747,1,0,0:0:0:0:
262,230,131873,1,8,0:0:0:0:
294,230,131936,1,8,0:0:0:0:
294,230,131999,1,0,0:0:0:0:
294,230,132125,1,8,0:0:0:0:
294,230,132377,1,8,0:0:0:0:
294,230,132503,1,8,0:0:0:0:
294,230,132630,1,0,0:0:0:0:
262,198,132882,1,8,0:0:0:0:
271,190,133008,1,0,0:0:0:0:
262,198,133134,1,8,0:0:0:0:
230,198,133197,1,8,0:0:0:0:
230,198,133260,1,0,0:0:0:0:
311,264,133323,1,0,0:0:0:0:
230,198,133386,1,8,0:0:0:0:
262,230,133512,1,0,0:0:0:0:
230,198,133638,1,8,0:0:0:0:
230,198,133764,1,0,0:0:0:0:
262,198,133827,1,0,0:0:0:0:
230,198,133890,1,8,0:0:0:0:
230,198,134016,1,0,0:0:0:0:
230,198,134142,1,8,0:0:0:0:
230,198,134394,1,8,0:0:0:0:
262,198,134457,1,8,0:0:0:0:
262,198,134520,1,8,0:0:0:0:
262,198,134646,1,0,0:0:0:0:
262,198,134772,1,8,0:0:0:0:
230,198,134898,1,0,0:0:0:0:
278,180,135024,1,0,0:0:0:0:
262,198,135151,1,8,0:0:0:0:
261,162,135277,1,0,0:0:0:0:
252,181,135340,1,0,0:0:0:0:
262,198,135403,1,8,0:0:0:0:
262,198,135466,1,0,0:0:0:0:
262,198,135529,1,8,0:0:0:0:
262,198,135655,1,0,0:0:0:0:
230,198,135781,1,0,0:0:0:0:
262,198,135907,1,8,0:0:0:0:
262,198,136159,1,0,0:0:0:0:
230,198,136222,1,0,0:0:0:0:
230,198,136285,1,8,0:0:0:0:
262,166,136411,1,0,0:0:0:0:
262,198,136537,1,0,0:0:0:0:
262,198,136663,1,8,0:0:0:0:
253,206,136726,1,8,0:0:0:0:
254,197,136789,1,0,0:0:0:0:
230,198,136915,1,8,0:0:0:0:
272,193,137041,1,0,0:0:0:0:
255,174,137104,1,0,0:0:0:0:
262,198,137167,1,8,0:0:0:0:
262,198,137293,1,8,0:0:0:0:
262,198,137419,1,0,0:0:0:0:
262,198,137546,1,8,0:0:0:0:
262,198,137672,1,0,0:0:0:0:
256,192,137798,1,0,0:0:0:0:
262,198,137924,1,8,0:0:0:0:
262,198,138176,1,4,0:0:0:0:
192,160,138932,1,0,0:0:0:0:
192,160,139184,1,0,0:0:0:0:
256,192,139436,1,8,0:0:0:0:
256,192,139688,1,8,0:0:0:0:
256,192,139940,1,0,0:0:0:0:
256,192,140193,1,8,0:0:0:0:
256,192,140445,1,0,0:0:0:0:
256,192,140697,1,8,0:0:0:0:
256,192,140949,1,8,0:0:0:0:
256,192,141201,1,0,0:0:0:0:
256,192,141705,1,0,0:0:0:0:
256,192,141957,1,8,0:0:0:0:
256,192,142209,1,0,0:0:0:0:
76,203,142714,1,0,0:0:0:0:
212,241,142966,1,8,0:0:0:0:
234,200,143218,1,0,0:0:0:0:
200,140,143386,1,8,0:0:0:0:
104,233,143722,1,0,0:0:0:0:
204,189,144100,1,0,0:0:0:0:
193,187,144226,1,8,0:0:0:0:
138,165,144394,1,8,0:0:0:0:
203,188,144562,1,0,0:0:0:0:
172,193,144730,1,8,0:0:0:0:
206,174,145067,1,8,0:0:0:0:
164,206,145235,1,4,0:0:0:0:
256,192,146243,1,0,0:0:0:0:
256,192,147251,1,8,0:0:0:0:
256,192,148260,1,0,0:0:0:0:
