osu file format v14

[General]
AudioFilename: audio.mp3
AudioLeadIn: 0
PreviewTime: 51260
Countdown: 0
SampleSet: Soft
StackLeniency: 0.7
Mode: 0
LetterboxInBreaks: 0
WidescreenStoryboard: 1

[Editor]
DistanceSpacing: 1.8
BeatDivisor: 7
GridSize: 32
TimelineZoom: 1.8

[Metadata]
Title:Keep Your Distance
TitleUnicode:Keep Your Distance
Artist:Ameer Vann
ArtistUnicode:Ameer Vann
Creator:mynt
Version:Seolv's Normal
Source:
Tags:brockhampton rap hiphop hip hop trap social distancing morrighan seolv morri lukas [_l_u_k_a_s_] english ur unappreciative koda harepascals delusional six feet ft. I don't do not dont like none of ya'll yall
BeatmapID:3553696
BeatmapSetID:1735694

[Difficulty]
HPDrainRate:3
CircleSize:3.2
OverallDifficulty:4
ApproachRate:5
SliderMultiplier:1.1
SliderTickRate:1

[Events]
//Background and Video events
0,0,"awerf.jpg",0,0
Video,-247,"Noaudiotrack.mp4"
//Break Periods
2,70660,82060
//Storyboard Layer 0 (Background)
//Storyboard Layer 1 (Fail)
//Storyboard Layer 2 (Pass)
//Storyboard Layer 3 (Foreground)
//Storyboard Layer 4 (Overlay)
//Storyboard Sound Samples

[TimingPoints]
60,400,4,2,0,30,1,0
6460,-100,4,2,0,50,0,0
12860,-100,4,2,1,75,0,0
25660,-111.111111111111,4,2,0,50,0,0
38460,-111.111111111111,4,2,2,55,0,0
51260,-100,4,2,1,60,0,0
57660,-100,4,2,1,55,0,0
70460,-100,4,2,0,50,0,0
83260,-111.111111111111,4,2,1,55,0,0
83360,-111.111111111111,4,2,2,55,0,0
83460,-111.111111111111,4,2,1,55,0,0
83560,-111.111111111111,4,2,2,55,0,0
86660,-111.111111111111,4,2,0,55,0,0
86760,-111.111111111111,4,2,2,55,0,0
86860,-111.111111111111,4,2,0,55,0,0
87060,-111.111111111111,4,2,2,55,0,0
88660,-111.111111111111,4,2,0,55,0,0
88760,-111.111111111111,4,2,2,55,0,0
91860,-111.111111111111,4,2,0,55,0,0
91960,-111.111111111111,4,2,2,55,0,0
93060,-111.111111111111,4,2,0,55,0,0
93460,-111.111111111111,4,2,2,55,0,0
96060,-100,4,2,1,75,0,0
108860,-100,4,2,1,70,0,0
110060,-100,4,2,1,75,0,0
111260,-100,4,2,1,80,0,0
112460,-100,4,2,1,85,0,0
113660,-100,4,2,1,90,0,0

[Colours]
Combo1 : 255,210,74
Combo2 : 85,255,85
Combo3 : 91,165,255
Combo4 : 247,111,131

[HitObjects]
423,137,60,6,0,B|405:215|405:215|409:231|409:247,1,110,2|2,0:2|0:2,0:0:0:0:
355,341,860,2,0,P|321:302|253:295,1,110,2|2,0:2|0:2,0:0:0:0:
184,225,1660,1,2,0:2:0:0:
184,225,2060,2,0,B|129:215|129:215|126:210|126:210|78:199,2,110,2|2|2,0:2|0:2|0:2,0:0:0:0:
260,145,3260,6,0,P|267:90|285:38,1,110,2|2,0:2|0:2,0:0:0:0:
178,10,4060,2,0,P|170:64|152:116,1,110,2|2,0:2|0:2,0:0:0:0:
70,189,4860,1,2,0:2:0:0:
70,189,5260,2,0,P|39:210|62:282,2,110,2|2|2,0:2|0:2|0:2,0:0:0:0:
152,116,6460,6,0,B|176:141|176:141|227:149|227:149|260:132|260:132|320:136|320:136|332:197|332:197|310:229|310:229|325:284|325:284|391:300|391:300|423:282|423:282,1,440,4|2,0:3|0:2,0:0:0:0:
432,175,8460,1,4,0:3:0:0:
170,376,9660,6,0,B|147:370|147:370|146:371|146:371|101:361|101:361|101:360|101:360|67:352|67:352|65:352|65:352|34:345|34:345|34:344|34:344|10:339,2,165,4|4|4,0:3|0:3|0:3,0:0:0:0:
350,249,11660,2,0,B|320:206|320:206|263:215,2,110,4|2|2,0:3|0:2|0:2,0:0:0:0:
420,333,12860,6,0,P|426:278|440:225,1,110,6|2,0:3|0:2,0:0:0:0:
404,183,13460,1,2,0:2:0:0:
404,183,13660,2,0,P|400:155|393:129,1,55,10|0,0:2|0:0,0:0:0:0:
428,87,14060,1,2,0:2:0:0:
428,87,14260,1,2,0:2:0:0:
428,87,14460,2,0,P|479:76|503:121,2,110,2|6|10,0:2|0:3|0:2,0:0:0:0:
247,214,16060,6,0,P|195:196|140:187,1,110,6|2,0:3|0:2,0:0:0:0:
97,153,16660,1,6,0:3:0:0:
97,153,16860,2,0,P|88:113|77:82,1,55,10|2,0:2|0:2,0:0:0:0:
104,48,17260,1,6,0:3:0:0:
208,13,17660,2,0,L|316:30,1,110,2|6,0:2|0:3,0:0:0:0:
357,67,18260,1,6,0:3:0:0:
357,67,18460,2,0,L|368:126,2,55,10|2|2,0:2|0:2|0:2,0:0:0:0:
466,57,19260,6,0,P|505:91|485:165,1,110,6|2,0:3|0:2,0:0:0:0:
476,195,19860,1,2,0:2:0:0:
476,195,20060,2,0,P|426:200|404:211,1,55,10|0,0:2|0:0,0:0:0:0:
378,234,20460,1,2,0:2:0:0:
378,234,20660,1,10,0:3:0:0:
378,234,20860,1,2,0:2:0:0:
289,298,21260,2,0,L|281:353,1,55,6|2,0:3|0:2,0:0:0:0:
231,375,21660,2,0,B|184:365|184:365|184:363|184:363|124:353,1,110,10|2,0:2|0:2,0:0:0:0:
39,282,22460,6,0,P|78:245|134:244,1,110,6|2,0:3|0:2,0:0:0:0:
171,204,23060,1,6,0:3:0:0:
171,204,23260,1,10,0:2:0:0:
95,124,23660,2,0,P|86:77|81:64,1,55,6|10,0:3|0:3,0:0:0:0:
100,18,24060,2,0,P|147:9|160:4,1,55,2|10,0:2|0:3,0:0:0:0:
207,19,24460,1,6,0:3:0:0:
207,19,24660,1,4,0:3:0:0:
207,19,24860,2,0,P|270:28|282:81,1,110,10|2,0:2|0:2,0:0:0:0:
368,118,25660,6,0,P|433:128|438:62,2,148.49999546814,2|2|2,0:1|0:1|0:1,0:0:0:0:
244,200,27460,2,0,L|233:248,1,49.4999984893799,2|2,0:1|0:1,0:0:0:0:
259,343,28060,1,2,0:1:0:0:
355,364,28460,1,2,0:1:0:0:
435,305,28860,6,0,P|446:231|465:160,1,148.49999546814,2|2,0:1|0:1,0:0:0:0:
424,75,29860,1,0,0:0:0:0:
424,75,30060,2,0,P|367:70|336:110,1,98.9999969787599,2|2,0:1|0:1,0:0:0:0:
298,187,30860,1,2,0:1:0:0:
214,239,31260,2,0,P|177:269|130:261,1,98.9999969787599,2|2,0:1|0:2,0:0:0:0:
74,178,32060,6,0,B|54:101|125:117|91:35,2,148.49999546814,2|2|2,0:1|0:1|0:1,0:0:0:0:
160,298,33860,2,0,L|151:346,2,49.4999984893799,2|2|2,0:1|0:1|0:3,0:0:0:0:
192,260,34460,2,0,P|234:230|287:243,1,98.9999969787599,2|2,0:1|0:1,0:0:0:0:
364,296,35260,5,2,0:1:0:0:
364,296,35460,2,0,L|374:345,2,49.4999984893799,2|2|2,0:3|0:3|0:1,0:0:0:0:
468,190,36460,1,2,0:1:0:0:
468,190,36660,2,0,L|477:141,1,49.4999984893799,2|2,0:2|0:1,0:0:0:0:
416,62,37260,2,0,L|425:13,2,49.4999984893799,2|2|2,0:1|0:3|0:1,0:0:0:0:
268,193,38460,6,0,B|259:159|205:146|171:168|171:168|173:163|173:163|101:175|79:85|120:58|171:62,1,296.99999093628,6|2,0:3|0:1,0:0:0:0:
196,256,40460,2,0,B|190:268|190:268|112:291|40:340|40:340|24:334,1,197.99999395752,6|2,0:3|0:1,0:0:0:0:
13,235,41660,6,0,B|22:160|98:199|95:107,2,148.49999546814,6|6|6,0:3|0:3|0:3,0:0:0:0:
176,347,43660,1,6,0:3:0:0:
272,368,44060,2,0,P|319:360|340:318,1,98.9999969787599,2|2,0:1|0:2,0:0:0:0:
435,291,44860,6,0,B|422:234|367:229|367:229|375:228|375:228|311:189|337:87|406:86,1,296.99999093628,6|2,0:3|0:1,0:0:0:0:
273,235,46860,2,0,P|176:214|77:207,1,197.99999395752,6|2,0:3|0:1,0:0:0:0:
20,125,48060,6,0,P|39:58|107:61,2,148.49999546814,6|6|6,0:3|0:3|0:3,0:0:0:0:
152,272,50060,2,0,P|157:218|174:160,1,98.9999969787599,6|2,0:3|0:1,0:0:0:0:
344,43,51260,6,0,P|399:37|452:23,1,110,6|2,0:3|0:2,0:0:0:0:
499,61,51860,1,2,0:2:0:0:
499,61,52060,2,0,P|503:89|510:115,1,55,10|0,0:2|0:0,0:0:0:0:
481,162,52460,2,0,P|426:168|373:182,1,110,2|2,0:2|0:2,0:0:0:0:
353,235,53060,1,2,0:2:0:0:
353,235,53260,1,6,0:3:0:0:
424,318,53660,2,0,P|450:311|477:308,2,55,10|2|2,0:2|0:2|0:2,0:0:0:0:
322,360,54460,6,0,P|269:354|249:306,1,110,6|2,0:3|0:2,0:0:0:0:
205,281,55060,1,6,0:3:0:0:
205,281,55260,1,10,0:2:0:0:
200,171,55660,2,0,P|202:96|127:91,1,165,6|10,0:3|0:3,0:0:0:0:
86,124,56460,1,6,0:3:0:0:
86,124,56660,1,6,0:3:0:0:
86,124,56860,1,10,0:2:0:0:
10,43,57260,1,2,0:2:0:0:
106,14,57660,5,6,0:3:0:0:
313,86,58460,2,0,B|451:117|451:117|406:117|387:159,1,220,10|2,0:2|0:2,0:0:0:0:
311,234,59660,1,6,0:3:0:0:
311,233,60060,2,0,P|260:220|251:168,1,110,10|2,0:2|0:2,0:0:0:0:
209,66,60860,5,6,0:3:0:0:
114,10,61260,2,0,L|59:19,1,55,2|6,0:2|0:3,0:0:0:0:
19,56,61660,1,10,0:2:0:0:
12,165,62060,2,0,P|95:160|106:231,1,165,6|10,0:3|0:3,0:0:0:0:
78,272,62860,1,6,0:3:0:0:
70,381,63260,2,0,P|120:360|175:352,1,110,10|2,0:2|0:1,0:0:0:0:
245,267,64060,5,6,0:3:0:0:
301,54,64860,1,10,0:2:0:0:
199,10,65260,2,0,B|145:22|145:22|145:26|145:26|95:40,1,110,2|2,0:1|0:2,0:0:0:0:
4,100,66060,1,6,0:3:0:0:
99,155,66460,2,0,P|140:187|134:239,1,110,10|2,0:2|0:2,0:0:0:0:
94,342,67260,6,0,P|156:289|236:276,1,165,6|6,0:3|0:3,0:0:0:0:
283,246,68060,1,10,0:2:0:0:
380,195,68460,2,0,P|412:152|397:102,1,110,6|2,0:3|0:1,0:0:0:0:
363,58,69060,1,10,0:3:0:0:
363,58,69260,1,6,0:3:0:0:
257,27,69660,2,0,L|265:81,1,55,10|2,0:2|0:2,0:0:0:0:
221,114,70060,2,0,L|112:96,1,110,2|2,0:2|0:1,0:0:0:0:
426,189,83260,6,0,B|442:91|358:3|234:19|190:139|276:198|332:156,1,395.999987915039,6|2,0:3|0:2,0:0:0:0:
329,158,85260,1,6,0:3:0:0:
103,351,86460,6,0,L|94:300,1,49.4999984893799,6|2,0:3|0:3,0:0:0:0:
128,265,86860,1,2,0:3:0:0:
128,265,87060,2,0,L|119:214,1,49.4999984893799,6|2,0:3|0:2,0:0:0:0:
62,135,87660,2,0,L|53:84,2,49.4999984893799,4|0|2,0:3|0:0|0:1,0:0:0:0:
119,216,88460,2,0,L|216:230,1,98.9999969787599,6|2,0:3|0:1,0:0:0:0:
414,224,89660,6,0,B|367:233|357:276|357:276|376:146|467:193|519:121|503:18|447:15,1,395.999987915039,6|2,0:3|0:2,0:0:0:0:
464,20,91660,1,6,0:3:0:0:
178,12,92860,6,0,L|129:20,1,49.4999984893799,6|2,0:3|0:3,0:0:0:0:
89,50,93260,1,2,0:3:0:0:
89,50,93460,2,0,L|97:98,1,49.4999984893799,6|2,0:3|0:2,0:0:0:0:
164,171,94060,2,0,L|212:163,2,49.4999984893799,4|0|2,0:3|0:0|0:1,0:0:0:0:
101,247,94860,2,0,L|117:344,1,98.9999969787599,6|2,0:3|0:2,0:0:0:0:
336,365,96060,6,0,B|341:310|388:337|388:267,1,110,6|2,0:3|0:2,0:0:0:0:
373,220,96660,1,2,0:2:0:0:
373,220,96860,2,0,P|369:192|362:166,1,55,10|0,0:2|0:0,0:0:0:0:
378,113,97260,2,0,P|424:86|466:117,1,110,2|2,0:2|0:2,0:0:0:0:
496,163,97860,1,2,0:2:0:0:
496,163,98060,1,6,0:3:0:0:
467,269,98460,2,0,P|459:295|456:322,2,55,10|2|2,0:2|0:2|0:2,0:0:0:0:
368,218,99260,6,0,L|261:243,1,110,6|2,0:3|0:2,0:0:0:0:
242,298,99860,1,6,0:3:0:0:
242,298,100060,1,10,0:2:0:0:
145,350,100460,2,0,P|70:345|72:270,1,165,6|10,0:3|0:3,0:0:0:0:
120,240,101260,1,6,0:3:0:0:
120,240,101460,1,6,0:3:0:0:
120,240,101660,1,10,0:2:0:0:
167,140,102060,1,2,0:2:0:0:
61,108,102460,6,0,L|50:54,1,55,6|2,0:3|0:2,0:0:0:0:
83,10,102860,2,0,L|136:0,1,55,2|2,0:2|0:2,0:0:0:0:
185,25,103260,1,10,0:2:0:0:
269,95,103660,2,0,L|258:148,1,55,2|10,0:2|0:3,0:0:0:0:
291,193,104060,2,0,L|344:203,1,55,2|2,0:2|0:2,0:0:0:0:
393,178,104460,1,6,0:3:0:0:
471,255,104860,2,0,L|460:308,2,55,10|2|2,0:2|0:2|0:2,0:0:0:0:
483,145,105660,6,0,P|463:97|411:97,1,110,6|2,0:3|0:2,0:0:0:0:
364,127,106260,1,6,0:3:0:0:
364,127,106460,1,10,0:2:0:0:
262,168,106860,2,0,P|203:183|150:203,1,110,6|2,0:3|0:2,0:0:0:0:
45,152,107660,1,6,0:3:0:0:
45,152,107860,1,6,0:3:0:0:
45,152,108060,2,0,L|53:90,2,55,10|2|2,0:2|0:2|0:2,0:0:0:0:
64,260,108860,6,0,L|78:313,1,55,6|2,0:3|0:2,0:0:0:0:
110,358,109260,1,2,0:2:0:0:
194,287,109660,1,10,0:2:0:0:
284,224,110060,2,0,L|298:170,1,55,2|10,0:2|0:3,0:0:0:0:
330,126,110460,1,2,0:2:0:0:
265,51,110860,1,6,0:3:0:0:
265,51,111060,1,0,0:0:0:0:
265,51,111260,2,0,P|221:19|170:33,1,110,10|2,0:2|0:2,0:0:0:0:
79,95,112060,5,6,0:3:0:0:
143,183,112460,2,0,L|153:237,1,55,2|6,0:2|0:3,0:0:0:0:
125,284,112860,2,0,L|135:338,2,55,10|2|6,0:2|0:2|0:3,0:0:0:0:
36,218,113660,2,0,L|25:163,1,55,2|10,0:2|0:3,0:0:0:0:
15,109,114060,1,6,0:3:0:0:
15,109,114260,1,2,0:2:0:0:
15,109,114460,1,10,0:2:0:0:
101,41,114860,6,0,B|119:15|148:17|148:17|135:49|109:52,1,110,2|0,0:2|0:0,0:0:0:0:
