osu file format v14

[General]
AudioFilename: audio.mp3
AudioLeadIn: 0
PreviewTime: 51260
Countdown: 0
SampleSet: Soft
StackLeniency: 0.7
Mode: 0
LetterboxInBreaks: 0
WidescreenStoryboard: 1

[Editor]
Bookmarks: 11660,35260,37260,50060,51260,70460,95660,111660
DistanceSpacing: 2.3
BeatDivisor: 8
GridSize: 32
TimelineZoom: 1.8

[Metadata]
Title:Keep Your Distance
TitleUnicode:Keep Your Distance
Artist:Ameer Vann
ArtistUnicode:Ameer Vann
Creator:mynt
Version:Hard
Source:
Tags:brockhampton rap hiphop hip hop trap social distancing morrighan seolv morri lukas [_l_u_k_a_s_] english ur unappreciative koda harepascals delusional six feet ft. I don't do not dont like none of ya'll yall
BeatmapID:3547599
BeatmapSetID:1735694

[Difficulty]
HPDrainRate:4
CircleSize:3.5
OverallDifficulty:6
ApproachRate:7.3
SliderMultiplier:1.2
SliderTickRate:1

[Events]
//Background and Video events
0,0,"awerf.jpg",0,0
Video,-247,"Noaudiotrack.mp4"
//Break Periods
//Storyboard Layer 0 (Background)
//Storyboard Layer 1 (Fail)
//Storyboard Layer 2 (Pass)
//Storyboard Layer 3 (Foreground)
//Storyboard Layer 4 (Overlay)
//Storyboard Sound Samples

[TimingPoints]
60,400,4,2,0,30,1,0
6460,-142.857142857143,4,2,0,50,0,0
8060,-100,4,2,0,50,0,0
8460,-142.857142857143,4,2,0,50,0,0
12860,-83.3333333333333,4,2,1,75,0,0
13660,-71.4285714285714,4,2,1,75,0,0
14060,-100,4,2,1,75,0,0
14460,-100,4,2,1,75,0,0
14860,-83.3333333333333,4,2,1,75,0,0
15260,-100,4,2,1,75,0,0
16060,-83.3333333333333,4,2,1,75,0,0
16460,-71.4285714285714,4,2,1,75,0,0
16860,-100,4,2,1,75,0,0
17660,-83.3333333333333,4,2,1,75,0,0
18060,-71.4285714285714,4,2,1,75,0,0
19260,-83.3333333333333,4,2,1,75,0,0
20060,-71.4285714285714,4,2,1,75,0,0
21260,-83.3333333333333,4,2,1,75,0,0
21660,-71.4285714285714,4,2,1,75,0,0
22460,-71.4285714285714,4,2,1,75,0,0
23260,-100,4,2,1,75,0,0
25660,-111.111111111111,4,2,0,50,0,0
28060,-111.111111111111,4,2,0,50,0,0
28460,-111.111111111111,4,2,0,50,0,0
28860,-111.111111111111,4,2,0,50,0,0
30060,-111.111111111111,4,2,0,50,0,0
30860,-111.111111111111,4,2,0,50,0,0
31260,-111.111111111111,4,2,0,50,0,0
31660,-111.111111111111,4,2,0,50,0,0
32060,-111.111111111111,4,2,0,50,0,0
38460,-76.9230769230769,4,2,2,55,0,0
38860,-100,4,2,2,55,0,0
39260,-100,4,2,2,55,0,0
39660,-100,4,2,2,55,0,0
40060,-83.3333333333333,4,2,2,55,0,0
40460,-100,4,2,2,55,0,0
40860,-83.3333333333333,4,2,2,55,0,0
41260,-100,4,2,2,55,0,0
41660,-100,4,2,2,55,0,0
42260,-71.4285714285714,4,2,2,55,0,0
42660,-71.4285714285714,4,2,2,55,0,0
42860,-71.4285714285714,4,2,2,55,0,0
43360,-100,4,2,2,55,0,0
43660,-100,4,2,2,55,0,0
43960,-83.3333333333333,4,2,2,55,0,0
44860,-71.4285714285714,4,2,2,55,0,0
45260,-100,4,2,2,55,0,0
46060,-100,4,2,2,55,0,0
46460,-100,4,2,2,55,0,0
46860,-71.4285714285714,4,2,2,55,0,0
47660,-100,4,2,2,55,0,0
48060,-71.4285714285714,4,2,2,55,0,0
48660,-71.4285714285714,4,2,2,55,0,0
49060,-100,4,2,2,55,0,0
49260,-71.4285714285714,4,2,2,55,0,0
49660,-100,4,2,2,55,0,0
50060,-71.4285714285714,4,2,2,55,0,0
51260,-83.3333333333333,4,2,1,60,0,0
52060,-71.4285714285714,4,2,1,60,0,0
52460,-100,4,2,1,60,0,0
52860,-83.3333333333333,4,2,1,60,0,0
53260,-71.4285714285714,4,2,1,60,0,0
53660,-100,4,2,1,60,0,0
54460,-83.3333333333333,4,2,1,60,0,0
54860,-71.4285714285714,4,2,1,60,0,0
55260,-71.4285714285714,4,2,1,60,0,0
56060,-83.3333333333333,4,2,1,60,0,0
56460,-71.4285714285714,4,2,1,60,0,0
57660,-71.4285714285714,4,2,1,55,0,0
58060,-83.3333333333333,4,2,1,55,0,0
58460,-71.4285714285714,4,2,1,55,0,0
59660,-83.3333333333333,4,2,1,55,0,0
60060,-71.4285714285714,4,2,1,55,0,0
60860,-71.4285714285714,4,2,1,55,0,0
61660,-100,4,2,1,55,0,0
62460,-71.4285714285714,4,2,1,55,0,0
63260,-83.3333333333333,4,2,1,55,0,0
64060,-71.4285714285714,4,2,1,55,0,0
64460,-83.3333333333333,4,2,1,55,0,0
64860,-83.3333333333333,4,2,1,55,0,0
65260,-83.3333333333333,4,2,1,55,0,0
65660,-83.3333333333333,4,2,1,55,0,0
66060,-71.4285714285714,4,2,1,55,0,0
66460,-83.3333333333333,4,2,1,55,0,0
66860,-83.3333333333333,4,2,1,55,0,0
67260,-83.3333333333333,4,2,1,55,0,0
67660,-83.3333333333333,4,2,1,55,0,0
68060,-83.3333333333333,4,2,1,55,0,0
68460,-83.3333333333333,4,2,1,55,0,0
69360,-83.3333333333333,4,2,1,55,0,0
69660,-83.3333333333333,4,2,1,55,0,0
70060,-83.3333333333333,4,2,1,55,0,0
70460,-111.111111111111,4,2,0,50,0,0
72860,-111.111111111111,4,2,0,50,0,0
73260,-111.111111111111,4,2,0,50,0,0
73660,-111.111111111111,4,2,0,50,0,0
74860,-111.111111111111,4,2,0,50,0,0
75660,-111.111111111111,4,2,0,50,0,0
76060,-111.111111111111,4,2,0,50,0,0
76460,-111.111111111111,4,2,0,50,0,0
76860,-111.111111111111,4,2,0,50,0,0
83260,-71.4285714285714,4,2,1,55,0,0
83360,-71.4285714285714,4,2,2,55,0,0
83460,-71.4285714285714,4,2,1,55,0,0
83560,-71.4285714285714,4,2,2,55,0,0
83660,-100,4,2,2,55,0,0
84060,-100,4,2,2,55,0,0
84460,-100,4,2,2,55,0,0
84860,-83.3333333333333,4,2,2,55,0,0
85260,-100,4,2,2,55,0,0
85660,-83.3333333333333,4,2,2,55,0,0
86060,-100,4,2,2,55,0,0
86460,-100,4,2,2,55,0,0
86660,-100,4,2,0,55,0,0
86760,-100,4,2,2,55,0,0
86860,-100,4,2,0,55,0,0
87060,-71.4285714285714,4,2,2,55,0,0
87460,-71.4285714285714,4,2,2,55,0,0
87660,-71.4285714285714,4,2,2,55,0,0
88160,-100,4,2,2,55,0,0
88460,-100,4,2,2,55,0,0
88660,-100,4,2,0,55,0,0
88760,-83.3333333333333,4,2,2,55,0,0
89660,-71.4285714285714,4,2,2,55,0,0
90060,-100,4,2,2,55,0,0
90860,-100,4,2,2,55,0,0
91260,-100,4,2,2,55,0,0
91660,-71.4285714285714,4,2,2,55,0,0
91860,-71.4285714285714,4,2,0,55,0,0
91960,-71.4285714285714,4,2,2,55,0,0
92460,-100,4,2,2,55,0,0
92860,-71.4285714285714,4,2,2,55,0,0
93060,-71.4285714285714,4,2,0,55,0,0
93460,-71.4285714285714,4,2,2,55,0,0
93860,-100,4,2,2,55,0,0
94060,-71.4285714285714,4,2,2,55,0,0
94460,-100,4,2,2,55,0,0
94860,-71.4285714285714,4,2,2,55,0,0
96060,-83.3333333333333,4,2,1,75,0,0
96860,-71.4285714285714,4,2,1,75,0,0
97260,-100,4,2,1,75,0,0
97660,-83.3333333333333,4,2,1,75,0,0
98060,-71.4285714285714,4,2,1,75,0,0
98460,-100,4,2,1,75,0,0
99260,-83.3333333333333,4,2,1,75,0,0
99660,-71.4285714285714,4,2,1,75,0,0
100060,-71.4285714285714,4,2,1,75,0,0
100860,-83.3333333333333,4,2,1,75,0,0
101260,-71.4285714285714,4,2,1,75,0,0
102460,-71.4285714285714,4,2,1,75,0,0
102860,-83.3333333333333,4,2,1,75,0,0
103260,-71.4285714285714,4,2,1,75,0,0
104460,-71.4285714285714,4,2,1,75,0,0
104860,-71.4285714285714,4,2,1,75,0,0
105660,-71.4285714285714,4,2,1,75,0,0
106460,-100,4,2,1,75,0,0
107260,-71.4285714285714,4,2,1,75,0,0
108560,-100,4,2,1,75,0,0
108860,-71.4285714285714,4,2,1,70,0,0
109260,-83.3333333333333,4,2,1,70,0,0
109660,-83.3333333333333,4,2,1,70,0,0
110060,-83.3333333333333,4,2,1,75,0,0
110460,-83.3333333333333,4,2,1,75,0,0
110860,-71.4285714285714,4,2,1,75,0,0
111260,-83.3333333333333,4,2,1,80,0,0
111660,-83.3333333333333,4,2,1,80,0,0
112060,-83.3333333333333,4,2,1,80,0,0
112460,-83.3333333333333,4,2,1,85,0,0
112860,-83.3333333333333,4,2,1,85,0,0
113260,-83.3333333333333,4,2,1,85,0,0
113660,-83.3333333333333,4,2,1,90,0,0
114160,-83.3333333333333,4,2,1,90,0,0
114460,-83.3333333333333,4,2,1,90,0,0
114860,-83.3333333333333,4,2,1,90,0,0

[Colours]
Combo1 : 255,210,74
Combo2 : 85,255,85
Combo3 : 91,165,255
Combo4 : 247,111,131

[HitObjects]
262,115,60,6,0,L|251:49,1,60,2|0,0:2|0:0,0:0:0:0:
175,198,460,2,0,L|164:264,1,60,2|0,0:2|0:0,0:0:0:0:
248,142,860,2,0,L|237:76,1,60,2|0,0:2|0:0,0:0:0:0:
161,171,1260,2,0,L|150:237,1,60,2|0,0:2|0:0,0:0:0:0:
187,345,1660,6,0,P|219:331|249:330,1,60,2|0,0:2|0:0,0:0:0:0:
291,243,2060,2,0,P|323:256|353:257,1,60,2|0,0:2|0:0,0:0:0:0:
212,369,2460,2,0,P|244:355|274:354,1,60,2|0,0:2|0:0,0:0:0:0:
316,267,2860,2,0,P|348:280|378:281,1,60,2|0,0:2|0:0,0:0:0:0:
485,206,3260,6,0,L|419:195,1,60,2|0,0:2|0:0,0:0:0:0:
397,102,3660,2,0,L|463:91,1,60,2|0,0:2|0:0,0:0:0:0:
512,192,4060,2,0,L|446:181,1,60,2|0,0:2|0:0,0:0:0:0:
370,88,4460,2,0,L|436:77,1,60,2|0,0:2|0:0,0:0:0:0:
291,32,4860,6,0,P|259:46|229:47,1,60,2|0,0:2|0:0,0:0:0:0:
187,134,5260,2,0,P|155:121|125:120,1,60,2|0,0:2|0:0,0:0:0:0:
266,8,5660,2,0,P|234:22|204:23,1,60,2|0,0:2|0:0,0:0:0:0:
162,110,6060,2,0,P|130:97|100:96,1,60,2|0,0:2|0:0,0:0:0:0:
46,259,6460,6,0,B|53:250|53:250|196:237|196:237|207:242,1,167.999994873047,4|2,0:3|0:2,0:0:0:0:
292,336,7660,1,2,0:2:0:0:
379,287,8060,2,0,P|392:319|393:349,1,60,2|0,0:2|0:0,0:0:0:0:
491,253,8460,6,0,B|512:108|512:108|499:85,1,167.999994873047,4|0,0:3|0:0,0:0:0:0:
405,83,9660,6,0,B|390:81|390:81|315:104,1,83.9999974365235,4|2,0:3|0:2,0:0:0:0:
243,20,10260,6,0,B|228:22|228:22|153:-1,1,83.9999974365235,4|0,0:3|0:0,0:0:0:0:
118,98,10860,6,0,B|103:96|103:96|28:119,1,83.9999974365235,4|2,0:3|0:2,0:0:0:0:
198,189,11660,6,0,B|203:176|203:176|262:166|262:166|270:173,1,83.9999974365235,4|2,0:3|0:2,0:0:0:0:
338,331,12460,1,2,0:2:0:0:
74,350,12860,6,0,L|26:337,2,35.9999989013672,6|0|2,0:3|0:0|0:2,0:0:0:0:
186,293,13260,1,2,0:2:0:0:
189,283,13360,1,2,0:2:0:0:
193,273,13460,1,2,0:2:0:0:
99,195,13660,2,0,P|58:210|10:208,1,83.9999974365235,10|0,0:2|0:0,0:0:0:0:
35,96,14060,1,2,0:2:0:0:
35,96,14260,1,2,0:2:0:0:
134,54,14460,6,0,P|175:39|223:41,1,90,2|0,0:2|0:0,0:0:0:0:
241,89,14860,2,0,P|275:102|311:103,1,71.9999978027344,6|2,0:3|0:2,0:0:0:0:
406,42,15260,2,0,L|396:6,2,30,10|2|2,0:2|0:2|0:2,0:0:0:0:
471,173,15660,2,0,L|462:201,2,30,2|0|2,0:2|0:0|0:2,0:0:0:0:
366,267,16060,5,6,0:3:0:0:
356,264,16160,1,2,0:2:0:0:
346,260,16260,1,2,0:2:0:0:
277,160,16460,2,0,L|129:198,1,125.999996154785,2|0,0:2|0:0,0:0:0:0:
105,193,16860,1,10,0:2:0:0:
105,193,17060,1,2,0:2:0:0:
111,324,17260,2,0,P|145:311|181:310,1,60,6|0,0:3|0:0,0:0:0:0:
271,353,17660,5,2,0:2:0:0:
268,363,17760,1,2,0:2:0:0:
264,373,17860,1,2,0:2:0:0:
354,270,18060,2,0,B|360:284|360:284|427:299,1,83.9999974365235,6|6,0:3|0:3,0:0:0:0:
417,183,18460,5,10,0:2:0:0:
413,173,18560,1,2,0:2:0:0:
410,163,18660,1,2,0:2:0:0:
475,62,18860,2,0,P|461:10|401:42,1,125.999996154785,2|0,0:2|0:0,0:0:0:0:
358,61,19260,6,0,P|327:41|292:37,1,71.9999978027344,6|2,0:3|0:2,0:0:0:0:
205,111,19660,2,0,L|216:145,2,35.9999989013672,2|2|2,0:2|0:2|0:2,0:0:0:0:
146,224,20060,2,0,P|181:246|223:252,1,83.9999974365235,10|0,0:2|0:0,0:0:0:0:
323,181,20460,6,0,B|311:195|311:195|332:267,1,83.9999974365235,2|10,0:2|0:3,0:0:0:0:
351,357,20860,1,2,0:2:0:0:
148,358,21260,5,6,0:3:0:0:
138,355,21360,1,2,0:2:0:0:
128,351,21460,1,2,0:2:0:0:
36,273,21660,2,0,P|14:305|10:366,2,83.9999974365235,10|2|2,0:2|0:2|0:2,0:0:0:0:
142,222,22260,1,2,0:2:0:0:
77,138,22460,6,0,B|63:149|63:149|-8:128,2,83.9999974365235,6|2|2,0:3|0:2|0:2,0:0:0:0:
98,22,23060,1,6,0:3:0:0:
108,27,23160,1,2,0:2:0:0:
118,32,23260,2,0,P|171:15|194:20,1,60,10|0,0:2|0:0,0:0:0:0:
231,125,23660,2,0,L|219:159,2,30,6|2|10,0:3|0:2|0:3,0:0:0:0:
334,28,24060,6,0,B|352:131|352:131|378:149,1,120,2|6,0:2|0:3,0:0:0:0:
443,87,24660,1,4,0:3:0:0:
484,188,24860,2,0,L|518:199,2,30,10|2|2,0:2|0:2|0:2,0:0:0:0:
394,250,25260,2,0,L|359:261,2,30,2|0|0,0:2|0:0|0:0,0:0:0:0:
337,364,25660,6,0,P|293:326|275:321,1,53.9999983520508,2|2,0:1|0:2,0:0:0:0:
210,354,26060,1,2,0:2:0:0:
210,354,26260,2,0,L|135:331,1,53.9999983520508,2|2,0:1|0:2,0:0:0:0:
35,223,26860,6,0,P|74:209|104:213,1,53.9999983520508,2|2,0:1|0:2,0:0:0:0:
182,236,27260,1,2,0:2:0:0:
182,236,27460,6,0,B|169:160,1,53.9999983520508,2|2,0:1|0:1,0:0:0:0:
76,30,28060,2,0,P|120:40|165:41,1,80.9999975280763,2|0,0:1|0:0,0:0:0:0:
198,63,28460,2,0,P|242:52|287:51,1,80.9999975280763,2|0,0:1|0:0,0:0:0:0:
327,61,28860,6,0,P|289:105|284:123,1,53.9999983520508,2|2,0:1|0:2,0:0:0:0:
380,143,29260,1,2,0:2:0:0:
380,143,29460,2,0,B|451:122,1,53.9999983520508,2|2,0:1|0:2,0:0:0:0:
504,261,30060,2,0,B|433:282,1,53.9999983520508,2|2,0:1|0:2,0:0:0:0:
370,321,30460,1,2,0:1:0:0:
370,321,30660,1,2,0:2:0:0:
295,266,30860,2,0,P|269:250|241:240,1,53.9999983520508,2|2,0:1|0:2,0:0:0:0:
164,315,31260,6,0,L|175:349,2,26.9999991760254,2|2|2,0:1|0:2|0:2,0:0:0:0:
49,269,31660,2,0,P|66:238|76:169,1,80.9999975280763,2|0,0:2|0:0,0:0:0:0:
111,151,32060,6,0,P|155:189|173:194,1,53.9999983520508,2|0,0:1|0:0,0:0:0:0:
209,116,32460,1,2,0:2:0:0:
209,116,32660,1,2,0:1:0:0:
209,116,32860,2,0,B|318:147,1,107.999996704102,2|2,0:2|0:1,0:0:0:0:
400,35,33660,6,0,P|444:-3|462:-8,1,53.9999983520508,2|2,0:2|0:1,0:0:0:0:
504,88,34060,2,0,P|481:102|464:123,1,53.9999983520508,2|2,0:1|0:3,0:0:0:0:
446,218,34460,2,0,L|464:313,1,80.9999975280763,2|0,0:1|0:0,0:0:0:0:
429,340,34860,2,0,L|332:359,1,80.9999975280763,2|2,0:1|0:2,0:0:0:0:
298,339,35260,6,0,L|287:286,1,53.9999983520508,2|2,0:1|0:3,0:0:0:0:
237,211,35660,1,2,0:3:0:0:
150,235,35860,2,0,P|96:210|37:201,1,107.999996704102,2|2,0:1|0:2,0:0:0:0:
14,284,36460,2,0,P|36:298|53:319,1,53.9999983520508,2|2,0:1|0:2,0:0:0:0:
138,362,36860,5,2,0:1:0:0:
138,362,37060,2,0,L|196:351,1,53.9999983520508,2|2,0:3|0:1,0:0:0:0:
266,304,37459,1,2,0:3:0:0:
266,304,37660,2,0,L|325:315,1,53.9999983520508,2|2,0:1|0:2,0:0:0:0:
409,360,38060,2,0,L|439:353,2,26.9999991760254,2|2|2,0:2|0:2|0:2,0:0:0:0:
400,246,38460,6,0,B|393:234|393:234|278:218,1,116.999994644165,6|0,0:3|0:0,0:0:0:0:
263,193,38860,2,0,P|275:162|272:132,1,60,2|2,0:2|0:1,0:0:0:0:
211,56,39260,2,0,L|204:26,2,30,2|2|2,0:2|0:2|0:2,0:0:0:0:
135,126,39660,1,2,0:1:0:0:
46,75,39860,1,2,0:2:0:0:
46,75,40060,2,0,L|31:148,1,71.9999978027344,2|2,0:2|0:1,0:0:0:0:
35,277,40460,6,0,L|46:327,2,30,6|2|2,0:3|0:2|0:2,0:0:0:0:
114,236,40860,2,0,B|121:248|121:248|236:264,1,107.999996704102,2|0,0:1|0:0,0:0:0:0:
262,268,41260,1,2,0:1:0:0:
453,138,41660,6,0,L|446:108,2,30,6|2|2,0:3|0:2|0:2,0:0:0:0:
472,253,42060,1,2,0:2:0:0:
375,202,42260,2,0,B|364:183|364:183|184:158,1,167.999994873047,6|2,0:3|0:2,0:0:0:0:
147,78,42860,2,0,B|154:64|154:64|282:46,1,125.999996154785,6|0,0:3|0:0,0:0:0:0:
293,81,43260,2,0,L|376:93,1,83.9999974365235,2|2,0:1|0:2,0:0:0:0:
422,199,43660,6,0,L|451:193,2,30,6|0|2,0:3|0:0|0:2,0:0:0:0:
345,275,44060,2,0,L|272:260,1,71.9999978027344,2|0,0:1|0:0,0:0:0:0:
198,319,44460,1,2,0:2:0:0:
198,319,44660,1,0,0:0:0:0:
101,370,44860,6,0,B|86:357|86:357|104:229,1,125.999996154785,6|0,0:3|0:0,0:0:0:0:
71,211,45260,2,0,L|79:151,1,60,2|2,0:2|0:1,0:0:0:0:
69,51,45660,6,0,P|113:61|158:62,1,90,2|0,0:2|0:0,0:0:0:0:
198,96,46060,2,0,P|242:85|287:84,1,90,2|2,0:1|0:2,0:0:0:0:
327,110,46460,2,0,P|306:141|293:184,1,60,2|2,0:2|0:1,0:0:0:0:
274,276,46860,6,0,B|290:264|290:264|418:282,1,125.999996154785,6|0,0:3|0:0,0:0:0:0:
442,305,47260,1,2,0:1:0:0:
442,305,47460,1,0,0:0:0:0:
470,212,47660,2,0,B|458:201|458:201|464:175|464:175|451:155,1,60,2|2,0:1|0:2,0:0:0:0:
511,96,48060,6,0,B|496:78|496:78|368:60,1,125.999996154785,6|0,0:3|0:0,0:0:0:0:
346,49,48460,1,2,0:2:0:0:
259,0,48660,6,0,B|246:21|246:21|264:149,1,125.999996154785,6|0,0:3|0:0,0:0:0:0:
271,165,49060,1,0,0:0:0:0:
332,228,49260,6,0,B|317:246|317:246|189:264,1,125.999996154785,6|0,0:3|0:0,0:0:0:0:
166,271,49660,1,2,0:1:0:0:
166,271,49860,1,0,0:0:0:0:
105,338,50060,6,0,B|115:355|115:355|203:369|203:369|210:385,1,125.999996154785,6|0,0:3|0:0,0:0:0:0:
245,360,50460,1,2,0:1:0:0:
345,341,50660,1,2,0:2:0:0:
357,338,50760,1,2,0:2:0:0:
366,335,50860,2,0,P|386:294|428:257,1,83.9999974365235,2|2,0:2|0:2,0:0:0:0:
453,165,51260,6,0,L|501:152,2,35.9999989013672,6|2|2,0:3|0:2|0:2,0:0:0:0:
341,195,51660,1,2,0:2:0:0:
331,192,51760,1,2,0:2:0:0:
321,188,51860,1,2,0:2:0:0:
235,123,52060,2,0,L|219:222,1,83.9999974365235,10|0,0:2|0:0,0:0:0:0:
157,299,52460,1,2,0:2:0:0:
157,299,52660,1,10,0:3:0:0:
77,222,52860,6,0,L|64:174,2,35.9999989013672,2|2|2,0:2|0:2|0:2,0:0:0:0:
67,91,53260,2,0,P|107:75|151:74,1,83.9999974365235,6|0,0:3|0:0,0:0:0:0:
238,143,53660,2,0,L|274:153,2,30,10|2|2,0:2|0:2|0:2,0:0:0:0:
349,86,54060,2,0,L|377:77,2,30,2|0|2,0:2|0:0|0:2,0:0:0:0:
419,172,54460,5,6,0:3:0:0:
422,182,54560,1,0,0:0:0:0:
426,192,54660,1,2,0:2:0:0:
356,331,54860,2,0,B|362:318|362:318|324:182,1,125.999996154785,2|0,0:2|0:0,0:0:0:0:
307,165,55260,1,10,0:2:0:0:
307,165,55460,1,2,0:2:0:0:
247,267,55660,2,0,P|203:248|156:243,1,83.9999974365235,6|10,0:3|0:3,0:0:0:0:
121,354,56060,5,2,0:2:0:0:
131,351,56160,1,2,0:2:0:0:
141,347,56260,1,10,0:3:0:0:
29,265,56460,2,0,B|15:271|15:271|0:338,1,83.9999974365235,6|6,0:3|0:3,0:0:0:0:
86,191,56860,5,10,0:2:0:0:
82,181,56960,1,2,0:2:0:0:
79,171,57060,1,2,0:2:0:0:
0,100,57260,2,0,P|19:45|74:60,1,125.999996154785,2|0,0:2|0:0,0:0:0:0:
121,45,57660,6,0,P|165:84|252:76,1,125.999996154785,6|0,0:3|0:0,0:0:0:0:
266,53,58060,2,0,L|255:19,2,35.9999989013672,2|0|2,0:2|0:0|0:1,0:0:0:0:
308,175,58460,2,0,P|343:153|385:147,1,83.9999974365235,10|0,0:2|0:0,0:0:0:0:
477,106,58860,6,0,B|465:92|465:92|486:20,1,83.9999974365235,2|10,0:1|0:3,0:0:0:0:
472,200,59260,2,0,B|484:214|484:214|463:286,1,83.9999974365235,2|2,0:2|0:1,0:0:0:0:
367,348,59660,5,6,0:3:0:0:
363,338,59760,1,2,0:2:0:0:
360,328,59860,1,0,0:0:0:0:
251,268,60060,2,0,P|245:309|222:343,2,83.9999974365235,10|0|2,0:2|0:0|0:2,0:0:0:0:
142,268,60660,1,0,0:0:0:0:
205,169,60860,6,0,B|216:155|216:155|195:84,2,83.9999974365235,6|2|2,0:3|0:2|0:2,0:0:0:0:
142,268,61460,1,6,0:3:0:0:
16,198,61660,2,0,P|69:181|92:186,1,60,10|0,0:2|0:0,0:0:0:0:
68,58,62060,2,0,L|56:24,2,30,6|0|10,0:3|0:0|0:3,0:0:0:0:
181,112,62460,6,0,B|186:101|186:101|357:66,1,167.999994873047,2|6,0:1|0:3,0:0:0:0:
377,172,63060,1,2,0:2:0:0:
493,126,63260,2,0,L|504:92,2,35.9999989013672,10|2|2,0:2|0:2|0:2,0:0:0:0:
478,252,63660,2,0,L|489:287,1,35.9999989013672,2|0,0:1|0:0,0:0:0:0:
382,329,64060,6,0,B|369:335|369:335|233:297,1,125.999996154785,6|0,0:3|0:0,0:0:0:0:
208,315,64460,1,2,0:2:0:0:
208,315,64660,1,2,0:1:0:0:
256,223,64860,2,0,P|222:213|186:211,1,71.9999978027344,10|0,0:2|0:0,0:0:0:0:
113,279,65260,6,0,L|78:268,2,35.9999989013672,2|2|10,0:1|0:2|0:3,0:0:0:0:
208,315,65660,1,2,0:2:0:0:
61,166,66060,6,0,L|16:181,2,41.9999987182618,6|0|0,0:3|0:0|0:0,0:0:0:0:
117,67,66460,2,0,B|137:70|137:70|205:58|205:58|223:62,1,107.999996704102,10|0,0:2|0:0,0:0:0:0:
266,84,66860,2,0,P|271:54|300:26,1,71.9999978027344,2|0,0:2|0:0,0:0:0:0:
405,126,67260,5,6,0:3:0:0:
394,122,67360,1,0,0:0:0:0:
384,121,67460,1,2,0:2:0:0:
315,219,67660,2,0,B|306:234|306:234|317:287,2,71.9999978027344,2|6|10,0:2|0:3|0:2,0:0:0:0:
166,348,68460,5,6,0:3:0:0:
156,347,68560,1,2,0:2:0:0:
145,343,68660,1,10,0:3:0:0:
46,212,68860,2,0,B|53:214|53:214|67:289,1,71.9999978027344,2|10,0:1|0:3,0:0:0:0:
180,138,69260,2,0,B|173:140|173:140|159:215,1,71.9999978027344,6|0,0:3|0:0,0:0:0:0:
70,85,69660,5,10,0:2:0:0:
59,89,69760,1,2,0:2:0:0:
48,94,69860,1,2,0:2:0:0:
161,26,70060,2,0,B|175:15|175:15|234:31,1,71.9999978027344,2|2,0:2|0:2,0:0:0:0:
180,138,70460,5,2,0:1:0:0:
161,298,70860,1,0,0:0:0:0:
247,251,71060,2,0,P|299:262|350:279,1,107.999996704102,2|2,0:1|0:2,0:0:0:0:
435,326,71660,5,2,0:1:0:0:
403,170,72060,1,2,0:2:0:0:
403,170,72260,1,2,0:1:0:0:
420,80,72460,6,0,P|385:80|359:85,1,53.9999983520508,2|0,0:1|0:0,0:0:0:0:
286,146,72860,2,0,L|296:190,2,26.9999991760254,2|0|0,0:1|0:0|0:0,0:0:0:0:
266,56,73260,1,2,0:1:0:0:
57,82,73660,6,0,L|69:154,1,53.9999983520508,2|2,0:1|0:2,0:0:0:0:
145,205,74060,1,2,0:2:0:0:
145,205,74260,1,2,0:1:0:0:
67,267,74460,2,0,L|55:339,1,53.9999983520508,2|2,0:2|0:2,0:0:0:0:
123,377,74860,2,0,P|159:366|197:363,1,53.9999983520508,2|0,0:1|0:0,0:0:0:0:
250,326,75260,5,2,0:1:0:0:
261,330,75360,1,2,0:2:0:0:
272,335,75460,1,2,0:2:0:0:
370,359,75660,2,0,P|359:323|356:285,1,53.9999983520508,2|0,0:1|0:0,0:0:0:0:
397,234,76060,5,2,0:1:0:0:
439,99,76460,2,0,P|425:71|418:22,1,80.9999975280763
385,0,76860,6,0,P|361:12|334:17,1,53.9999983520508,2|2,0:1|0:2,0:0:0:0:
245,0,77260,1,2,0:2:0:0:
245,0,77460,1,2,0:1:0:0:
167,58,77660,2,0,P|142:47|115:43,1,53.9999983520508,2|2,0:2|0:2,0:0:0:0:
35,74,78060,1,2,0:1:0:0:
148,170,78460,6,0,L|219:160,1,53.9999983520508,2|2,0:2|0:1,0:0:0:0:
275,113,78860,2,0,L|335:122,1,53.9999983520508,2|2,0:1|0:3,0:0:0:0:
415,164,79260,2,0,L|462:154,2,26.9999991760254,2|2|2,0:1|0:2|0:2,0:0:0:0:
340,224,79660,1,2,0:1:0:0:
344,369,80060,6,0,P|318:350|291:341,1,53.9999983520508,2|2,0:1|0:3,0:0:0:0:
216,379,80460,1,2,0:3:0:0:
159,309,80660,2,0,P|105:334|41:335,1,107.999996704102,2|2,0:1|0:2,0:0:0:0:
4,270,81260,1,2,0:1:0:0:
51,133,81660,5,2,0:1:0:0:
51,133,81860,2,0,L|109:144,1,53.9999983520508,2|2,0:3|0:1,0:0:0:0:
184,191,82259,1,2,0:3:0:0:
216,92,82460,2,0,L|209:62,2,26.9999991760254,2|2|2,0:1|0:2|0:2,0:0:0:0:
305,140,82861,2,0,P|345:124|386:118,1,80.9999975280763
427,117,83260,6,0,B|415:124|415:124|399:239,1,125.999996154785,6|2,0:3|0:2,0:0:0:0:
411,287,83660,1,2,0:2:0:0:
411,287,83860,1,2,0:1:0:0:
305,238,84060,2,0,L|313:297,1,60,2|2,0:2|0:2,0:0:0:0:
257,377,84460,1,2,0:1:0:0:
257,377,84660,1,0,0:0:0:0:
178,316,84860,2,0,L|188:272,2,35.9999989013672,2|2|2,0:2|0:2|0:1,0:0:0:0:
86,376,85260,6,0,L|72:301,1,60,6|2,0:3|0:2,0:0:0:0:
16,249,85660,2,0,B|28:242|28:242|41:167,1,71.9999978027344,2|2,0:1|0:2,0:0:0:0:
52,95,86060,1,2,0:1:0:0:
220,47,86460,6,0,L|213:17,2,30,6|2|2,0:3|0:2|0:3,0:0:0:0:
251,152,86860,1,2,0:3:0:0:
321,87,87060,2,0,B|338:70|338:70|518:95,1,167.999994873047,6|2,0:3|0:2,0:0:0:0:
512,181,87660,2,0,B|488:194|488:194|470:322,1,125.999996154785,4|0,0:3|0:0,0:0:0:0:
444,332,88060,1,2,0:1:0:0:
444,332,88260,1,2,0:2:0:0:
338,313,88460,6,0,L|309:319,2,30,6|2|2,0:3|0:2|0:3,0:0:0:0:
376,229,88860,1,2,0:1:0:0:
376,229,89060,2,0,L|362:159,1,71.9999978027344,2|0,0:2|0:0,0:0:0:0:
193,67,89660,6,0,B|184:79|184:79|86:65,1,83.9999974365235,6|2,0:3|0:2,0:0:0:0:
43,127,90060,2,0,L|33:193,1,60,2|2,0:2|0:1,0:0:0:0:
88,266,90460,6,0,L|161:279,1,60,2|2,0:2|0:2,0:0:0:0:
236,232,90860,2,0,P|280:221|325:220,1,90,2|0,0:1|0:0,0:0:0:0:
359,246,91260,1,2,0:2:0:0:
359,246,91460,1,2,0:1:0:0:
448,208,91660,6,0,B|460:192|460:192|430:65,1,125.999996154785,6|2,0:3|0:2,0:0:0:0:
408,54,92060,1,2,0:1:0:0:
408,54,92260,1,2,0:2:0:0:
317,115,92460,2,0,B|306:127|306:127|280:121|280:121|267:133,1,60,2|0,0:1|0:0,0:0:0:0:
209,44,92860,6,0,B|194:26|194:26|66:8,1,125.999996154785,6|0,0:3|0:0,0:0:0:0:
46,19,93260,1,2,0:3:0:0:
58,106,93460,6,0,B|21:200|21:200|28:223,1,125.999996154785,6|0,0:3|0:0,0:0:0:0:
51,261,93860,1,2,0:2:0:0:
128,208,94060,6,0,B|229:194|229:194|258:209,1,125.999996154785,4|0,0:3|0:0,0:0:0:0:
285,232,94460,1,2,0:1:0:0:
285,232,94660,1,2,0:2:0:0:
359,164,94860,6,0,B|369:98|369:98|383:87,1,83.9999974365235,6|2,0:3|0:2,0:0:0:0:
450,174,95260,1,2,0:2:0:0:
464,225,95460,1,2,0:2:0:0:
473,257,95660,1,2,0:2:0:0:
268,281,96060,6,0,L|220:268,2,35.9999989013672,6|2|2,0:3|0:2|0:2,0:0:0:0:
349,365,96460,1,2,0:2:0:0:
359,361,96560,1,2,0:2:0:0:
369,358,96660,1,2,0:2:0:0:
395,172,96860,2,0,B|382:179|382:179|365:264,1,83.9999974365235,10|0,0:2|0:0,0:0:0:0:
479,307,97260,5,2,0:2:0:0:
475,297,97360,1,2,0:2:0:0:
472,287,97460,1,10,0:3:0:0:
503,190,97660,2,0,L|516:142,2,35.9999989013672,2|2|2,0:2|0:2|0:2,0:0:0:0:
436,88,98060,2,0,P|420:49|418:7,1,83.9999974365235,6|0,0:3|0:0,0:0:0:0:
306,55,98460,2,0,L|277:46,2,30,10|2|2,0:2|0:2|0:2,0:0:0:0:
363,161,98860,2,0,P|370:190|369:220,1,60,2|2,0:2|0:2,0:0:0:0:
267,232,99260,5,6,0:3:0:0:
267,232,99460,1,2,0:2:0:0:
250,336,99660,2,0,B|237:342|237:342|101:304,1,125.999996154785,2|0,0:2|0:0,0:0:0:0:
89,323,100060,1,10,0:2:0:0:
89,323,100260,1,2,0:2:0:0:
57,207,100460,2,0,P|74:168|81:127,1,83.9999974365235,6|10,0:3|0:3,0:0:0:0:
14,28,100860,5,2,0:2:0:0:
18,38,100960,1,2,0:2:0:0:
21,48,101060,1,10,0:3:0:0:
128,10,101260,2,0,B|139:1|139:1|206:18,1,83.9999974365235,6|6,0:3|0:3,0:0:0:0:
276,104,101660,5,10,0:2:0:0:
276,104,101860,1,2,0:2:0:0:
369,52,102060,2,0,P|415:28|442:94,1,125.999996154785,2|0,0:2|0:0,0:0:0:0:
430,124,102460,5,6,0:3:0:0:
434,134,102560,1,2,0:2:0:0:
437,144,102660,1,2,0:2:0:0:
422,263,102860,2,0,L|433:297,2,35.9999989013672,2|2|2,0:2|0:2|0:2,0:0:0:0:
330,189,103260,2,0,B|314:175|314:175|248:190,1,83.9999974365235,10|0,0:2|0:0,0:0:0:0:
142,262,103660,6,0,B|158:248|158:248|224:263,1,83.9999974365235,2|10,0:2|0:3,0:0:0:0:
297,352,104060,1,2,0:2:0:0:
301,342,104160,1,2,0:2:0:0:
304,332,104260,1,2,0:2:0:0:
195,384,104460,2,0,B|181:352|181:352|92:332,1,125.999996154785,6|0,0:3|0:0,0:0:0:0:
66,291,104860,2,0,P|42:256|36:215,2,83.9999974365235,10|2|2,0:2|0:2|0:2,0:0:0:0:
134,223,105460,1,2,0:2:0:0:
159,124,105660,6,0,B|145:113|145:113|74:134,2,83.9999974365235,6|2|2,0:3|0:2|0:2,0:0:0:0:
240,208,106260,1,6,0:3:0:0:
287,106,106460,2,0,P|340:89|363:94,1,60,10|2,0:2|0:2,0:0:0:0:
370,203,106860,2,0,L|360:231,2,30,6|2|10,0:3|0:2|0:3,0:0:0:0:
453,92,107260,6,0,B|429:-1,2,83.9999974365235,2|10|6,0:2|0:3|0:3,0:0:0:0:
512,201,107860,1,6,0:3:0:0:
490,329,108060,2,0,P|455:313|408:308,1,83.9999974365235,10|2,0:2|0:2,0:0:0:0:
352,233,108460,2,0,P|317:249|270:254,1,83.9999974365235,2|0,0:2|0:0,0:0:0:0:
211,158,108860,6,0,L|225:112,2,41.9999987182618,6|2|2,0:3|0:2|0:2,0:0:0:0:
148,299,109260,2,0,L|162:344,2,35.9999989013672,2|2|2,0:2|0:2|0:2,0:0:0:0:
79,197,109660,2,0,P|45:187|9:185,1,71.9999978027344,10|0,0:2|0:0,0:0:0:0:
105,85,110060,6,0,L|150:70,2,35.9999989013672,2|2|10,0:2|0:2|0:3,0:0:0:0:
214,159,110460,1,2,0:2:0:0:
224,162,110560,1,2,0:2:0:0:
234,166,110660,1,2,0:2:0:0:
362,69,110860,2,0,P|348:108|344:150,1,83.9999974365235,6|0,0:3|0:0,0:0:0:0:
437,253,111260,5,10,0:2:0:0:
434,243,111360,1,2,0:2:0:0:
430,233,111460,1,2,0:2:0:0:
340,327,111660,2,0,L|328:361,2,35.9999989013672,2|2|2,0:2|0:2|0:2,0:0:0:0:
238,262,112060,2,0,P|193:275|144:278,1,71.9999978027344,6|0,0:3|0:0,0:0:0:0:
98,363,112460,6,0,L|64:351,2,35.9999989013672,2|2|6,0:2|0:2|0:3,0:0:0:0:
34,231,112860,1,10,0:2:0:0:
21,235,112960,1,2,0:2:0:0:
7,240,113060,1,2,0:2:0:0:
33,100,113260,2,0,B|43:93|43:93|101:109,1,71.9999978027344,6|8,0:3|0:3,0:0:0:0:
232,194,113660,5,2,0:2:0:0:
227,176,113760,1,2,0:2:0:0:
220,156,113860,1,10,0:3:0:0:
338,43,114060,1,6,0:3:0:0:
333,61,114160,1,2,0:2:0:0:
326,81,114260,1,2,0:2:0:0:
386,196,114460,6,0,B|406:172|406:172|447:304,1,143.999995605469,10|2,0:2|0:2,0:0:0:0:
