osu file format v14

[General]
AudioFilename: audio.mp3
AudioLeadIn: 0
PreviewTime: -1
Countdown: 1
SampleSet: Normal
StackLeniency: 0.7
Mode: 0
LetterboxInBreaks: 0
WidescreenStoryboard: 0

[Editor]
DistanceSpacing: 0.8
BeatDivisor: 4
GridSize: 4
TimelineZoom: 2.299999

[Metadata]
Title:Chasing Stars
TitleUnicode:Chasing Stars
Artist:Amazed vs Kodex
ArtistUnicode:Amazed vs Kodex
Creator:Kiay
Version:Insane
Source:
Tags:
BeatmapID:1652187
BeatmapSetID:787147

[Difficulty]
HPDrainRate:4
CircleSize:3
OverallDifficulty:8
ApproachRate:9
SliderMultiplier:1.6
SliderTickRate:1

[Events]
//Background and Video events
//Break Periods
//Storyboard Layer 0 (Background)
//Storyboard Layer 1 (Fail)
//Storyboard Layer 2 (Pass)
//Storyboard Layer 3 (Foreground)
//Storyboard Layer 4 (Overlay)
//Storyboard Sound Samples

[TimingPoints]
0,800,4,2,0,100,1,0
14000,400,4,2,0,100,1,0
37268,200,4,2,0,100,1,0
40339,400,4,2,0,100,1,0
52094,200,4,1,0,100,1,0
54880,200,4,1,0,100,1,0
63861,100,4,3,0,100,1,0
64803,400,4,1,0,100,1,0
78023,200,4,1,0,100,1,0

[HitObjects]
44,268,1600,6,0,B|208:136|256:276|429:104|428:88,1,400
88,112,4800,6,0,B|65:111|253:283|301:143|460:273,1,400
512,356,7600,1,0,0:0:0:0:
512,0,8000,6,0,B|535:-1|347:171|299:31|135:160,1,400
8,296,10800,5,0,0:0:0:0:
56,232,11200,2,0,B|224:136|224:136|224:136|454:152,1,400
32,340,14400,5,0,0:0:0:0:
500,4,14800,1,0,0:0:0:0:
0,184,15200,1,0,0:0:0:0:
512,208,15600,1,0,0:0:0:0:
16,24,16000,1,0,0:0:0:0:
512,376,16400,2,0,P|440:328|433:320,2,80
244,340,17200,1,0,0:0:0:0:
0,372,17600,1,0,0:0:0:0:
72,280,18000,6,0,B|65:285|93:289|159:261,2,80
208,212,18800,1,0,0:0:0:0:
4,124,19200,1,0,0:0:0:0:
35,336,19600,1,0,0:0:0:0:
449,74,19800,1,0,0:0:0:0:
280,366,20000,1,0,0:0:0:0:
88,88,20400,1,0,0:0:0:0:
41,329,20800,1,0,0:0:0:0:
200,140,21200,6,0,P|296:76|343:64,1,160
332,72,21800,1,0,0:0:0:0:
376,140,22000,2,0,L|448:148,1,70
400,216,22400,2,0,L|476:284,1,70
380,316,22800,1,0,0:0:0:0:
320,268,23000,1,0,0:0:0:0:
327,149,23200,2,0,L|212:264,2,160
256,192,24400,12,0,26900,0:0:0:0:
168,260,27200,6,0,L|45:363,2,160
332,97,28200,1,0,0:0:0:0:
229,136,28400,2,0,L|96:40,1,160
348,364,29000,2,0,L|353:251,1,80
467,91,29400,2,0,L|415:159,1,70
344,208,29800,2,0,L|500:157,1,160
436,160,30400,6,0,L|360:120,1,70
48,148,30800,2,0,L|204:202,1,160
96,320,31400,1,0,0:0:0:0:
276,186,31600,1,0,0:0:0:0:
264,376,31800,1,0,0:0:0:0:
248,0,32000,2,0,L|262:86,2,80
374,40,32600,2,0,L|288:112,1,80
244,156,33000,1,0,0:0:0:0:
183,216,33200,2,0,L|64:324,1,160
120,144,33800,5,0,0:0:0:0:
184,112,34000,2,0,L|336:39,1,160
176,288,34600,1,0,0:0:0:0:
148,52,34800,1,0,0:0:0:0:
348,236,35000,1,0,0:0:0:0:
465,294,35200,2,0,P|256:159|254:150,2,280
254,153,36800,1,0,0:0:0:0:
321,13,37200,5,2,0:0:0:0:
423,135,37368,1,0,0:0:0:0:
321,13,37568,1,2,0:0:0:0:
321,13,37768,1,0,0:0:0:0:
313,137,37968,1,2,0:0:0:0:
297,253,38168,1,0,0:0:0:0:
332,112,38368,1,0,0:0:0:0:
187,97,38568,1,0,0:0:0:0:
367,215,38768,6,0,L|191:305,2,160
72,158,39368,2,0,P|133:211|212:195,1,160
46,14,39768,1,0,0:0:0:0:
46,14,39868,1,0,0:0:0:0:
46,14,39968,2,0,B|128:232|0:325|0:319,1,320
52,331,40539,5,0,0:0:0:0:
65,302,40639,1,0,0:0:0:0:
81,270,40739,1,0,0:0:0:0:
163,267,40939,1,0,0:0:0:0:
191,252,41039,1,0,0:0:0:0:
221,237,41139,1,0,0:0:0:0:
225,116,41339,6,0,P|308:145|327:143,1,80
274,310,41739,2,0,P|330:291|394:205,1,160
111,137,42338,2,0,P|36:92|32:88,2,80
384,110,42939,5,0,0:0:0:0:
397,140,43039,1,0,0:0:0:0:
412,171,43138,1,0,0:0:0:0:
341,313,43339,1,0,0:0:0:0:
327,285,43439,1,0,0:0:0:0:
311,253,43538,1,0,0:0:0:0:
412,171,43739,1,0,0:0:0:0:
390,124,43839,1,0,0:0:0:0:
375,89,43938,6,0,B|379:101|396:98|467:45,2,80
253,232,44539,1,0,0:0:0:0:
132,309,44939,1,0,0:0:0:0:
76,155,45339,1,0,0:0:0:0:
253,55,45739,1,0,0:0:0:0:
132,309,46139,1,0,0:0:0:0:
359,190,46539,1,0,0:0:0:0:
383,194,46639,1,0,0:0:0:0:
413,201,46739,1,0,0:0:0:0:
167,139,47138,6,2,P|220:85|222:71,1,80
338,10,47538,1,0,0:0:0:0:
104,312,47738,1,0,0:0:0:0:
85,346,47938,2,2,L|167:353,1,80
93,54,48338,2,0,L|168:121,1,80
353,296,48738,1,2,0:0:0:0:
276,225,48938,1,12,0:0:0:0:
233,133,49138,2,0,P|236:110|265:85,5,40
271,69,49739,5,0,0:0:0:0:
312,43,49838,1,0,0:0:0:0:
365,37,49938,1,0,0:0:0:0:
414,52,50038,1,0,0:0:0:0:
452,82,50138,1,0,0:0:0:0:
473,124,50238,5,0,0:0:0:0:
472,176,50338,1,0,0:0:0:0:
452,217,50438,1,0,0:0:0:0:
415,249,50538,1,0,0:0:0:0:
361,264,50638,1,0,0:0:0:0:
311,257,50738,5,0,0:0:0:0:
258,234,50838,1,0,0:0:0:0:
222,186,50938,1,0,0:0:0:0:
204,133,51039,1,0,0:0:0:0:
378,108,51139,6,4,P|280:88|248:41,1,160
198,47,51639,1,0,0:0:0:0:
146,49,51739,1,0,0:0:0:0:
98,176,51939,6,0,L|69:97,1,80
183,170,52344,2,0,L|265:359,1,200
512,49,52794,6,0,P|440:169|240:193,1,320
50,329,53394,1,0,0:0:0:0:
80,310,53494,1,0,0:0:0:0:
104,295,53594,1,0,0:0:0:0:
222,290,53794,1,0,0:0:0:0:
254,298,53894,1,0,0:0:0:0:
275,319,53994,1,0,0:0:0:0:
392,311,54194,5,0,0:0:0:0:
422,298,54294,1,0,0:0:0:0:
444,271,54394,1,0,0:0:0:0:
462,150,54794,1,0,0:0:0:0:
354,37,55180,1,0,0:0:0:0:
256,189,55580,1,0,0:0:0:0:
256,189,55780,1,0,0:0:0:0:
253,336,55980,5,0,0:0:0:0:
296,335,56080,1,0,0:0:0:0:
338,331,56180,2,2,P|388:220|384:209,1,140
373,180,56480,1,0,0:0:0:0:
350,142,56580,2,2,B|365:116|385:63|473:105,1,140
487,141,56880,1,0,0:0:0:0:
509,178,56980,2,2,P|432:193|361:174,1,140
350,142,57280,1,0,0:0:0:0:
334,111,57380,2,0,P|277:45|222:63,1,140
129,0,57980,5,0,0:0:0:0:
25,152,58380,1,0,0:0:0:0:
188,176,58780,1,0,0:0:0:0:
25,152,58980,1,0,0:0:0:0:
215,88,59180,1,0,0:0:0:0:
75,323,59380,2,2,P|112:297|118:191,1,140
104,178,59680,1,0,0:0:0:0:
83,150,59780,2,2,P|100:77|154:31,1,140
244,22,60180,5,0,0:0:0:0:
390,116,60380,1,0,0:0:0:0:
220,200,60580,1,0,0:0:0:0:
366,216,60780,5,0,0:0:0:0:
360,249,60880,1,0,0:0:0:0:
370,272,60980,1,0,0:0:0:0:
395,286,61080,1,0,0:0:0:0:
428,281,61180,1,0,0:0:0:0:
446,255,61280,1,0,0:0:0:0:
442,213,61380,1,0,0:0:0:0:
415,195,61480,5,0,0:0:0:0:
382,194,61580,2,2,P|385:125|326:47,1,160
316,21,61880,1,0,0:0:0:0:
279,7,61980,2,0,P|171:10|86:108,1,240
162,165,62380,6,0,P|305:157|335:128,1,160
90,211,62780,2,0,P|107:315|149:338,1,160
137,243,63080,1,0,0:0:0:0:
239,177,63180,2,8,L|210:204,4,35
137,243,63480,1,0,0:0:0:0:
85,143,63580,2,0,L|70:112,4,35
137,243,63861,5,0,0:0:0:0:
56,288,63961,2,0,L|24:316,42,40
201,306,65203,6,0,P|260:225|257:162,2,160
33,84,66203,2,0,L|96:137,1,80
237,222,66803,1,0,0:0:0:0:
438,138,67003,6,0,L|385:201,1,80,0|8,0:0|0:0,0:0:0:0:
279,329,67603,1,0,0:0:0:0:
165,270,67803,1,0,0:0:0:0:
90,65,68003,2,0,L|196:111,1,80
305,52,68403,2,2,L|332:-7,2,40,10|2|10,0:0|0:0|0:0,0:0:0:0:
453,143,68803,6,0,P|374:193|369:263,1,160,8|0,0:0|0:0,0:0:0:0:
134,331,69403,2,0,L|63:347,4,40
75,258,70003,1,8,0:0:0:0:
57,225,70103,1,0,0:0:0:0:
51,181,70203,1,8,0:0:0:0:
158,126,70403,6,0,P|238:185|240:187,2,80,8|0|8,0:0|0:0|0:0,0:0:0:0:
71,298,71003,1,0,0:0:0:0:
95,172,71203,2,0,B|76:119|87:45|167:42,1,160,8|8,0:0|0:0,0:0:0:0:
221,146,71803,5,0,0:0:0:0:
350,115,72003,1,8,0:0:0:0:
436,203,72203,1,0,0:0:0:0:
428,343,72403,1,8,0:0:0:0:
258,356,72603,5,0,0:0:0:0:
132,328,72803,1,8,0:0:0:0:
58,221,73003,1,8,0:0:0:0:
88,92,73203,1,8,0:0:0:0:
261,23,73403,5,8,0:0:0:0:
219,140,73603,1,8,0:0:0:0:
246,254,73803,1,8,0:0:0:0:
410,341,74003,2,10,B|524:350|357:283|420:247|430:176,1,200,14|10,0:0|0:0,0:0:0:0:
116,45,74703,2,14,B|-8:78|158:145|25:161|84:221,1,200
32,347,75403,5,0,0:0:0:0:
65,325,75503,1,0,0:0:0:0:
104,317,75603,1,0,0:0:0:0:
144,318,75703,5,0,0:0:0:0:
184,320,75803,1,0,0:0:0:0:
224,321,75903,1,0,0:0:0:0:
263,318,76003,5,0,0:0:0:0:
303,312,76103,1,0,0:0:0:0:
342,302,76203,1,0,0:0:0:0:
379,287,76303,5,0,0:0:0:0:
413,267,76403,1,0,0:0:0:0:
442,240,76503,1,0,0:0:0:0:
462,205,76603,5,0,0:0:0:0:
464,165,76703,1,0,0:0:0:0:
447,129,76803,1,0,0:0:0:0:
418,102,76903,5,0,0:0:0:0:
384,82,77003,1,0,0:0:0:0:
307,68,77103,2,4,B|145:83|231:85|190:45|159:134|4:101,1,280,8|0,0:0|0:0,0:0:0:0:
75,150,77903,2,0,L|82:197,2,40,8|0|8,0:0|0:0|0:0,0:0:0:0:
156,120,78323,6,0,B|260:191|260:191|273:42,1,240,8|6,0:0|0:0,0:0:0:0:
400,28,78823,1,0,0:0:0:0:
122,42,79023,2,0,B|104:112|104:112|133:218,1,160
367,327,79423,2,0,L|182:341,1,160
149,192,79823,5,0,0:0:0:0:
268,21,80023,1,0,0:0:0:0:
367,217,80223,1,0,0:0:0:0:
140,188,80423,2,0,B|171:219|171:219|387:217,1,240
205,143,80823,5,0,0:0:0:0:
205,143,80923,2,0,B|178:40|245:41|146:39|146:39|160:22|160:22|147:-26|147:-26,1,200
113,230,81323,2,0,L|33:260,1,80
38,258,81523,1,0,0:0:0:0:
268,227,81723,2,0,L|418:353,1,160
293,200,82123,2,0,L|483:190,1,160
105,160,82523,5,0,0:0:0:0:
163,105,82723,1,0,0:0:0:0:
142,77,82823,1,0,0:0:0:0:
109,60,82923,1,0,0:0:0:0:
105,160,83123,2,0,P|96:240|190:270,1,160
194,275,83423,1,0,0:0:0:0:
237,285,83523,1,0,0:0:0:0:
275,315,83623,1,0,0:0:0:0:
312,344,83723,2,0,P|376:333|408:246,1,160
398,134,84123,6,0,L|306:76,1,80
279,59,84323,1,0,0:0:0:0:
161,46,84523,2,0,L|1:27,1,160
79,281,84923,5,0,0:0:0:0:
326,270,85123,1,0,0:0:0:0:
190,105,85323,2,0,L|258:9,3,80
265,16,85723,1,0,0:0:0:0:
341,305,85923,1,0,0:0:0:0:
155,24,86123,1,0,0:0:0:0:
341,305,86323,1,0,0:0:0:0:
46,226,86523,2,0,B|66:290|64:273|53:270|71:289|115:293,2,80
377,292,86923,2,0,L|430:353,2,80
449,186,87323,5,0,0:0:0:0:
220,21,87523,1,0,0:0:0:0:
132,307,87723,1,0,0:0:0:0:
77,109,87923,6,0,B|146:160|129:173|129:173|168:173|168:173|235:121|99:169|201:161|261:205|23:135,1,320
77,109,88523,1,0,0:0:0:0:
77,109,88723,6,0,B|146:160|129:173|129:173|168:173|168:173|235:121|99:169|201:161|261:205|23:135,1,320
219,44,89323,2,0,P|365:14|381:14,1,160
411,27,89623,1,0,0:0:0:0:
432,61,89723,1,0,0:0:0:0:
451,103,89823,1,0,0:0:0:0:
466,139,89923,1,0,0:0:0:0:
476,178,90023,1,0,0:0:0:0:
490,214,90123,1,0,0:0:0:0:
500,256,90223,1,0,0:0:0:0:
512,299,90323,6,0,L|271:337,1,240
246,338,90723,1,0,0:0:0:0:
191,69,90923,1,0,0:0:0:0:
236,327,91123,1,0,0:0:0:0:
185,332,91223,2,0,L|100:339,1,80
56,340,91423,2,0,L|44:246,1,80
47,120,91723,6,0,P|152:39|261:41,1,240
90,185,92223,2,0,P|262:167|276:173,2,160
384,330,92823,2,0,L|72:329,2,280
373,241,93723,2,0,L|455:93,1,160
311,143,94023,2,0,B|348:59|301:33|243:138,1,160
195,202,94323,2,0,P|130:246|41:244,1,160
63,132,94723,1,0,0:0:0:0:
77,106,94823,1,0,0:0:0:0:
92,91,94923,1,0,0:0:0:0:
217,112,95123,1,0,0:0:0:0:
250,106,95223,1,0,0:0:0:0:
284,109,95323,1,0,0:0:0:0:
272,199,95523,1,0,0:0:0:0:
310,203,95623,1,0,0:0:0:0:
351,233,95723,1,0,0:0:0:0:
389,127,95923,2,0,B|580:128|435:68|585:41|500:-13|497:207,1,320
469,294,96423,2,0,P|336:194|192:221,3,320
96,217,97723,2,0,P|157:94|204:88,1,160
281,336,98023,2,0,P|410:254|382:181,1,240
400,160,98423,1,0,0:0:0:0:
413,101,98523,1,0,0:0:0:0:
427,57,98623,1,0,0:0:0:0:
427,57,98723,1,0,0:0:0:0:
427,57,98823,1,0,0:0:0:0:
427,57,98923,1,0,0:0:0:0:
322,68,99023,2,0,B|215:84|345:154|176:136,1,160
78,255,99423,1,0,0:0:0:0:
97,307,99523,1,0,0:0:0:0:
139,338,99623,1,0,0:0:0:0:
195,342,99723,1,0,0:0:0:0:
257,323,99823,1,0,0:0:0:0:
328,286,99923,1,0,0:0:0:0:
394,206,100023,1,0,0:0:0:0:
398,41,100423,1,0,0:0:0:0:
398,41,100623,1,0,0:0:0:0:
167,98,100823,2,0,P|52:154|43:188,1,160
300,331,101223,2,0,L|244:192,2,120
90,207,101723,1,0,0:0:0:0:
215,107,101923,2,0,P|384:89|445:113,1,240
121,289,102423,1,0,0:0:0:0:
102,132,102623,1,0,0:0:0:0:
233,23,102823,1,0,0:0:0:0:
437,236,103023,1,0,0:0:0:0:
173,354,103223,1,0,0:0:0:0:
15,125,103423,1,0,0:0:0:0:
15,125,103623,1,0,0:0:0:0:
256,192,103823,1,0,0:0:0:0:
256,192,104023,1,0,0:0:0:0:
256,192,104223,12,0,107123,0:0:0:0:
241,180,107123,6,0,B|294:167|294:167|235:322|228:325|287:378|409:264|309:318|320:243,1,320
82,288,107923,2,0,B|105:338|146:247|73:-5|40:188|8:308|150:121|-171:89|152:65|111:66|79:91,1,320
175,264,108623,2,0,P|298:226|466:0,2,400
167,68,110023,1,0,0:0:0:0:
150,112,110123,1,0,0:0:0:0:
136,152,110223,1,0,0:0:0:0:
116,199,110323,1,0,0:0:0:0:
82,318,110523,2,0,P|197:377|241:355,1,160
321,288,110923,1,0,0:0:0:0:
400,221,111123,2,0,P|365:124|159:94,1,320
46,115,111723,1,0,0:0:0:0:
-21,207,111923,2,0,P|233:366|308:344,1,400
400,266,112623,1,0,0:0:0:0:
395,163,112823,2,0,P|217:199|130:192,1,240
103,300,113323,2,0,P|253:364|338:342,1,240
197,208,114023,1,0,0:0:0:0:
197,208,114223,1,0,0:0:0:0:
197,208,114423,1,0,0:0:0:0:
197,208,114823,1,0,0:0:0:0:
197,208,115023,1,0,0:0:0:0:
197,208,115223,1,0,0:0:0:0:
255,191,115523,1,0,0:0:0:0:
255,191,116023,2,0,B|321:165|247:137|244:198|240:262|278:266|369:273|422:193|412:107|352:68|231:49|135:57|38:125|81:240|147:306|207:348|323:361|376:339|434:279|429:201|377:144|285:90|195:145,1,880
62,231,117323,1,0,0:0:0:0:
115,264,117423,2,0,P|248:311|295:302,1,160
359,190,117823,1,0,0:0:0:0:
383,137,117923,1,0,0:0:0:0:
407,82,118023,1,0,0:0:0:0:
512,126,118223,2,0,P|416:279|424:334,1,240
118,96,118823,1,0,0:0:0:0:
253,338,119323,1,0,0:0:0:0:
438,91,119823,1,0,0:0:0:0:
