osu file format v14

[General]
AudioFilename: audio.mp3
AudioLeadIn: 0
PreviewTime: 57102
Countdown: 1
SampleSet: Normal
StackLeniency: 0.7
Mode: 0
LetterboxInBreaks: 0
WidescreenStoryboard: 1

[Editor]
Bookmarks: 1808,11366,18278,30043,39455,49160,58278,67690,74749,84160
DistanceSpacing: 3.4
BeatDivisor: 4
GridSize: 4
TimelineZoom: 1

[Metadata]
Title:Sora ni Utaeba (TV Size)
TitleUnicode:空に歌えば
Artist:Amazarashi
ArtistUnicode:Amazarashi
Creator:YelloJello
Version:Full Cowl
Source:Boku no Hero Academia Season 2
Tags:Boku no Hero Academia OP 3 Amazarashi
BeatmapID:1352242
BeatmapSetID:637400

[Difficulty]
HPDrainRate:8
CircleSize:4
OverallDifficulty:7
ApproachRate:9.3
SliderMultiplier:2.1
SliderTickRate:1

[Events]
//Background and Video events
0,0,"Sora ni Utaeba Wallpaper.jpg",0,0
Video,0,"「Boku no Hero Academia 2nd Season Opening 2」Sora ni Utaeba amazarashi ᴴᴰ.mp4"
//Break Periods
//Storyboard Layer 0 (Background)
//Storyboard Layer 1 (Fail)
//Storyboard Layer 2 (Pass)
//Storyboard Layer 3 (Foreground)
//Storyboard Sound Samples

[TimingPoints]
1808,294.117647058824,4,1,0,100,1,0
6513,-100,4,1,0,100,0,0
18278,-100,4,1,0,100,0,1
20631,-133.333333333333,4,1,0,100,0,1
21219,-100,4,1,0,100,0,1
30043,-133.333333333333,4,1,0,100,0,0
39464,-111.111111111111,4,1,0,50,0,0
39749,-111.111111111111,4,1,0,100,0,0
42984,-111.111111111111,4,1,0,50,0,0
43572,-111.111111111111,4,1,0,100,0,0
50043,-100,4,1,0,100,0,0
58278,-66.6666666666667,4,1,0,100,0,1
70337,-133.333333333333,4,1,0,100,0,1
72396,-133.333333333333,4,1,0,100,0,0
74749,-100,4,1,0,100,0,0

[Colours]
Combo1 : 255,91,255
Combo2 : 0,128,0
Combo3 : 255,0,0
Combo4 : 0,0,255
Combo5 : 157,157,157

[HitObjects]
108,56,1808,6,0,P|172:96|166:248,1,210,4|0,0:2|0:0,0:0:0:0:
111,321,2249,1,0,0:0:0:0:
266,272,2396,2,0,L|371:233,1,105
492,184,2837,1,0,0:0:0:0:
268,196,2984,1,0,0:0:0:0:
416,88,3131,5,4,0:2:0:0:
416,88,3278,2,0,P|364:96|312:84,1,105
204,32,3572,2,0,L|139:122,1,105
67,94,3866,2,0,P|77:161|108:192,1,105
280,336,4160,6,0,P|332:293|320:142,1,210,4|0,0:2|0:0,0:0:0:0:
206,144,4602,1,0,0:0:0:0:
206,144,4749,2,0,L|287:250,1,105
384,351,5043,1,0,0:0:0:0:
384,351,5190,1,0,0:0:0:0:
277,97,5337,1,0,0:0:0:0:
312,284,5484,1,4,0:2:0:0:
206,144,5631,6,0,P|165:105|106:95,1,105
130,174,5925,2,0,P|69:185|39:226,1,105
113,246,6219,2,0,P|98:292|122:345,1,105
232,372,6513,2,0,L|256:256,1,105,4|0,1:2|0:0,0:0:0:0:
280,80,6808,1,0,0:0:0:0:
372,334,6955,1,0,0:0:0:0:
159,73,7102,1,8,0:0:0:0:
253,269,7249,1,0,0:0:0:0:
168,68,7396,5,8,0:0:0:0:
388,208,7543,1,8,0:0:0:0:
233,20,7690,1,8,0:0:0:0:
336,272,7837,1,8,0:0:0:0:
312,40,7984,1,8,0:0:0:0:
253,269,8131,1,8,0:0:0:0:
380,104,8278,1,8,0:0:0:0:
140,240,8425,1,8,0:0:0:0:
140,240,8499,1,8,0:0:0:0:
140,240,8572,6,0,P|140:186|177:137,1,105,8|0,0:0|0:0,0:0:0:0:
180,24,8866,2,0,P|224:32|282:81,1,105
392,200,9160,1,0,0:0:0:0:
392,200,9308,1,0,0:0:0:0:
160,297,9455,1,0,0:0:0:0:
344,77,9602,1,0,0:0:0:0:
267,331,9749,2,0,P|275:272|259:213,1,105
192,54,10043,5,0,0:0:0:0:
192,54,10116,1,0,0:0:0:0:
192,54,10190,1,0,0:0:0:0:
265,228,10337,1,0,0:0:0:0:
81,98,10484,1,0,0:0:0:0:
109,308,10631,1,8,0:0:0:0:
213,134,10778,1,8,0:0:0:0:
12,228,10925,1,8,0:0:0:0:
213,134,11072,1,8,0:0:0:0:
8,224,11219,1,8,0:0:0:0:
192,54,11366,5,0,0:0:0:0:
277,80,11513,2,0,P|303:130|281:192,1,105
213,134,11808,2,0,P|199:179|232:243,1,105
290,182,12102,2,0,P|309:239|279:290,1,105
221,233,12396,2,0,P|201:165|223:120,1,105
290,182,12690,2,0,P|298:112|270:70,1,105
213,133,12984,2,0,P|194:80|219:22,1,105
290,88,13278,1,0,0:0:0:0:
290,88,13352,1,0,0:0:0:0:
290,88,13425,1,0,0:0:0:0:
408,77,13572,6,0,P|382:151|350:175,1,105
160,240,13866,1,0,0:0:0:0:
160,240,14013,1,0,0:0:0:0:
364,168,14160,2,0,P|397:231|389:275,1,105
440,209,14455,2,0,L|316:229,1,105
304,312,14749,6,0,P|248:260|312:148,1,210
444,104,15190,1,0,0:0:0:0:
444,104,15337,2,0,L|388:192,1,105
452,236,15631,2,0,P|384:272|340:260,1,105
256,224,15925,38,0,L|208:320,1,105
244,132,16219,1,8,0:0:0:0:
32,220,16366,1,8,0:0:0:0:
96,32,16513,2,8,P|144:80|144:124,1,105
113,270,16808,2,8,P|65:262|29:210,1,105
157,124,17102,1,8,0:0:0:0:
157,124,17175,1,8,0:0:0:0:
157,124,17249,1,8,0:0:0:0:
404,12,17396,53,12,0:2:0:0:
248,192,17543,53,8,0:0:0:0:
179,28,18278,6,0,P|192:80|168:136,1,105,4|0,0:2|0:0,0:0:0:0:
176,268,18572,2,0,L|256:168,1,105
372,28,18866,1,0,0:0:0:0:
392,272,19013,1,0,0:0:0:0:
285,130,19160,1,0,0:0:0:0:
285,130,19308,1,0,0:0:0:0:
208,224,19455,6,0,P|167:249|108:232,1,105,8|0,0:0|0:0,0:0:0:0:
285,130,19749,2,0,L|364:209,1,105
410,96,20043,1,0,0:0:0:0:
116,236,20190,1,0,0:0:0:0:
400,304,20337,1,0,0:0:0:0:
296,152,20484,1,0,0:0:0:0:
264,148,20558,1,0,0:0:0:0:
232,164,20631,6,0,B|204:200|204:200|224:260|172:308,1,157.500006008148,4|0,0:2|0:0,0:0:0:0:
108,216,21072,1,0,0:0:0:0:
108,216,21219,2,0,B|92:165|92:165|104:108,1,105
292,45,21513,1,0,0:0:0:0:
304,176,21660,1,0,0:3:0:0:
164,108,21808,5,0,0:3:0:0:
292,45,21955,1,0,0:0:0:0:
304,176,22102,1,0,0:0:0:0:
164,108,22249,1,0,0:0:0:0:
292,45,22396,5,0,0:0:0:0:
408,104,22543,1,0,0:0:0:0:
304,176,22690,1,0,0:0:0:0:
440,0,22837,1,0,0:0:0:0:
440,0,22984,6,0,P|488:68|455:198,1,210,4|0,0:2|0:0,0:0:0:0:
224,64,23425,1,0,0:0:0:0:
408,104,23572,2,0,L|316:168,1,105
296,176,23793,1,0,0:0:0:0:
272,196,23866,1,0,0:0:0:0:
180,248,24013,1,0,0:0:0:0:
312,72,24160,5,0,0:0:0:0:
160,72,24308,1,0,0:0:0:0:
160,72,24381,1,0,0:0:0:0:
160,72,24455,1,0,0:0:0:0:
360,220,24602,1,0,0:0:0:0:
260,16,24749,1,0,0:0:0:0:
128,232,24896,1,0,0:0:0:0:
160,260,24969,1,0,0:0:0:0:
200,256,25043,1,0,0:0:0:0:
336,132,25190,1,0,0:0:0:0:
461,134,25337,6,0,P|447:197|405:236,1,105,4|0,0:2|0:0,0:0:0:0:
216,328,25631,2,0,L|332:355,1,105
415,338,25925,2,0,P|391:292|402:232,1,105
492,200,26219,2,0,P|456:153|400:136,1,105
224,168,26513,5,0,0:0:0:0:
408,20,26660,1,0,0:0:0:0:
84,124,26808,1,0,0:0:0:0:
204,40,26955,1,0,0:0:0:0:
295,78,27102,1,0,0:0:0:0:
336,108,27175,1,0,0:0:0:0:
350,157,27249,1,0,0:0:0:0:
330,204,27322,1,0,0:0:0:0:
285,229,27396,1,0,0:0:0:0:
180,254,27543,1,0,0:0:0:0:
120,304,27690,6,0,P|104:245|226:190,1,210,4|0,0:2|0:0,0:0:0:0:
401,269,28131,1,0,0:0:0:0:
250,79,28425,1,0,0:0:0:0:
430,162,28719,1,0,0:0:0:0:
192,255,29013,1,0,0:0:0:0:
302,38,29160,1,0,0:0:0:0:
335,208,29308,1,0,0:0:0:0:
105,48,29455,1,0,0:0:0:0:
393,98,29602,5,8,0:0:0:0:
48,277,29749,5,8,0:0:0:0:
301,146,30043,6,0,P|265:209|398:173,1,315
336,208,30778,2,0,L|241:345,1,157.500006008148
143,370,31219,2,0,P|173:310|14:313,1,315.000012016297
93,308,31955,1,0,0:0:0:0:
93,94,32102,1,0,0:0:0:0:
184,283,32249,1,0,0:0:0:0:
203,114,32396,6,0,P|240:80|280:72,1,78.7500030040742
284,156,32690,2,0,L|216:224,1,78.7500030040742
116,312,32984,1,0,0:0:0:0:
348,284,33131,1,0,0:0:0:0:
184,283,33278,2,0,P|220:315|272:319,1,78.7500030040742
352,288,33572,6,0,P|330:199|266:144,1,157.500006008148
264,248,34013,1,0,0:0:0:0:
168,160,34160,2,0,P|188:84|268:44,1,157.500006008148
342,56,34602,1,0,0:0:0:0:
168,160,34749,1,0,0:0:0:0:
276,228,34896,1,0,0:0:0:0:
276,228,35043,2,0,P|357:213|404:148,1,157.500006008148
423,64,35484,1,0,0:0:0:0:
474,186,35631,1,0,0:0:0:0:
320,152,35778,1,0,0:0:0:0:
260,8,35925,6,0,P|201:37|186:76,1,78.7500030040742
268,88,36219,1,0,0:0:0:0:
268,88,36366,2,0,P|213:129|126:86,1,157.500006008148
76,30,36808,1,0,0:0:0:0:
268,88,36955,1,0,0:0:0:0:
51,152,37102,5,0,0:0:0:0:
51,152,37249,2,0,P|71:191|183:203,1,157.500006008148
261,165,37690,1,0,0:0:0:0:
107,44,37837,1,0,0:0:0:0:
203,274,37984,1,0,0:0:0:0:
330,55,38131,1,8,0:0:0:0:
328,280,38278,5,8,0:0:0:0:
204,59,38425,1,8,0:0:0:0:
204,59,38499,1,8,0:0:0:0:
204,59,38572,1,8,0:0:0:0:
248,271,38719,1,8,0:0:0:0:
142,104,38866,1,8,0:0:0:0:
190,346,39013,1,8,0:0:0:0:
86,171,39160,1,8,0:0:0:0:
352,203,39308,1,8,0:0:0:0:
352,203,39455,5,4,0:2:0:0:
352,203,39749,2,0,P|306:203|262:174,1,94.499997116089
323,135,40043,2,0,L|300:246,1,94.499997116089
273,361,40337,1,0,0:0:0:0:
176,104,40484,1,0,0:0:0:0:
176,104,40558,1,0,0:0:0:0:
176,104,40631,6,0,P|181:167|70:224,1,188.999994232178
103,146,41072,1,0,0:0:0:0:
103,146,41219,2,0,L|186:218,1,94.499997116089
163,287,41513,2,0,P|228:266|249:220,1,94.499997116089
316,270,41808,6,0,P|315:216|281:175,1,94.499997116089
372,210,42102,2,0,B|350:223|323:216|323:216|292:209|261:235,1,94.499997116089
217,253,42396,2,0,B|204:231|211:204|211:204|218:173|192:142,1,94.499997116089
113,0,42690,1,0,0:0:0:0:
205,161,42837,1,0,0:0:0:0:
164,84,42984,6,0,P|124:130|255:247,1,283.499991348267,4|0,0:2|0:0,0:0:0:0:
448,147,43572,1,0,0:0:0:0:
250,235,43719,1,0,0:0:0:0:
380,296,43866,2,0,P|360:320|332:336,1,47.2499985580445
236,348,44013,1,0,0:0:0:0:
286,158,44160,6,0,P|219:160|168:261,1,188.999994232178
253,242,44602,1,0,0:0:0:0:
253,242,44749,2,0,L|168:157,1,94.499997116089
88,66,45043,2,0,P|70:136|82:171,1,94.499997116089
141,120,45337,6,0,P|161:56|146:18,1,94.499997116089
89,66,45631,2,0,L|197:90,1,94.499997116089
240,32,45925,1,0,0:0:0:0:
240,32,46072,2,0,B|269:93|239:130|239:130|306:204,1,188.999994232178
350,144,46513,2,0,P|368:210|342:250,1,94.499997116089
296,193,46808,2,0,L|198:263,1,94.499997116089
97,280,47102,2,0,L|186:334,1,94.499997116089
139,197,47396,2,0,L|230:254,1,94.499997116089
312,280,47690,5,8,0:0:0:0:
402,125,47837,1,8,0:0:0:0:
247,36,47984,1,8,0:0:0:0:
158,190,48131,1,8,0:0:0:0:
310,172,48278,5,8,0:0:0:0:
274,147,48352,1,8,0:0:0:0:
259,106,48425,1,8,0:0:0:0:
268,61,48499,1,8,0:0:0:0:
302,31,48572,1,8,0:0:0:0:
343,51,48646,1,8,0:0:0:0:
356,94,48719,1,8,0:0:0:0:
341,126,48793,1,8,0:0:0:0:
297,132,48866,1,8,0:0:0:0:
121,95,49013,1,0,0:0:0:0:
210,276,49160,5,4,0:2:0:0:
297,132,49308,1,0,0:0:0:0:
149,34,49455,1,0,0:0:0:0:
113,146,49602,1,0,0:0:0:0:
297,132,49749,1,0,0:0:0:0:
360,308,49896,1,0,0:0:0:0:
281,242,50043,6,0,P|337:230|378:185,1,105
512,64,50337,1,0,0:0:0:0:
448,127,50484,1,0,0:0:0:0:
448,127,50631,2,0,L|365:205,1,105
267,286,50925,1,0,0:0:0:0:
369,55,51072,1,0,0:0:0:0:
339,293,51219,6,0,P|307:349|254:366,1,105,8|8,0:1|0:0,0:0:0:0:
198,302,51513,2,0,P|233:354|292:361,1,105,8|8,0:0|0:0,0:0:0:0:
267,286,51808,2,0,L|265:168,1,105
238,41,52102,2,0,L|174:153,1,105
94,287,52396,5,0,0:0:0:0:
85,46,52543,1,0,0:0:0:0:
183,190,52690,2,0,P|244:185|285:139,1,105
307,57,52984,1,0,0:0:0:0:
307,57,53058,1,0,0:0:0:0:
307,57,53131,1,0,0:0:0:0:
419,59,53278,2,0,L|439:114,1,52.5
420,226,53425,2,0,L|377:194,1,52.5
205,40,53572,5,8,0:0:0:0:
10,221,53719,1,8,0:0:0:0:
211,116,53866,1,8,0:0:0:0:
135,340,54013,1,8,0:0:0:0:
271,156,54160,1,8,0:0:0:0:
252,384,54308,1,8,0:0:0:0:
346,182,54455,1,8,0:0:0:0:
364,384,54602,1,8,0:0:0:0:
428,148,54749,5,8,0:0:0:0:
428,148,54822,1,8,0:0:0:0:
428,148,54896,1,8,0:0:0:0:
67,233,55043,1,8,0:0:0:0:
210,81,55190,1,8,0:0:0:0:
186,366,55337,1,8,0:0:0:0:
58,121,55484,1,8,0:0:0:0:
329,296,55631,1,8,0:0:0:0:
110,317,55778,1,8,0:0:0:0:
140,196,55925,5,8,0:0:0:0:
162,142,55999,1,8,0:0:0:0:
213,122,56072,1,8,0:0:0:0:
255,84,56146,1,8,0:0:0:0:
259,33,56219,1,8,0:0:0:0:
203,12,56293,1,8,0:0:0:0:
163,53,56366,1,8,0:0:0:0:
175,112,56440,1,8,0:0:0:0:
218,153,56513,1,8,0:0:0:0:
388,271,56660,1,8,0:0:0:0:
259,33,56808,1,8,0:0:0:0:
420,90,56955,1,8,0:0:0:0:
136,192,57102,5,8,0:0:0:0:
308,176,57249,1,0,0:0:0:0:
175,112,57396,1,0,0:0:0:0:
273,288,57543,1,0,0:0:0:0:
298,84,57690,2,0,P|253:124|230:166,1,105
308,176,57984,2,0,P|364:221|381:269,1,105
405,346,58278,5,4,0:2:0:0:
131,87,58425,1,0,0:0:0:0:
395,131,58572,2,0,P|393:199|330:262,1,157.500006008148
226,310,58866,1,0,0:0:0:0:
178,301,58940,1,0,0:0:0:0:
145,270,59013,1,0,0:0:0:0:
161,85,59160,2,0,L|206:241,1,157.500006008148
226,211,59381,1,0,0:0:0:0:
250,180,59455,5,0,0:0:0:0:
416,228,59602,1,4,0:2:0:0:
416,228,59749,2,0,P|429:166|374:88,1,157.500006008148
158,23,60043,2,0,L|89:174,1,157.500006008148
36,285,60337,1,0,0:0:0:0:
210,97,60484,1,0,0:0:0:0:
210,97,60558,1,0,0:0:0:0:
210,97,60631,1,4,0:2:0:0:
36,285,60778,5,0,0:0:0:0:
291,71,60925,2,0,P|257:31|139:33,1,157.500006008148
344,296,61219,2,0,L|251:168,1,157.500006008148
164,28,61513,1,0,0:0:0:0:
164,28,61587,1,0,0:0:0:0:
164,28,61660,1,0,0:0:0:0:
394,231,61808,5,0,0:0:0:0:
224,176,61955,1,0,0:0:0:0:
224,181,62102,2,0,P|134:195|61:155,1,157.500006008148,0|0,0:0|0:0,0:0:0:0:
179,90,62396,2,0,P|248:32|319:36,1,157.500006008148,0|0,0:0|0:0,0:0:0:0:
277,127,62690,2,0,P|306:216|274:284,1,157.500006008148,0|0,0:0|0:0,0:0:0:0:
172,339,62984,6,0,P|188:242|152:181,1,157.500006008148,4|0,0:2|0:0,0:0:0:0:
0,72,63278,1,0,0:0:0:0:
112,276,63425,1,0,0:0:0:0:
145,47,63572,1,0,0:0:0:0:
244,268,63719,1,0,0:0:0:0:
284,26,63866,1,0,0:0:0:0:
371,254,64013,1,0,0:0:0:0:
432,24,64160,5,0,0:0:0:0:
432,24,64234,1,0,0:0:0:0:
432,24,64308,1,0,0:0:0:0:
443,208,64455,2,0,P|353:175|291:222,1,157.500006008148
370,331,64749,2,0,L|372:152,1,157.500006008148
316,32,65043,1,0,0:0:0:0:
280,45,65116,1,0,0:0:0:0:
252,75,65190,1,0,0:0:0:0:
416,104,65337,6,0,P|329:113|287:176,1,157.500006008148,4|0,0:2|0:0,0:0:0:0:
364,177,65631,2,0,L|272:33,1,157.500006008148
160,124,65925,1,0,0:0:0:0:
224,232,66072,1,0,0:0:0:0:
199,267,66146,1,0,0:0:0:0:
163,278,66219,1,0,0:0:0:0:
84,92,66366,1,0,0:0:0:0:
343,206,66513,5,0,0:0:0:0:
170,96,66660,1,0,0:0:0:0:
432,194,66808,1,0,0:0:0:0:
166,178,66955,1,0,0:0:0:0:
489,140,67102,1,0,0:0:0:0:
286,267,67249,1,0,0:0:0:0:
286,267,67322,1,0,0:0:0:0:
286,267,67396,1,0,0:0:0:0:
271,50,67543,1,8,0:0:0:0:
84,196,67690,5,8,0:0:0:0:
354,44,67837,1,8,0:0:0:0:
130,260,67984,1,8,0:0:0:0:
276,24,68131,1,8,0:0:0:0:
206,289,68278,1,8,0:0:0:0:
198,25,68425,1,8,0:0:0:0:
289,287,68572,1,8,0:0:0:0:
124,48,68719,1,8,0:0:0:0:
361,246,68866,1,8,0:0:0:0:
84,111,69013,1,8,0:0:0:0:
361,246,69160,5,8,0:0:0:0:
196,24,69308,1,8,0:0:0:0:
289,287,69455,1,8,0:0:0:0:
276,24,69602,1,8,0:0:0:0:
206,289,69749,1,8,0:0:0:0:
354,44,69896,1,8,0:0:0:0:
130,260,70043,5,8,0:0:0:0:
130,260,70116,1,8,0:0:0:0:
130,260,70190,1,8,0:0:0:0:
321,156,70337,2,8,L|262:105,1,78.7500030040742
152,130,70631,2,8,L|216:184,1,78.7500030040742
293,228,70925,2,8,P|315:187|320:140,1,78.7500030040742
195,51,71219,6,8,P|120:50|74:161,1,157.500006008148
140,232,71660,1,8,0:0:0:0:
293,228,71808,2,8,P|268:192|261:124,1,78.7500030040742
252,36,72102,1,8,0:0:0:0:
252,36,72175,1,8,0:0:0:0:
252,36,72249,1,8,0:0:0:0:
156,186,72396,5,0,0:0:0:0:
58,78,72543,1,4,0:2:0:0:
21,268,72690,1,0,0:0:0:0:
156,186,72837,1,0,0:0:0:0:
188,300,72984,2,0,P|213:346|212:387,1,78.7500030040742
116,272,73278,2,0,P|88:230|89:195,1,78.7500030040742
100,37,73572,5,0,0:0:0:0:
243,256,73719,1,0,0:0:0:0:
127,165,73866,1,0,0:0:0:0:
374,204,74013,2,0,P|367:132|295:73,1,157.500006008148
160,56,74455,1,0,0:0:0:0:
291,183,74602,1,0,0:0:0:0:
112,165,74749,54,0,P|108:225|147:283,1,118.125004506111,4|0,0:2|0:0,0:0:0:0:
116,348,75043,2,0,P|184:334|212:296,1,105
264,124,75337,1,0,0:0:0:0:
127,264,75484,1,0,0:0:0:0:
73,74,75631,2,0,P|139:46|179:66,1,105
346,70,75925,2,0,P|355:140|330:185,1,105
219,276,76219,1,0,0:0:0:0:
264,124,76366,2,0,L|276:176,1,52.5
314,304,76513,1,0,0:0:0:0:
76,176,76660,1,0,0:0:0:0:
368,169,76808,6,0,P|344:104|348:55,1,105
440,4,77102,1,0,0:0:0:0:
368,169,77249,1,0,0:0:0:0:
368,169,77396,2,0,P|303:198|237:193,1,105,0|0,0:0|0:0,0:3:0:0:
408,108,77690,2,0,P|341:96|304:126,1,105
112,322,77984,1,0,0:0:0:0:
206,114,78131,1,0,0:0:0:0:
26,210,78278,5,0,0:0:0:0:
234,275,78425,1,0,0:0:0:0:
95,114,78572,1,0,0:0:0:0:
379,176,78719,1,0,0:0:0:0:
224,32,78866,1,0,0:0:0:0:
205,75,78940,1,0,0:0:0:0:
215,118,79013,1,0,0:0:0:0:
284,84,79160,2,0,P|292:140|243:182,1,105
291,240,79455,6,0,P|212:228|222:112,1,210,12|8,0:2|0:0,0:0:0:0:
453,0,79896,1,8,0:0:0:0:
253,189,80043,1,8,0:0:0:0:
396,57,80190,1,8,0:0:0:0:
351,299,80337,1,8,0:0:0:0:
331,120,80484,1,8,0:0:0:0:
487,265,80631,5,8,0:0:0:0:
253,189,80778,1,8,0:0:0:0:
512,152,80925,1,8,0:0:0:0:
169,262,81072,1,8,0:0:0:0:
169,262,81146,1,8,0:0:0:0:
169,262,81219,1,8,0:0:0:0:
215,39,81366,1,8,0:0:0:0:
288,269,81513,2,0,P|333:221|338:165,1,105,8|8,0:0|0:0,0:0:0:0:
261,194,81808,6,8,L|160:114,1,105,8|8,0:0|0:0,0:0:0:0:
227,267,82102,2,8,P|297:263|333:224,1,105
226,94,82396,2,8,L|268:213,1,105
201,174,82690,2,8,P|255:173|304:129,1,105
340,15,82984,5,8,0:0:0:0:
300,299,83131,1,8,0:0:0:0:
164,28,83278,1,8,0:0:0:0:
300,299,83425,1,8,0:0:0:0:
51,140,83572,1,8,0:0:0:0:
302,293,83719,1,8,0:0:0:0:
52,280,83866,1,8,0:0:0:0:
302,293,84013,1,8,0:0:0:0:
302,293,84160,5,0,0:0:0:0:
300,299,84234,1,0,0:0:0:0:
300,299,84308,2,0,P|342:241|326:180,1,105
274,65,84602,1,0,0:0:0:0:
142,183,84749,2,0,L|245:219,1,105
287,152,85043,2,0,P|312:210|306:259,1,105
241,217,85337,2,0,P|219:219|162:276,1,105
153,352,85631,53,0,0:0:0:0:
89,82,85778,1,0,0:0:0:0:
294,235,85925,1,0,0:0:0:0:
22,342,86072,1,0,0:0:0:0:
227,150,86219,2,0,P|150:139|118:168,1,105
180,208,86513,6,0,P|231:249|366:193,1,210
412,97,86955,1,0,0:0:0:0:
146,70,87249,1,0,0:0:0:0:
330,214,87396,1,0,0:0:0:0:
253,21,87543,21,0,0:0:0:0:
206,322,87690,53,4,0:2:0:0:
