osu file format v14

[General]
AudioFilename: audio.mp3
AudioLeadIn: 0
PreviewTime: -1
Countdown: 0
SampleSet: Normal
StackLeniency: 0.2
Mode: 0
LetterboxInBreaks: 0
WidescreenStoryboard: 0

[Editor]
DistanceSpacing: 2.2
BeatDivisor: 2
GridSize: 16
TimelineZoom: 0.9

[Metadata]
Title:Sora ni Utaeba
TitleUnicode:Sora ni Utaeba
Artist:Amazarashi
ArtistUnicode:Amazarashi
Creator:Azure Desu
Version:Bakugo vs. Midoriya
Source:
Tags:
BeatmapID:1467945
BeatmapSetID:693779

[Difficulty]
HPDrainRate:6
CircleSize:4
OverallDifficulty:8.3
ApproachRate:9.4
SliderMultiplier:1.8
SliderTickRate:1

[Events]
//Background and Video events
0,0,"midoriya-izuku-bakugou-katsuki-boku-no-hero-academia-fight-anime-14659.jpg",0,0
//Break Periods
//Storyboard Layer 0 (Background)
//Storyboard Layer 1 (Fail)
//Storyboard Layer 2 (Pass)
//Storyboard Layer 3 (Foreground)
//Storyboard Sound Samples

[TimingPoints]
0,294.117647058824,4,1,0,100,1,0
100,-200,4,2,1,20,0,0
1176,-200,4,1,1,40,0,0
6911,-200,4,2,1,60,0,0
7011,-200,4,2,1,40,0,0
11029,-200,4,2,1,70,0,1
15588,-100,4,2,1,70,0,1
15735,-100,4,1,1,70,0,1
17941,-66.6666666666667,4,1,1,70,0,1
27352,-133.333333333333,4,2,1,40,0,0
29264,-66.6666666666667,4,2,1,40,0,0
29705,-100,4,3,1,30,0,0
39705,-100,4,1,1,45,0,0
57941,-66.6666666666667,4,1,1,70,0,0

[Colours]
Combo1 : 0,79,4
Combo2 : 0,202,0
Combo3 : 21,38,251
Combo4 : 242,24,57

[HitObjects]
192,32,294,6,4,P|128:64|128:64,1,45,0|0,0:0|0:0,0:0:0:0:
96,128,735,1,2,0:0:0:0:
96,128,1029,2,12,P|110:198|149:248,1,135,0|6,0:0|0:0,0:0:0:0:
224,160,1911,1,0,0:0:0:0:
448,160,2500,5,0,0:0:0:0:
448,160,2794,1,2,0:0:0:0:
448,160,3088,1,0,0:0:0:0:
448,160,3382,2,0,P|433:89|394:39,1,135,2|2,0:0|0:0,0:0:0:0:
224,128,4264,1,4,0:0:0:0:
224,128,4558,1,0,0:0:0:0:
464,272,4852,5,0,0:0:0:0:
464,272,5000,1,2,0:0:0:0:
464,272,5147,1,0,0:0:0:0:
384,320,5441,1,0,0:0:0:0:
384,320,5735,1,2,0:0:0:0:
384,320,6029,5,0,0:0:0:0:
384,320,6176,2,0,P|448:256|448:192,1,135,2|2,0:0|0:0,0:0:0:0:
320,96,6911,1,4,0:0:0:0:
160,64,7205,1,0,0:0:0:0:
48,160,7500,2,2,B|32:215|79:270,1,90,2|2,0:0|0:0,2:0:0:0:
192,352,8088,5,4,0:0:0:0:
448,208,8382,1,8,0:0:0:0:
448,208,8529,2,2,B|480:176|448:144|448:112|480:80,1,135,2|10,0:0|0:0,0:0:0:0:
224,64,9264,1,0,0:0:0:0:
160,288,9558,1,0,0:0:0:0:
352,256,9852,6,0,L|384:160,1,90
224,224,10294,1,0,0:0:0:0:
224,224,10441,1,0,0:0:0:0:
240,96,10735,1,0,0:0:0:0:
432,96,11029,5,8,0:0:0:0:
512,160,11176,1,8,0:0:0:0:
512,160,11323,2,2,P|448:224|416:224,1,90
304,256,11764,5,0,0:0:0:0:
160,256,11911,1,0,0:0:0:0:
95,134,12206,1,0,0:0:0:0:
95,110,12279,1,0,0:0:0:0:
95,86,12353,1,0,0:0:0:0:
95,61,12426,1,0,0:0:0:0:
96,32,12500,6,10,B|128:32|205:56|192:96,1,90
224,160,12941,1,0,0:0:0:0:
144,256,13088,1,0,0:0:0:0:
448,96,13382,1,8,0:0:0:0:
448,320,13676,5,0,0:0:0:0:
432,208,13823,2,0,L|368:256,1,45
176,16,14264,1,0,0:0:0:0:
176,16,14411,6,10,B|112:48|112:112|144:144,1,135
320,240,15000,1,0,0:0:0:0:
96,288,15147,1,0,0:0:0:0:
288,352,15294,1,0,0:0:0:0:
176,208,15441,1,0,0:0:0:0:
352,384,15588,6,2,L|333:333,1,45,2|10,0:0|0:0,0:0:0:0:
96,256,15882,1,0,0:0:0:0:
288,32,16029,1,0,0:0:0:0:
448,256,16176,5,0,0:0:0:0:
128,96,16323,1,2,0:0:0:0:
128,96,16397,1,2,0:0:0:0:
128,96,16470,1,6,0:0:0:0:
416,128,16617,5,0,0:0:0:0:
224,288,16764,1,0,0:0:0:0:
256,32,16911,1,8,0:0:0:0:
416,288,17058,1,0,0:0:0:0:
96,160,17205,5,2,0:0:0:0:
96,160,17279,1,2,0:0:0:0:
96,160,17352,1,6,0:0:0:0:
256,32,17500,5,0,0:0:0:0:
128,288,17647,1,0,0:0:0:0:
384,240,17794,1,6,0:0:0:0:
240,32,17941,2,0,P|159:141|32:161,1,270.000010299683,14|0,0:0|0:0,0:0:0:0:
224,192,18382,5,8,0:0:0:0:
384,0,18529,1,0,0:0:0:0:
256,192,18676,1,8,0:0:0:0:
416,0,18823,1,0,0:0:0:0:
288,192,18970,1,8,0:0:0:0:
448,0,19117,1,0,0:0:0:0:
352,192,19264,5,8,0:0:0:0:
288,32,19411,1,0,0:0:0:0:
320,192,19558,1,8,0:0:0:0:
320,32,19705,1,0,0:0:0:0:
288,192,19852,1,8,0:0:0:0:
352,32,20000,1,0,0:0:0:0:
160,160,20147,5,0,0:0:0:0:
160,160,20294,2,0,P|280:269|340:418,1,270.000010299683,14|0,0:0|0:0,0:0:0:0:
416,288,20735,1,8,0:0:0:0:
480,128,20882,1,0,0:0:0:0:
352,256,21029,5,8,0:0:0:0:
256,0,21176,1,0,0:0:0:0:
160,256,21323,1,8,0:0:0:0:
384,96,21470,1,0,0:0:0:0:
128,96,21617,1,8,0:0:0:0:
352,256,21764,1,0,0:0:0:0:
256,0,21911,5,8,0:0:0:0:
160,256,22058,1,0,0:0:0:0:
384,96,22205,1,8,0:0:0:0:
128,96,22352,1,0,0:0:0:0:
480,128,22500,1,0,0:0:0:0:
480,128,22647,2,0,P|448:288|288:352,1,270.000010299683,14|0,0:0|0:0,0:0:0:0:
320,160,23088,5,8,0:0:0:0:
96,256,23235,1,0,0:0:0:0:
224,64,23382,1,8,0:0:0:0:
224,288,23529,1,0,0:0:0:0:
320,64,23676,1,8,0:0:0:0:
320,288,23823,5,0,0:0:0:0:
320,288,23897,1,0,0:0:0:0:
320,288,23970,1,8,0:0:0:0:
128,96,24117,5,0,0:0:0:0:
352,192,24264,1,8,0:0:0:0:
128,224,24411,1,0,0:0:0:0:
352,64,24558,1,8,0:0:0:0:
224,288,24705,5,0,0:0:0:0:
192,32,24852,1,8,0:0:0:0:
368,256,25000,2,0,P|266:95|276:-54,1,270.000010299683
192,288,25441,5,8,0:0:0:0:
192,288,25588,1,0,0:0:0:0:
192,288,25735,1,8,0:0:0:0:
192,288,25882,6,0,P|326:167|422:172,1,270.000010299683,0|8,0:0|0:0,0:0:0:0:
432,32,26323,1,8,0:0:0:0:
320,288,26470,1,0,0:0:0:0:
384,64,26617,5,8,0:0:0:0:
432,240,26764,1,0,0:0:0:0:
224,176,26911,1,8,0:0:0:0:
432,144,27058,5,0,0:0:0:0:
192,64,27205,2,0,P|256:96|288:160,1,135.000005149842,8|0,0:0|0:0,0:0:0:0:
160,304,27500,1,2,0:0:0:0:
160,304,27573,1,2,0:0:0:0:
160,304,27647,1,2,0:0:0:0:
256,320,27794,6,2,P|352:320|416:256,1,135.000005149842,0|2,0:0|0:0,0:0:0:0:
382,300,28162,1,2,0:0:0:0:
382,300,28235,1,2,0:0:0:0:
382,300,28309,1,2,0:0:0:0:
382,300,28382,1,2,0:0:0:0:
304,112,28676,5,2,0:0:0:0:
416,80,28823,2,0,L|400:160,1,67.5000025749208
192,192,29264,2,4,L|105:218,1,67.5000025749208
96,224,29411,1,0,0:0:0:0:
128,96,29705,6,0,P|256:32|384:32,1,270,6|0,0:0|0:0,0:0:0:0:
368,96,30441,2,0,L|256:128,1,90
208,192,30735,6,0,P|272:192|400:320,1,180,12|6,0:0|0:0,0:0:0:0:
416,304,31176,2,0,L|416:192,1,90
144,112,31617,5,0,0:0:0:0:
208,192,31764,1,0,0:0:0:0:
128,208,31911,2,0,P|82:185|14:208,1,90
352,176,32352,2,0,P|432:160|432:128,1,90
368,48,32647,1,0,0:0:0:0:
448,48,32794,2,0,P|480:144|464:240,1,180
416,320,33235,5,0,0:0:0:0:
416,320,33529,2,0,L|371:222,1,90
288,16,33897,5,6,0:0:0:0:
80,112,34264,1,0,0:0:0:0:
80,112,34411,2,0,B|128:208|80:304|144:400,1,270
416,176,35147,5,0,0:0:0:0:
240,176,35294,2,0,L|304:272,1,90
320,16,35588,1,0,0:0:0:0:
320,16,35735,5,0,0:0:0:0:
387,128,35882,2,0,L|420:17,1,90
304,272,36176,1,0,0:0:0:0:
304,272,36323,5,0,0:0:0:0:
435,274,36470,2,0,L|355:357,1,90
272,160,36764,1,0,0:0:0:0:
272,160,36911,5,0,2:0:0:0:
269,28,37058,2,0,L|185:107,1,90,0|0,2:0|2:0,2:0:0:0:
203,89,37352,1,0,0:0:0:0:
64,208,37500,1,0,0:0:0:0:
96,96,37647,1,0,0:0:0:0:
160,208,37794,6,0,L|208:304,1,90,0|2,0:0|0:0,0:0:0:0:
288,160,38088,6,0,L|336:48,1,90,0|2,0:0|0:0,0:0:0:0:
432,192,38382,6,0,L|464:320,1,90,0|10,2:0|2:0,2:0:0:0:
384,352,38676,1,0,0:0:0:0:
80,48,38823,1,4,0:0:0:0:
128,336,39117,6,0,P|240:288|272:240,1,180
272,160,39558,1,0,0:0:0:0:
256,32,39705,5,2,0:0:0:0:
256,32,39852,2,0,L|464:96,1,180,8|8,0:0|0:0,0:0:0:0:
80,128,40294,1,0,0:0:0:0:
384,176,40441,5,0,0:0:0:0:
192,48,40588,2,0,P|144:112|144:144,1,90
256,160,40882,2,0,P|247:239|264:267,1,90
480,160,41176,1,0,0:0:0:0:
192,384,41323,5,0,0:0:0:0:
128,208,41470,2,0,L|32:384,1,180,2|6,0:0|0:0,0:0:0:0:
272,272,41911,5,8,0:0:0:0:
144,128,42058,1,8,0:0:0:0:
320,128,42205,2,0,B|432:80|400:96,1,90
480,32,42500,1,0,0:0:0:0:
480,32,42573,1,0,0:0:0:0:
480,32,42647,2,0,B|468:176|358:236|384:320,1,270,8|0,0:0|0:0,0:0:0:0:
464,272,43235,5,8,0:0:0:0:
320,80,43382,1,0,0:0:0:0:
464,160,43529,1,0,0:0:0:0:
224,240,43676,1,8,0:0:0:0:
224,240,43823,2,0,P|96:256|16:192,1,180
112,32,44264,1,0,0:0:0:0:
352,32,44411,5,0,0:0:0:0:
224,192,44558,1,0,0:0:0:0:
224,192,44632,1,0,0:0:0:0:
224,192,44705,2,0,L|336:192,1,90
208,64,45000,5,8,0:0:0:0:
368,256,45147,2,0,L|464:192,1,90
320,32,45441,1,0,0:0:0:0:
320,32,45514,1,0,0:0:0:0:
320,32,45588,2,0,L|224:80,1,90
112,80,45882,5,8,0:0:0:0:
112,192,46029,2,0,L|208:144,1,90
32,304,46323,5,0,0:0:0:0:
192,304,46470,2,8,P|272:320|304:304,1,90
256,96,46764,1,0,0:0:0:0:
496,208,46911,5,0,0:0:0:0:
352,208,47058,2,8,P|320:128|336:96,1,90
464,64,47352,1,0,0:0:0:0:
208,160,47500,1,0,0:0:0:0:
400,288,47647,5,0,0:0:0:0:
144,320,47794,2,8,P|96:256|112:208,1,90
144,48,48088,1,0,0:0:0:0:
288,256,48235,1,0,0:0:0:0:
48,176,48382,1,0,0:0:0:0:
288,112,48529,1,0,0:0:0:0:
128,320,48676,5,0,0:0:0:0:
224,48,48823,2,10,P|320:144|304:128,1,90
288,112,49264,1,2,0:0:0:0:
288,112,49558,1,2,0:0:0:0:
288,112,49852,1,0,0:0:0:0:
432,80,50000,2,2,L|384:192,1,90,2|10,0:0|0:0,0:0:0:0:
400,160,50441,1,8,0:0:0:0:
48,288,50734,5,10,0:0:0:0:
61,292,50808,1,10,0:0:0:0:
69,282,50881,1,10,0:0:0:0:
68,269,50955,1,10,0:0:0:0:
55,263,51028,1,10,0:0:0:0:
45,273,51102,1,10,0:0:0:0:
192,192,51323,5,0,0:0:0:0:
224,256,51470,1,0,0:0:0:0:
48,272,51617,2,0,P|16:192|112:160,1,180
96,160,52058,1,0,0:0:0:0:
176,320,52205,2,8,L|320:320,1,90
464,144,52500,6,0,P|468:64|374:26,1,180
352,32,52867,1,2,0:0:0:0:
320,48,52940,1,2,0:0:0:0:
304,80,53014,1,2,0:0:0:0:
304,112,53087,1,2,0:0:0:0:
316,146,53088,2,0,L|412:210,1,90,0|10,0:0|0:0,0:0:0:0:
96,208,53382,5,0,0:0:0:0:
368,208,53529,1,2,0:0:0:0:
240,352,53676,1,0,0:0:0:0:
128,112,53823,1,8,0:0:0:0:
400,144,53970,1,0,0:0:0:0:
112,272,54117,1,2,0:0:0:0:
352,304,54264,1,0,0:0:0:0:
112,160,54411,5,8,0:0:0:0:
416,240,54558,1,8,0:0:0:0:
64,224,54705,1,8,0:0:0:0:
288,64,54852,1,8,0:0:0:0:
256,352,55000,1,8,0:0:0:0:
112,128,55147,1,8,0:0:0:0:
416,144,55294,1,8,0:0:0:0:
128,304,55441,5,0,0:0:0:0:
240,64,55588,1,0,0:0:0:0:
368,304,55735,1,10,0:0:0:0:
48,224,55882,1,10,0:0:0:0:
384,160,56029,5,0,0:0:0:0:
0,112,56176,1,0,0:0:0:0:
448,288,56323,1,0,0:0:0:0:
0,0,56470,1,0,0:0:0:0:
288,352,56617,1,10,0:0:0:0:
360,324,56691,1,2,0:0:0:0:
416,275,56765,1,2,0:0:0:0:
451,210,56838,1,6,0:0:0:0:
465,141,56912,1,6,0:0:0:0:
288,32,57941,6,0,P|160:48|64:208,1,270.000010299683
448,144,58382,1,0,0:0:0:0:
128,320,58529,1,0,0:0:0:0:
160,80,58676,2,0,P|384:80|448:160,1,270.000010299683
336,336,59117,1,0,0:0:0:0:
48,208,59264,1,0,0:0:0:0:
416,240,59411,1,0,0:0:0:0:
64,320,59558,1,0,0:0:0:0:
384,80,59705,1,0,0:0:0:0:
160,352,59852,1,0,0:0:0:0:
80,96,60000,1,0,0:0:0:0:
416,320,60147,1,0,0:0:0:0:
80,336,60294,1,0,0:0:0:0:
398,119,60441,2,0,P|342:305|235:306,1,270.000010299683
64,48,61176,2,0,L|64:320,1,270.000010299683
64,64,61323,2,0,B|224:64|224:144|224:144|48:256|48:256,1,405.000015449525
48,256,61470,2,0,L|272:352,1,135.000005149842
80,288,62058,2,0,B|176:0|176:16|240:352|240:352,1,405.000015449525
64,208,62206,2,0,L|272:208,1,135.000005149842
80,32,62941,2,0,B|368:32|368:32|48:320|48:320|416:304,1,1080.00004119873
112,336,64411,2,0,B|112:16|112:16|352:352|352:352|352:16|352:16,1,1080.00004119873
128,16,66029,2,0,B|48:224|208:384|320:288|320:288|352:176|352:176|272:144|272:144|192:176|192:192|208:192,1,675.000025749208
80,352,67059,2,0,B|288:0|288:0|432:384,1,810.000030899049
96,224,67500,2,0,L|512:224,1,405.000015449525
192,32,68382,2,0,B|288:176|288:176|416:16|416:16|128:368,1,810.000030899049
112,96,69706,2,0,P|400:352|400:352,1,270.000010299683
304,64,69853,2,0,L|96:288,1,270.000010299683
240,64,70588,2,0,B|240:320|240:320|480:176|224:-16,1,675.000025749208
