osu file format v14

[General]
AudioFilename: audio.mp3
AudioLeadIn: 0
PreviewTime: -1
Countdown: 1
SampleSet: None
StackLeniency: 0.7
Mode: 3
LetterboxInBreaks: 0
SpecialStyle: 0
WidescreenStoryboard: 0

[Editor]
DistanceSpacing: 1
BeatDivisor: 4
GridSize: 8
TimelineZoom: 1

[Metadata]
Title:Seasons Die One After Another
TitleUnicode:Seasons Die One After Another
Artist:Amazarashi
ArtistUnicode:Amazarashi
Creator:CrazzyJJ
Version:Hard
Source:
Tags:
BeatmapID:1420901
BeatmapSetID:672136

[Difficulty]
HPDrainRate:5
CircleSize:4
OverallDifficulty:5
ApproachRate:5
SliderMultiplier:1.4
SliderTickRate:1

[Events]
//Background and Video events
0,0,"maxresdefault.jpg",0,0
//Break Periods
//Storyboard Layer 0 (Background)
//Storyboard Layer 1 (Fail)
//Storyboard Layer 2 (Pass)
//Storyboard Layer 3 (Foreground)
//Storyboard Sound Samples

[TimingPoints]
-15.9148420551972,329.489291598023,4,2,0,100,1,0

[HitObjects]
64,192,231,5,0,0:0:0:0:
192,192,231,1,0,0:0:0:0:
448,192,395,1,0,0:0:0:0:
64,192,560,1,0,0:0:0:0:
320,192,725,1,0,0:0:0:0:
320,192,890,1,0,0:0:0:0:
448,192,890,1,0,0:0:0:0:
192,192,1054,1,0,0:0:0:0:
448,192,1219,1,0,0:0:0:0:
64,192,1384,1,0,0:0:0:0:
192,192,1549,1,0,0:0:0:0:
448,192,1549,1,0,0:0:0:0:
448,192,1713,1,0,0:0:0:0:
64,192,1878,1,0,0:0:0:0:
320,192,2043,1,0,0:0:0:0:
320,192,2208,1,0,0:0:0:0:
448,192,2208,1,0,0:0:0:0:
64,192,2372,1,0,0:0:0:0:
448,192,2537,1,0,0:0:0:0:
192,192,2702,1,0,0:0:0:0:
320,192,2867,1,0,0:0:0:0:
448,192,2867,1,0,0:0:0:0:
64,192,3031,1,0,0:0:0:0:
448,192,3196,1,0,0:0:0:0:
192,192,3361,1,0,0:0:0:0:
64,192,3526,1,0,0:0:0:0:
320,192,3526,1,0,0:0:0:0:
448,192,3690,1,0,0:0:0:0:
192,192,3855,1,0,0:0:0:0:
320,192,4020,1,0,0:0:0:0:
320,192,4185,1,0,0:0:0:0:
448,192,4185,1,0,0:0:0:0:
64,192,4349,1,0,0:0:0:0:
192,192,4514,1,0,0:0:0:0:
64,192,4679,1,0,0:0:0:0:
320,192,4844,1,0,0:0:0:0:
448,192,4844,1,0,0:0:0:0:
64,192,5008,1,0,0:0:0:0:
448,192,5173,1,0,0:0:0:0:
192,192,5338,1,0,0:0:0:0:
64,192,5503,1,0,0:0:0:0:
192,192,5503,1,0,0:0:0:0:
448,192,5503,1,0,0:0:0:0:
448,192,5667,1,0,0:0:0:0:
192,192,5832,1,0,0:0:0:0:
320,192,5832,1,0,0:0:0:0:
448,192,5832,1,0,0:0:0:0:
320,192,5997,1,0,0:0:0:0:
64,192,6162,1,0,0:0:0:0:
320,192,6162,1,0,0:0:0:0:
448,192,6162,1,0,0:0:0:0:
320,192,6326,1,0,0:0:0:0:
192,192,6491,1,0,0:0:0:0:
448,192,6491,1,0,0:0:0:0:
64,192,6491,1,0,0:0:0:0:
320,192,6656,1,0,0:0:0:0:
64,192,6820,1,0,0:0:0:0:
192,192,6820,1,0,0:0:0:0:
320,192,6985,1,0,0:0:0:0:
192,192,7150,1,0,0:0:0:0:
320,192,7150,1,0,0:0:0:0:
448,192,7150,1,0,0:0:0:0:
448,192,7315,1,0,0:0:0:0:
64,192,7479,1,0,0:0:0:0:
192,192,7479,1,0,0:0:0:0:
320,192,7479,1,0,0:0:0:0:
448,192,7644,1,0,0:0:0:0:
192,192,7809,1,0,0:0:0:0:
320,192,7809,1,0,0:0:0:0:
448,192,7809,1,0,0:0:0:0:
448,192,7974,1,0,0:0:0:0:
192,192,8056,1,0,0:0:0:0:
320,192,8056,1,0,0:0:0:0:
64,192,8138,1,0,0:0:0:0:
320,192,8138,1,0,0:0:0:0:
448,192,8303,1,0,0:0:0:0:
192,192,8468,1,0,0:0:0:0:
64,192,8468,1,0,0:0:0:0:
448,192,8468,1,0,0:0:0:0:
320,192,8633,1,0,0:0:0:0:
192,192,8797,1,0,0:0:0:0:
320,192,8797,1,0,0:0:0:0:
448,192,8797,1,0,0:0:0:0:
64,192,8962,1,0,0:0:0:0:
192,192,9127,1,0,0:0:0:0:
320,192,9127,1,0,0:0:0:0:
448,192,9127,1,0,0:0:0:0:
320,192,9292,1,0,0:0:0:0:
64,192,9456,1,0,0:0:0:0:
320,192,9456,1,0,0:0:0:0:
448,192,9456,1,0,0:0:0:0:
448,192,9621,1,0,0:0:0:0:
192,192,9786,1,0,0:0:0:0:
448,192,9786,1,0,0:0:0:0:
64,192,9786,1,0,0:0:0:0:
320,192,9951,1,0,0:0:0:0:
192,192,9951,1,0,0:0:0:0:
64,192,9951,1,0,0:0:0:0:
192,192,10115,1,0,0:0:0:0:
64,192,10115,1,0,0:0:0:0:
448,192,10115,1,0,0:0:0:0:
320,192,10280,1,0,0:0:0:0:
448,192,10280,1,0,0:0:0:0:
64,192,10280,1,0,0:0:0:0:
64,192,10445,1,0,0:0:0:0:
448,192,10445,1,0,0:0:0:0:
320,192,10445,1,0,0:0:0:0:
192,192,10610,1,0,0:0:0:0:
448,192,10610,1,0,0:0:0:0:
64,192,10610,1,0,0:0:0:0:
192,192,10692,1,0,0:0:0:0:
448,192,10774,128,0,16046:0:0:0:0:
320,192,11021,1,0,0:0:0:0:
192,192,11186,1,0,0:0:0:0:
64,192,11351,1,0,0:0:0:0:
192,192,11516,1,0,0:0:0:0:
320,192,11516,1,0,0:0:0:0:
64,192,11598,1,0,0:0:0:0:
320,192,11845,1,0,0:0:0:0:
192,192,12010,1,0,0:0:0:0:
64,192,12092,1,0,0:0:0:0:
320,192,12092,1,0,0:0:0:0:
192,192,12257,1,0,0:0:0:0:
320,192,12422,1,0,0:0:0:0:
192,192,12669,1,0,0:0:0:0:
64,192,12834,1,0,0:0:0:0:
192,192,12834,1,0,0:0:0:0:
320,192,12998,1,0,0:0:0:0:
192,192,13163,1,0,0:0:0:0:
64,192,13328,1,0,0:0:0:0:
192,192,13410,1,0,0:0:0:0:
320,192,13410,1,0,0:0:0:0:
64,192,13575,1,0,0:0:0:0:
320,192,13740,1,0,0:0:0:0:
192,192,13905,1,0,0:0:0:0:
64,192,14069,1,0,0:0:0:0:
192,192,14069,1,0,0:0:0:0:
320,192,14234,1,0,0:0:0:0:
192,192,14399,1,0,0:0:0:0:
320,192,14646,1,0,0:0:0:0:
64,192,14811,1,0,0:0:0:0:
192,192,14811,1,0,0:0:0:0:
320,192,14893,1,0,0:0:0:0:
192,192,15058,1,0,0:0:0:0:
64,192,15222,1,0,0:0:0:0:
64,192,15387,1,0,0:0:0:0:
320,192,15387,1,0,0:0:0:0:
320,192,15634,1,0,0:0:0:0:
192,192,15799,1,0,0:0:0:0:
320,192,15964,1,0,0:0:0:0:
320,192,16129,1,0,0:0:0:0:
64,192,16129,128,0,21565:0:0:0:0:
448,192,16293,1,0,0:0:0:0:
192,192,16458,1,0,0:0:0:0:
448,192,16623,1,0,0:0:0:0:
320,192,16788,1,0,0:0:0:0:
448,192,16788,1,0,0:0:0:0:
192,192,16952,1,0,0:0:0:0:
448,192,17117,1,0,0:0:0:0:
320,192,17282,1,0,0:0:0:0:
320,192,17447,1,0,0:0:0:0:
448,192,17447,1,0,0:0:0:0:
448,192,17611,1,0,0:0:0:0:
192,192,17776,1,0,0:0:0:0:
320,192,17941,1,0,0:0:0:0:
192,192,18105,1,0,0:0:0:0:
320,192,18105,1,0,0:0:0:0:
448,192,18270,1,0,0:0:0:0:
192,192,18435,1,0,0:0:0:0:
320,192,18600,1,0,0:0:0:0:
320,192,18764,1,0,0:0:0:0:
448,192,18764,1,0,0:0:0:0:
448,192,18929,1,0,0:0:0:0:
192,192,19094,1,0,0:0:0:0:
320,192,19259,1,0,0:0:0:0:
320,192,19423,1,0,0:0:0:0:
448,192,19423,1,0,0:0:0:0:
192,192,19588,1,0,0:0:0:0:
320,192,19753,1,0,0:0:0:0:
448,192,19918,1,0,0:0:0:0:
192,192,20082,1,0,0:0:0:0:
320,192,20082,1,0,0:0:0:0:
192,192,20247,1,0,0:0:0:0:
320,192,20412,1,0,0:0:0:0:
448,192,20577,1,0,0:0:0:0:
192,192,20741,1,0,0:0:0:0:
448,192,20741,1,0,0:0:0:0:
448,192,20906,1,0,0:0:0:0:
320,192,21071,1,0,0:0:0:0:
192,192,21236,1,0,0:0:0:0:
320,192,21400,1,0,0:0:0:0:
448,192,21400,1,0,0:0:0:0:
192,192,21565,1,0,0:0:0:0:
448,192,21730,1,0,0:0:0:0:
192,192,21895,1,0,0:0:0:0:
320,192,22059,1,0,0:0:0:0:
448,192,22059,1,0,0:0:0:0:
448,192,22224,1,0,0:0:0:0:
192,192,22389,1,0,0:0:0:0:
320,192,22554,1,0,0:0:0:0:
192,192,22718,1,0,0:0:0:0:
448,192,22718,1,0,0:0:0:0:
448,192,22965,1,0,0:0:0:0:
192,192,23048,1,0,0:0:0:0:
320,192,23213,1,0,0:0:0:0:
64,192,23377,1,0,0:0:0:0:
448,192,23377,1,0,0:0:0:0:
320,192,23624,1,0,0:0:0:0:
192,192,23789,1,0,0:0:0:0:
448,192,23872,1,0,0:0:0:0:
320,192,24036,1,0,0:0:0:0:
448,192,24036,1,0,0:0:0:0:
448,192,24201,1,0,0:0:0:0:
192,192,24366,1,0,0:0:0:0:
320,192,24531,1,0,0:0:0:0:
64,192,24695,1,0,0:0:0:0:
192,192,24695,1,0,0:0:0:0:
448,192,24860,1,0,0:0:0:0:
192,192,25025,1,0,0:0:0:0:
320,192,25272,1,0,0:0:0:0:
64,192,25437,1,0,0:0:0:0:
320,192,25437,1,0,0:0:0:0:
448,192,25601,1,0,0:0:0:0:
192,192,25766,1,0,0:0:0:0:
320,192,25848,1,0,0:0:0:0:
320,192,26013,1,0,0:0:0:0:
448,192,26013,1,0,0:0:0:0:
448,192,26260,1,0,0:0:0:0:
192,192,26425,1,0,0:0:0:0:
64,192,26590,1,0,0:0:0:0:
64,192,26755,1,0,0:0:0:0:
192,192,26755,1,0,0:0:0:0:
320,192,26919,1,0,0:0:0:0:
192,192,27084,1,0,0:0:0:0:
448,192,27249,1,0,0:0:0:0:
320,192,27414,1,0,0:0:0:0:
448,192,27414,1,0,0:0:0:0:
448,192,27496,1,0,0:0:0:0:
192,192,27661,1,0,0:0:0:0:
64,192,27825,1,0,0:0:0:0:
64,192,27990,1,0,0:0:0:0:
192,192,27990,1,0,0:0:0:0:
64,192,28237,1,0,0:0:0:0:
192,192,28402,1,0,0:0:0:0:
320,192,28567,1,0,0:0:0:0:
320,192,28732,1,0,0:0:0:0:
448,192,28732,1,0,0:0:0:0:
448,192,28896,1,0,0:0:0:0:
192,192,29061,1,0,0:0:0:0:
64,192,29226,1,0,0:0:0:0:
192,192,29391,1,0,0:0:0:0:
320,192,29391,1,0,0:0:0:0:
448,192,29555,1,0,0:0:0:0:
64,192,29720,1,0,0:0:0:0:
320,192,29885,1,0,0:0:0:0:
64,192,30049,1,0,0:0:0:0:
320,192,30049,1,0,0:0:0:0:
448,192,30214,1,0,0:0:0:0:
192,192,30379,1,0,0:0:0:0:
320,192,30461,1,0,0:0:0:0:
192,192,30626,1,0,0:0:0:0:
448,192,30626,1,0,0:0:0:0:
320,192,30873,1,0,0:0:0:0:
64,192,31038,1,0,0:0:0:0:
192,192,31120,1,0,0:0:0:0:
320,192,31367,1,0,0:0:0:0:
192,192,31532,1,0,0:0:0:0:
448,192,31697,1,0,0:0:0:0:
192,192,31862,1,0,0:0:0:0:
448,192,32026,1,0,0:0:0:0:
448,192,32191,1,0,0:0:0:0:
64,192,32356,1,0,0:0:0:0:
320,192,32438,1,0,0:0:0:0:
192,192,32603,1,0,0:0:0:0:
448,192,32768,1,0,0:0:0:0:
64,192,32933,1,0,0:0:0:0:
320,192,33097,1,0,0:0:0:0:
192,192,33262,1,0,0:0:0:0:
448,192,33427,1,0,0:0:0:0:
64,192,33591,1,0,0:0:0:0:
320,192,33756,1,0,0:0:0:0:
192,192,33921,1,0,0:0:0:0:
320,192,34086,1,0,0:0:0:0:
64,192,34168,1,0,0:0:0:0:
448,192,34333,1,0,0:0:0:0:
192,192,34498,1,0,0:0:0:0:
448,192,34662,1,0,0:0:0:0:
320,192,34827,1,0,0:0:0:0:
64,192,34992,1,0,0:0:0:0:
192,192,35157,1,0,0:0:0:0:
320,192,35321,1,0,0:0:0:0:
64,192,35404,1,0,0:0:0:0:
192,192,35568,1,0,0:0:0:0:
448,192,35733,1,0,0:0:0:0:
64,192,35898,1,0,0:0:0:0:
320,192,35980,1,0,0:0:0:0:
192,192,36145,1,0,0:0:0:0:
320,192,36310,1,0,0:0:0:0:
64,192,36392,1,0,0:0:0:0:
192,192,36639,1,0,0:0:0:0:
448,192,36722,1,0,0:0:0:0:
64,192,36886,1,0,0:0:0:0:
320,192,37051,1,0,0:0:0:0:
192,192,37216,1,0,0:0:0:0:
448,192,37381,1,0,0:0:0:0:
64,192,37463,1,0,0:0:0:0:
320,192,37628,1,0,0:0:0:0:
192,192,37792,1,0,0:0:0:0:
320,192,38040,1,0,0:0:0:0:
64,192,38204,1,0,0:0:0:0:
192,192,38369,1,0,0:0:0:0:
320,192,38451,1,0,0:0:0:0:
64,192,38616,1,0,0:0:0:0:
448,192,38781,1,0,0:0:0:0:
192,192,38946,1,0,0:0:0:0:
448,192,39028,1,0,0:0:0:0:
448,192,39358,1,0,0:0:0:0:
448,192,39522,1,0,0:0:0:0:
64,192,39769,1,0,0:0:0:0:
320,192,39852,1,0,0:0:0:0:
192,192,40017,1,0,0:0:0:0:
320,192,40181,1,0,0:0:0:0:
64,192,40346,1,0,0:0:0:0:
192,192,40511,1,0,0:0:0:0:
320,192,40676,1,0,0:0:0:0:
448,192,40758,1,0,0:0:0:0:
64,192,41005,1,0,0:0:0:0:
448,192,41170,1,0,0:0:0:0:
192,192,41334,1,0,0:0:0:0:
448,192,41582,1,0,0:0:0:0:
64,192,41664,1,0,0:0:0:0:
320,192,41829,1,0,0:0:0:0:
192,192,41993,1,0,0:0:0:0:
64,192,42158,1,0,0:0:0:0:
320,192,42323,1,0,0:0:0:0:
192,192,42405,1,0,0:0:0:0:
448,192,42652,1,0,0:0:0:0:
64,192,42735,1,0,0:0:0:0:
448,192,42900,1,0,0:0:0:0:
64,192,43147,1,0,0:0:0:0:
320,192,43311,1,0,0:0:0:0:
192,192,43476,1,0,0:0:0:0:
320,192,43641,1,0,0:0:0:0:
64,192,43806,1,0,0:0:0:0:
448,192,43970,1,0,0:0:0:0:
448,192,44300,1,0,0:0:0:0:
64,192,44465,1,0,0:0:0:0:
320,192,44629,1,0,0:0:0:0:
192,192,44794,1,0,0:0:0:0:
320,192,44959,1,0,0:0:0:0:
64,192,45041,1,0,0:0:0:0:
192,192,45206,1,0,0:0:0:0:
320,192,45288,1,0,0:0:0:0:
64,192,45453,1,0,0:0:0:0:
448,192,45618,1,0,0:0:0:0:
64,192,45783,1,0,0:0:0:0:
448,192,45947,1,0,0:0:0:0:
64,192,46112,1,0,0:0:0:0:
448,192,46277,1,0,0:0:0:0:
320,192,46359,1,0,0:0:0:0:
192,192,46442,1,0,0:0:0:0:
320,192,46606,1,0,0:0:0:0:
64,192,46771,1,0,0:0:0:0:
320,192,46936,1,0,0:0:0:0:
64,192,47101,1,0,0:0:0:0:
192,192,47265,1,0,0:0:0:0:
320,192,47348,1,0,0:0:0:0:
64,192,47512,1,0,0:0:0:0:
448,192,47595,1,0,0:0:0:0:
320,192,47760,1,0,0:0:0:0:
64,192,47924,1,0,0:0:0:0:
320,192,48007,1,0,0:0:0:0:
192,192,48171,1,0,0:0:0:0:
448,192,48336,1,0,0:0:0:0:
64,192,48501,1,0,0:0:0:0:
320,192,48583,1,0,0:0:0:0:
64,192,48830,1,0,0:0:0:0:
448,192,48995,1,0,0:0:0:0:
64,192,49077,1,0,0:0:0:0:
320,192,49242,1,0,0:0:0:0:
192,192,49407,1,0,0:0:0:0:
448,192,49572,1,0,0:0:0:0:
64,192,49654,1,0,0:0:0:0:
320,192,49901,1,0,0:0:0:0:
64,192,50066,1,0,0:0:0:0:
448,192,50231,1,0,0:0:0:0:
64,192,50395,1,0,0:0:0:0:
320,192,50560,1,0,0:0:0:0:
192,192,50725,1,0,0:0:0:0:
448,192,50890,1,0,0:0:0:0:
64,192,51054,1,0,0:0:0:0:
320,192,51302,1,0,0:0:0:0:
64,192,51466,1,0,0:0:0:0:
448,192,51549,1,0,0:0:0:0:
192,192,51796,1,0,0:0:0:0:
320,192,51961,1,0,0:0:0:0:
64,192,52125,1,0,0:0:0:0:
448,192,52290,1,0,0:0:0:0:
192,192,52455,1,0,0:0:0:0:
320,192,52619,1,0,0:0:0:0:
64,192,52784,1,0,0:0:0:0:
448,192,52949,1,0,0:0:0:0:
64,192,53114,1,0,0:0:0:0:
192,192,53196,1,0,0:0:0:0:
320,192,53278,1,0,0:0:0:0:
448,192,53361,1,0,0:0:0:0:
64,192,53443,1,0,0:0:0:0:
448,192,53608,1,0,0:0:0:0:
320,192,53690,1,0,0:0:0:0:
64,192,53773,1,0,0:0:0:0:
448,192,53855,128,0,54185:0:0:0:0:
64,192,54267,128,0,54679:0:0:0:0:
320,192,54761,128,0,55173:0:0:0:0:
192,192,55255,1,0,0:0:0:0:
448,192,55503,1,0,0:0:0:0:
64,192,55832,128,0,56409:0:0:0:0:
320,192,56409,128,0,56903:0:0:0:0:
192,192,56903,128,0,57397:0:0:0:0:
448,192,57397,128,0,57891:0:0:0:0:
64,192,57891,1,0,0:0:0:0:
320,192,58221,1,0,0:0:0:0:
192,192,58468,128,0,59045:0:0:0:0:
448,192,59045,128,0,59456:0:0:0:0:
64,192,59539,128,0,60033:0:0:0:0:
320,192,60033,128,0,60527:0:0:0:0:
192,192,60527,1,0,0:0:0:0:
448,192,60857,1,0,0:0:0:0:
64,192,61104,128,0,61598:0:0:0:0:
320,192,61680,128,0,62175:0:0:0:0:
192,192,62175,128,0,62669:0:0:0:0:
448,192,62669,128,0,63163:0:0:0:0:
64,192,63163,128,0,63493:0:0:0:0:
320,192,63493,1,0,0:0:0:0:
448,192,63905,1,0,0:0:0:0:
64,192,64152,1,0,0:0:0:0:
320,192,64481,128,0,65058:0:0:0:0:
192,192,65140,1,0,0:0:0:0:
448,192,65470,128,0,65799:0:0:0:0:
64,192,65881,128,0,66458:0:0:0:0:
320,192,66540,1,0,0:0:0:0:
192,192,66870,1,0,0:0:0:0:
448,192,67199,128,0,67694:0:0:0:0:
64,192,67694,1,0,0:0:0:0:
320,192,67858,128,0,68270:0:0:0:0:
192,192,68353,1,0,0:0:0:0:
448,192,68435,128,0,69012:0:0:0:0:
64,192,69094,128,0,69423:0:0:0:0:
320,192,69423,128,0,69753:0:0:0:0:
192,192,69835,1,0,0:0:0:0:
448,192,70165,1,0,0:0:0:0:
64,192,70494,128,0,70989:0:0:0:0:
320,192,70989,1,0,0:0:0:0:
192,192,71153,128,0,71648:0:0:0:0:
448,192,71730,128,0,72142:0:0:0:0:
64,192,72142,1,0,0:0:0:0:
320,192,72471,1,0,0:0:0:0:
192,192,72801,1,0,0:0:0:0:
448,192,73130,128,0,73789:0:0:0:0:
64,192,73789,128,0,74448:0:0:0:0:
448,192,74531,1,0,0:0:0:0:
192,192,74778,1,0,0:0:0:0:
320,192,75190,1,0,0:0:0:0:
64,192,75519,1,0,0:0:0:0:
448,192,75848,1,0,0:0:0:0:
192,192,76178,1,0,0:0:0:0:
320,192,76507,1,0,0:0:0:0:
64,192,76837,1,0,0:0:0:0:
448,192,77166,1,0,0:0:0:0:
192,192,77331,1,0,0:0:0:0:
320,192,77496,1,0,0:0:0:0:
64,192,77661,1,0,0:0:0:0:
448,192,77825,1,0,0:0:0:0:
192,192,77990,1,0,0:0:0:0:
320,192,78155,1,0,0:0:0:0:
64,192,78320,1,0,0:0:0:0:
192,192,78484,1,0,0:0:0:0:
320,192,78649,1,0,0:0:0:0:
64,192,78814,1,0,0:0:0:0:
448,192,78979,1,0,0:0:0:0:
192,192,79143,1,0,0:0:0:0:
448,192,79226,1,0,0:0:0:0:
64,192,79391,1,0,0:0:0:0:
320,192,79555,1,0,0:0:0:0:
192,192,79720,1,0,0:0:0:0:
320,192,79885,1,0,0:0:0:0:
64,192,80132,1,0,0:0:0:0:
320,192,80297,1,0,0:0:0:0:
192,192,80461,1,0,0:0:0:0:
448,192,80626,1,0,0:0:0:0:
64,192,80791,1,0,0:0:0:0:
448,192,80956,1,0,0:0:0:0:
64,192,81120,1,0,0:0:0:0:
448,192,81285,1,0,0:0:0:0:
320,192,81450,1,0,0:0:0:0:
192,192,81615,1,0,0:0:0:0:
320,192,81779,1,0,0:0:0:0:
64,192,81862,1,0,0:0:0:0:
320,192,82026,1,0,0:0:0:0:
64,192,82191,1,0,0:0:0:0:
192,192,82356,1,0,0:0:0:0:
448,192,82438,1,0,0:0:0:0:
64,192,82603,1,0,0:0:0:0:
320,192,82768,1,0,0:0:0:0:
192,192,82933,1,0,0:0:0:0:
448,192,83097,1,0,0:0:0:0:
64,192,83262,1,0,0:0:0:0:
320,192,83427,1,0,0:0:0:0:
192,192,83591,1,0,0:0:0:0:
448,192,83674,1,0,0:0:0:0:
320,192,83839,1,0,0:0:0:0:
64,192,83921,1,0,0:0:0:0:
192,192,84086,1,0,0:0:0:0:
320,192,84250,1,0,0:0:0:0:
448,192,84333,1,0,0:0:0:0:
64,192,84415,1,0,0:0:0:0:
320,192,84498,1,0,0:0:0:0:
192,192,84662,1,0,0:0:0:0:
448,192,84827,1,0,0:0:0:0:
64,192,85074,128,0,85651:0:0:0:0:
448,192,85074,128,0,85651:0:0:0:0:
320,192,85733,128,0,86310:0:0:0:0:
192,192,86392,1,0,0:0:0:0:
448,192,86722,128,0,87051:0:0:0:0:
64,192,87051,1,0,0:0:0:0:
320,192,87381,128,0,88781:0:0:0:0:
192,192,88863,1,0,0:0:0:0:
448,192,89028,1,0,0:0:0:0:
64,192,89358,1,0,0:0:0:0:
320,192,89687,1,0,0:0:0:0:
192,192,90017,1,0,0:0:0:0:
448,192,90346,128,0,91005:0:0:0:0:
64,192,91087,1,0,0:0:0:0:
320,192,91417,1,0,0:0:0:0:
192,192,91664,1,0,0:0:0:0:
448,192,92076,1,0,0:0:0:0:
64,192,92405,1,0,0:0:0:0:
320,192,92735,1,0,0:0:0:0:
192,192,93064,1,0,0:0:0:0:
448,192,93394,1,0,0:0:0:0:
64,192,93723,1,0,0:0:0:0:
320,192,94135,1,0,0:0:0:0:
192,192,94382,1,0,0:0:0:0:
448,192,94547,1,0,0:0:0:0:
64,192,94712,1,0,0:0:0:0:
320,192,94877,1,0,0:0:0:0:
192,192,95041,1,0,0:0:0:0:
448,192,95206,1,0,0:0:0:0:
64,192,95371,1,0,0:0:0:0:
448,192,95700,128,0,96030:0:0:0:0:
192,192,96030,1,0,0:0:0:0:
320,192,96277,128,0,96853:0:0:0:0:
64,192,96936,128,0,97430:0:0:0:0:
448,192,97512,128,0,97924:0:0:0:0:
192,192,98007,1,0,0:0:0:0:
320,192,98336,1,0,0:0:0:0:
64,192,98583,1,0,0:0:0:0:
448,192,98913,128,0,99489:0:0:0:0:
192,192,99654,128,0,100148:0:0:0:0:
320,192,100148,128,0,100560:0:0:0:0:
64,192,100643,1,0,0:0:0:0:
448,192,100972,128,0,101302:0:0:0:0:
64,192,101302,1,0,0:0:0:0:
320,192,101549,128,0,101961:0:0:0:0:
192,192,101961,128,0,102619:0:0:0:0:
448,192,102702,1,0,0:0:0:0:
64,192,102949,128,0,103608:0:0:0:0:
320,192,103690,1,0,0:0:0:0:
192,192,103937,128,0,104267:0:0:0:0:
448,192,104349,1,0,0:0:0:0:
64,192,104679,128,0,105008:0:0:0:0:
320,192,105008,128,0,105585:0:0:0:0:
448,192,105008,128,0,105585:0:0:0:0:
64,192,105667,128,0,106244:0:0:0:0:
192,192,105667,128,0,106244:0:0:0:0:
320,192,106326,128,0,106903:0:0:0:0:
448,192,106326,128,0,106903:0:0:0:0:
192,192,106985,128,0,107644:0:0:0:0:
448,192,107644,1,0,0:0:0:0:
64,192,107974,1,0,0:0:0:0:
320,192,108303,1,0,0:0:0:0:
192,192,108468,128,0,110115:0:0:0:0:
448,192,110115,1,0,0:0:0:0:
64,192,110198,1,0,0:0:0:0:
320,192,110527,128,0,110857:0:0:0:0:
192,192,110939,1,0,0:0:0:0:
448,192,111269,1,0,0:0:0:0:
64,192,111598,128,0,112175:0:0:0:0:
320,192,112257,128,0,112834:0:0:0:0:
192,192,112916,1,0,0:0:0:0:
448,192,113246,128,0,113575:0:0:0:0:
64,192,113575,1,0,0:0:0:0:
320,192,113822,128,0,115222:0:0:0:0:
192,192,115387,1,0,0:0:0:0:
448,192,115552,128,0,115964:0:0:0:0:
64,192,116046,128,0,116458:0:0:0:0:
320,192,116540,128,0,116870:0:0:0:0:
192,192,116870,1,0,0:0:0:0:
448,192,117199,1,0,0:0:0:0:
64,192,117529,128,0,117941:0:0:0:0:
320,192,118105,1,0,0:0:0:0:
320,192,118188,128,0,118682:0:0:0:0:
192,192,118764,128,0,119176:0:0:0:0:
448,192,119176,128,0,119506:0:0:0:0:
64,192,119588,128,0,119918:0:0:0:0:
448,192,119918,1,0,0:0:0:0:
192,192,120165,128,0,120577:0:0:0:0:
320,192,120659,1,0,0:0:0:0:
448,192,120824,128,0,121318:0:0:0:0:
64,192,121318,128,0,121812:0:0:0:0:
448,192,121895,128,0,122224:0:0:0:0:
320,192,122224,1,0,0:0:0:0:
192,192,122554,1,0,0:0:0:0:
448,192,122883,1,0,0:0:0:0:
64,192,123213,128,0,123872:0:0:0:0:
192,192,123872,128,0,124201:0:0:0:0:
320,192,124201,128,0,124860:0:0:0:0:
64,192,124942,1,0,0:0:0:0:
192,192,124942,1,0,0:0:0:0:
448,192,125190,128,0,125519:0:0:0:0:
192,192,125519,1,0,0:0:0:0:
320,192,125848,128,0,126178:0:0:0:0:
64,192,126178,128,0,126837:0:0:0:0:
448,192,126837,1,0,0:0:0:0:
448,192,127166,128,0,128073:0:0:0:0:
192,192,127166,128,0,128237:0:0:0:0:
448,192,128237,1,0,0:0:0:0:
64,192,128402,1,0,0:0:0:0:
320,192,128484,1,0,0:0:0:0:
192,192,128732,1,0,0:0:0:0:
448,192,128896,1,0,0:0:0:0:
64,192,129061,1,0,0:0:0:0:
320,192,129226,1,0,0:0:0:0:
192,192,129308,1,0,0:0:0:0:
320,192,129473,1,0,0:0:0:0:
64,192,129638,1,0,0:0:0:0:
448,192,129885,1,0,0:0:0:0:
192,192,129967,1,0,0:0:0:0:
320,192,130132,1,0,0:0:0:0:
64,192,130297,1,0,0:0:0:0:
448,192,130461,1,0,0:0:0:0:
192,192,130626,1,0,0:0:0:0:
320,192,130791,1,0,0:0:0:0:
64,192,130956,1,0,0:0:0:0:
448,192,131120,1,0,0:0:0:0:
192,192,131285,1,0,0:0:0:0:
320,192,131532,1,0,0:0:0:0:
64,192,131615,1,0,0:0:0:0:
448,192,131862,1,0,0:0:0:0:
192,192,132026,1,0,0:0:0:0:
320,192,132191,1,0,0:0:0:0:
64,192,132356,1,0,0:0:0:0:
448,192,132521,1,0,0:0:0:0:
192,192,132603,1,0,0:0:0:0:
320,192,132768,1,0,0:0:0:0:
320,192,132933,1,0,0:0:0:0:
64,192,133097,1,0,0:0:0:0:
448,192,133180,1,0,0:0:0:0:
192,192,133344,1,0,0:0:0:0:
320,192,133509,1,0,0:0:0:0:
64,192,133591,1,0,0:0:0:0:
448,192,133756,1,0,0:0:0:0:
192,192,133921,1,0,0:0:0:0:
320,192,134086,1,0,0:0:0:0:
64,192,134333,1,0,0:0:0:0:
448,192,134498,1,0,0:0:0:0:
192,192,134662,1,0,0:0:0:0:
320,192,134827,1,0,0:0:0:0:
64,192,134992,1,0,0:0:0:0:
192,192,135157,1,0,0:0:0:0:
320,192,135321,1,0,0:0:0:0:
192,192,135404,1,0,0:0:0:0:
448,192,135568,1,0,0:0:0:0:
64,192,135733,1,0,0:0:0:0:
448,192,135898,1,0,0:0:0:0:
320,192,136063,1,0,0:0:0:0:
192,192,136145,1,0,0:0:0:0:
64,192,136310,1,0,0:0:0:0:
192,192,136475,1,0,0:0:0:0:
320,192,136639,1,0,0:0:0:0:
64,192,136804,1,0,0:0:0:0:
192,192,136969,1,0,0:0:0:0:
448,192,137134,1,0,0:0:0:0:
192,192,137298,1,0,0:0:0:0:
448,192,137381,1,0,0:0:0:0:
320,192,137545,1,0,0:0:0:0:
64,192,137710,1,0,0:0:0:0:
320,192,137957,1,0,0:0:0:0:
192,192,138040,1,0,0:0:0:0:
448,192,138287,128,0,138616:0:0:0:0:
64,192,138699,1,0,0:0:0:0:
320,192,138781,128,0,139275:0:0:0:0:
192,192,139275,1,0,0:0:0:0:
448,192,139440,128,0,139934:0:0:0:0:
64,192,139934,1,0,0:0:0:0:
320,192,140099,128,0,140676:0:0:0:0:
192,192,140758,1,0,0:0:0:0:
448,192,141005,128,0,141499:0:0:0:0:
320,192,141417,1,0,0:0:0:0:
192,192,141664,128,0,143394:0:0:0:0:
448,192,142076,1,0,0:0:0:0:
64,192,142241,1,0,0:0:0:0:
320,192,142405,1,0,0:0:0:0:
64,192,142570,1,0,0:0:0:0:
448,192,142817,1,0,0:0:0:0:
64,192,142982,1,0,0:0:0:0:
320,192,143147,1,0,0:0:0:0:
64,192,143311,1,0,0:0:0:0:
448,192,143394,128,0,143970:0:0:0:0:
64,192,143723,1,0,0:0:0:0:
192,192,144053,128,0,144465:0:0:0:0:
320,192,144465,1,0,0:0:0:0:
64,192,144629,1,0,0:0:0:0:
448,192,144712,128,0,145124:0:0:0:0:
192,192,145124,1,0,0:0:0:0:
320,192,145288,1,0,0:0:0:0:
64,192,145371,128,0,145783:0:0:0:0:
448,192,145783,1,0,0:0:0:0:
192,192,145947,1,0,0:0:0:0:
320,192,146112,1,0,0:0:0:0:
64,192,146442,128,0,146771:0:0:0:0:
448,192,146771,128,0,147183:0:0:0:0:
192,192,147101,128,0,147430:0:0:0:0:
320,192,147430,1,0,0:0:0:0:
64,192,147595,1,0,0:0:0:0:
448,192,147677,1,0,0:0:0:0:
192,192,147842,1,0,0:0:0:0:
320,192,148007,1,0,0:0:0:0:
64,192,148171,1,0,0:0:0:0:
448,192,148336,1,0,0:0:0:0:
192,192,148501,1,0,0:0:0:0:
448,192,148666,128,0,149077:0:0:0:0:
64,192,149077,128,0,149407:0:0:0:0:
320,192,149407,1,0,0:0:0:0:
192,192,149654,128,0,150148:0:0:0:0:
448,192,150148,1,0,0:0:0:0:
448,192,150313,1,0,0:0:0:0:
320,192,150395,128,0,150972:0:0:0:0:
64,192,150972,1,0,0:0:0:0:
448,192,151137,1,0,0:0:0:0:
192,192,151302,1,0,0:0:0:0:
320,192,151384,128,0,151713:0:0:0:0:
64,192,151713,128,0,152043:0:0:0:0:
448,192,152043,1,0,0:0:0:0:
192,192,152372,128,0,152784:0:0:0:0:
448,192,152867,1,0,0:0:0:0:
448,192,153031,128,0,153361:0:0:0:0:
64,192,153443,128,0,153773:0:0:0:0:
320,192,153690,1,0,0:0:0:0:
192,192,154020,128,0,154596:0:0:0:0:
448,192,154596,1,0,0:0:0:0:
448,192,154679,128,0,155173:0:0:0:0:
64,192,155173,1,0,0:0:0:0:
320,192,155338,128,0,155750:0:0:0:0:
192,192,155832,1,0,0:0:0:0:
448,192,155997,128,0,156326:0:0:0:0:
64,192,156326,1,0,0:0:0:0:
320,192,156491,1,0,0:0:0:0:
192,192,156656,128,0,156985:0:0:0:0:
448,192,156985,128,0,157315:0:0:0:0:
64,192,157397,1,0,0:0:0:0:
320,192,157644,128,0,157974:0:0:0:0:
192,192,157974,128,0,158550:0:0:0:0:
448,192,158386,128,0,158715:0:0:0:0:
64,192,158797,1,0,0:0:0:0:
320,192,159045,128,0,159374:0:0:0:0:
192,192,159374,1,0,0:0:0:0:
448,192,159704,128,0,160033:0:0:0:0:
64,192,160033,128,0,160610:0:0:0:0:
320,192,160692,1,0,0:0:0:0:
192,192,160939,128,0,161351:0:0:0:0:
448,192,161351,128,0,161928:0:0:0:0:
64,192,161928,128,0,162339:0:0:0:0:
320,192,162339,128,0,162669:0:0:0:0:
192,192,162669,1,0,0:0:0:0:
448,192,162916,1,0,0:0:0:0:
64,192,163081,1,0,0:0:0:0:
320,192,163246,128,0,163740:0:0:0:0:
192,192,163740,1,0,0:0:0:0:
448,192,163905,128,0,164563:0:0:0:0:
64,192,164563,128,0,164975:0:0:0:0:
320,192,164975,128,0,165305:0:0:0:0:
192,192,165305,128,0,165634:0:0:0:0:
448,192,165634,128,0,165964:0:0:0:0:
64,192,165964,128,0,166458:0:0:0:0:
448,192,166540,1,0,0:0:0:0:
320,192,166705,128,0,167117:0:0:0:0:
64,192,167117,1,0,0:0:0:0:
192,192,167282,128,0,167611:0:0:0:0:
320,192,167611,128,0,167941:0:0:0:0:
448,192,167941,128,0,168270:0:0:0:0:
320,192,168270,128,0,168600:0:0:0:0:
64,192,168600,128,0,169259:0:0:0:0:
448,192,169259,128,0,169918:0:0:0:0:
192,192,169918,128,0,170247:0:0:0:0:
448,192,170247,128,0,171153:0:0:0:0:
320,192,170494,128,0,171153:0:0:0:0:
64,192,171236,128,0,171648:0:0:0:0:
192,192,171565,128,0,171895:0:0:0:0:
320,192,171895,128,0,172554:0:0:0:0:
448,192,171895,128,0,172554:0:0:0:0:
64,192,172554,1,0,0:0:0:0:
448,192,172883,1,0,0:0:0:0:
64,192,173213,128,0,173542:0:0:0:0:
192,192,173213,128,0,173542:0:0:0:0:
448,192,173542,128,0,173872:0:0:0:0:
320,192,173624,1,0,0:0:0:0:
64,192,173954,128,0,174283:0:0:0:0:
192,192,173954,128,0,174283:0:0:0:0:
448,192,174283,128,0,175190:0:0:0:0:
320,192,174531,128,0,175190:0:0:0:0:
64,192,175190,128,0,175519:0:0:0:0:
448,192,175519,128,0,175848:0:0:0:0:
192,192,175931,1,0,0:0:0:0:
320,192,176178,128,0,176590:0:0:0:0:
448,192,176178,128,0,176590:0:0:0:0:
64,192,176590,128,0,176919:0:0:0:0:
192,192,176919,1,0,0:0:0:0:
320,192,177249,128,0,177908:0:0:0:0:
64,192,177908,128,0,178237:0:0:0:0:
448,192,178237,128,0,178567:0:0:0:0:
320,192,178320,1,0,0:0:0:0:
64,192,178649,1,0,0:0:0:0:
192,192,178649,1,0,0:0:0:0:
448,192,178896,128,0,179226:0:0:0:0:
320,192,179226,128,0,179720:0:0:0:0:
64,192,179720,1,0,0:0:0:0:
448,192,179885,1,0,0:0:0:0:
192,192,180214,1,0,0:0:0:0:
64,192,180544,128,0,181120:0:0:0:0:
192,192,180544,128,0,181120:0:0:0:0:
320,192,180544,128,0,181120:0:0:0:0:
448,192,181120,128,0,181779:0:0:0:0:
192,192,181779,128,0,182109:0:0:0:0:
320,192,182109,128,0,182438:0:0:0:0:
64,192,182521,1,0,0:0:0:0:
320,192,182768,128,0,184333:0:0:0:0:
448,192,182768,128,0,184333:0:0:0:0:
192,192,184333,1,0,0:0:0:0:
448,192,184498,128,0,184827:0:0:0:0:
64,192,184827,128,0,185157:0:0:0:0:
320,192,185157,1,0,0:0:0:0:
64,192,185486,128,0,185816:0:0:0:0:
192,192,185816,128,0,186475:0:0:0:0:
320,192,186475,128,0,187216:0:0:0:0:
64,192,187216,1,0,0:0:0:0:
448,192,187545,1,0,0:0:0:0:
192,192,187875,1,0,0:0:0:0:
320,192,188122,128,0,189605:0:0:0:0:
64,192,189687,1,0,0:0:0:0:
448,192,189852,1,0,0:0:0:0:
192,192,190346,128,0,190676:0:0:0:0:
320,192,190840,1,0,0:0:0:0:
64,192,191170,1,0,0:0:0:0:
448,192,191499,1,0,0:0:0:0:
192,192,191829,128,0,192405:0:0:0:0:
320,192,192488,128,0,192982:0:0:0:0:
64,192,192982,128,0,193394:0:0:0:0:
448,192,193476,1,0,0:0:0:0:
64,192,193806,128,0,194135:0:0:0:0:
320,192,194135,1,0,0:0:0:0:
192,192,194465,128,0,195124:0:0:0:0:
448,192,195124,128,0,195535:0:0:0:0:
64,192,195618,128,0,196112:0:0:0:0:
192,192,196112,128,0,196442:0:0:0:0:
320,192,196442,128,0,196771:0:0:0:0:
64,192,196771,128,0,197101:0:0:0:0:
320,192,197101,128,0,197430:0:0:0:0:
448,192,197101,128,0,197430:0:0:0:0:
64,192,197430,128,0,198089:0:0:0:0:
192,192,197430,128,0,198089:0:0:0:0:
448,192,198171,1,0,0:0:0:0:
192,192,198419,128,0,199077:0:0:0:0:
320,192,199077,128,0,199572:0:0:0:0:
448,192,199077,128,0,199572:0:0:0:0:
64,192,199572,128,0,199901:0:0:0:0:
192,192,199901,1,0,0:0:0:0:
320,192,200066,128,0,200395:0:0:0:0:
64,192,200395,128,0,201137:0:0:0:0:
320,192,201137,128,0,201713:0:0:0:0:
448,192,201137,128,0,201713:0:0:0:0:
64,192,201713,128,0,202372:0:0:0:0:
192,192,201713,128,0,202372:0:0:0:0:
448,192,202372,128,0,203031:0:0:0:0:
64,192,203031,128,0,203361:0:0:0:0:
320,192,203361,1,0,0:0:0:0:
192,192,203690,1,0,0:0:0:0:
192,192,204020,128,0,205420:0:0:0:0:
448,192,204020,128,0,205420:0:0:0:0:
320,192,205585,1,0,0:0:0:0:
64,192,205667,128,0,205997:0:0:0:0:
192,192,205997,128,0,206409:0:0:0:0:
320,192,206409,1,0,0:0:0:0:
64,192,206738,1,0,0:0:0:0:
448,192,207068,128,0,207562:0:0:0:0:
192,192,207644,128,0,208303:0:0:0:0:
320,192,208303,128,0,208633:0:0:0:0:
64,192,208715,1,0,0:0:0:0:
448,192,209045,1,0,0:0:0:0:
192,192,209374,128,0,210692:0:0:0:0:
448,192,210939,1,0,0:0:0:0:
320,192,211021,1,0,0:0:0:0:
64,192,211598,128,0,211928:0:0:0:0:
192,192,212010,1,0,0:0:0:0:
320,192,212339,1,0,0:0:0:0:
448,192,212751,1,0,0:0:0:0:
64,192,212998,128,0,213410:0:0:0:0:
448,192,213493,1,0,0:0:0:0:
320,192,213657,1,0,0:0:0:0:
192,192,214152,128,0,214646:0:0:0:0:
320,192,214646,128,0,214975:0:0:0:0:
64,192,214975,128,0,215305:0:0:0:0:
448,192,215387,128,0,215717:0:0:0:0:
192,192,215717,128,0,216046:0:0:0:0:
64,192,216129,1,0,0:0:0:0:
192,192,216211,1,0,0:0:0:0:
320,192,216376,1,0,0:0:0:0:
448,192,216870,128,0,217364:0:0:0:0:
192,192,217364,1,0,0:0:0:0:
448,192,217694,128,0,218023:0:0:0:0:
64,192,218023,1,0,0:0:0:0:
320,192,218353,1,0,0:0:0:0:
192,192,218682,128,0,219341:0:0:0:0:
448,192,219341,1,0,0:0:0:0:
64,192,219671,128,0,220165:0:0:0:0:
320,192,220330,1,0,0:0:0:0:
192,192,220659,128,0,220989:0:0:0:0:
448,192,220989,128,0,221318:0:0:0:0:
64,192,221318,128,0,221648:0:0:0:0:
320,192,221648,128,0,222306:0:0:0:0:
192,192,222306,1,0,0:0:0:0:
448,192,222636,128,0,224695:0:0:0:0:
448,192,225025,1,0,0:0:0:0:
192,192,225354,1,0,0:0:0:0:
64,192,225684,128,0,226919:0:0:0:0:
192,192,225684,128,0,226919:0:0:0:0:
448,192,227661,1,0,0:0:0:0:
64,192,227990,1,0,0:0:0:0:
320,192,228320,128,0,229308:0:0:0:0:
448,192,228320,128,0,229308:0:0:0:0:
192,192,230297,1,0,0:0:0:0:
448,192,230626,1,0,0:0:0:0:
64,192,230873,128,0,231944:0:0:0:0:
192,192,230873,128,0,231944:0:0:0:0:
448,192,232026,1,0,0:0:0:0:
64,192,233015,1,0,0:0:0:0:
448,192,233674,1,0,0:0:0:0:
448,192,235651,1,0,0:0:0:0:
64,192,235980,1,0,0:0:0:0:
320,192,236227,128,0,237216:0:0:0:0:
448,192,236227,128,0,237216:0:0:0:0:
320,192,238946,128,0,239852:0:0:0:0:
64,192,238946,128,0,239852:0:0:0:0:
448,192,240923,1,0,0:0:0:0:
64,192,241582,128,0,242488:0:0:0:0:
192,192,241582,128,0,242488:0:0:0:0:
448,192,242982,1,0,0:0:0:0:
64,192,243641,1,0,0:0:0:0:
448,192,243888,1,0,0:0:0:0:
192,192,244218,128,0,245124:0:0:0:0:
320,192,244218,128,0,245124:0:0:0:0:
448,192,244547,1,0,0:0:0:0:
64,192,244877,1,0,0:0:0:0:
448,192,245206,1,0,0:0:0:0:
64,192,245535,1,0,0:0:0:0:
448,192,245865,1,0,0:0:0:0:
64,192,246194,1,0,0:0:0:0:
448,192,246194,1,0,0:0:0:0:
448,192,246524,1,0,0:0:0:0:
64,192,246524,1,0,0:0:0:0:
64,192,246853,1,0,0:0:0:0:
192,192,246853,128,0,247760:0:0:0:0:
320,192,246853,128,0,247760:0:0:0:0:
448,192,247183,1,0,0:0:0:0:
64,192,247512,1,0,0:0:0:0:
448,192,247842,1,0,0:0:0:0:
64,192,248254,1,0,0:0:0:0:
448,192,248501,1,0,0:0:0:0:
64,192,248830,1,0,0:0:0:0:
320,192,248830,1,0,0:0:0:0:
320,192,248995,1,0,0:0:0:0:
448,192,249160,1,0,0:0:0:0:
192,192,249325,1,0,0:0:0:0:
64,192,249489,1,0,0:0:0:0:
192,192,249489,128,0,250395:0:0:0:0:
320,192,249489,128,0,250395:0:0:0:0:
448,192,249819,1,0,0:0:0:0:
64,192,250148,1,0,0:0:0:0:
448,192,250478,1,0,0:0:0:0:
64,192,250807,1,0,0:0:0:0:
448,192,251219,1,0,0:0:0:0:
64,192,251549,1,0,0:0:0:0:
448,192,251878,1,0,0:0:0:0:
320,192,252043,1,0,0:0:0:0:
64,192,252125,1,0,0:0:0:0:
192,192,252208,128,0,252867:0:0:0:0:
448,192,252455,1,0,0:0:0:0:
64,192,252784,1,0,0:0:0:0:
448,192,253114,1,0,0:0:0:0:
64,192,253443,1,0,0:0:0:0:
320,192,253443,128,0,254596:0:0:0:0:
448,192,253773,1,0,0:0:0:0:
64,192,254102,1,0,0:0:0:0:
448,192,254432,1,0,0:0:0:0:
192,192,254761,128,0,255997:0:0:0:0:
64,192,254844,1,0,0:0:0:0:
448,192,255091,1,0,0:0:0:0:
64,192,255420,1,0,0:0:0:0:
448,192,255750,1,0,0:0:0:0:
64,192,256079,1,0,0:0:0:0:
320,192,256079,128,0,257397:0:0:0:0:
448,192,256409,1,0,0:0:0:0:
64,192,256820,1,0,0:0:0:0:
448,192,257068,1,0,0:0:0:0:
64,192,257397,1,0,0:0:0:0:
192,192,257397,128,0,258715:0:0:0:0:
448,192,257727,1,0,0:0:0:0:
64,192,258056,1,0,0:0:0:0:
448,192,258386,1,0,0:0:0:0:
64,192,258715,1,0,0:0:0:0:
320,192,258797,128,0,260033:0:0:0:0:
448,192,259045,1,0,0:0:0:0:
64,192,259456,1,0,0:0:0:0:
448,192,259786,1,0,0:0:0:0:
64,192,260115,1,0,0:0:0:0:
192,192,260115,128,0,261351:0:0:0:0:
448,192,260445,1,0,0:0:0:0:
64,192,260774,1,0,0:0:0:0:
448,192,261104,1,0,0:0:0:0:
320,192,261351,128,0,262669:0:0:0:0:
64,192,261433,1,0,0:0:0:0:
448,192,261763,1,0,0:0:0:0:
64,192,262092,1,0,0:0:0:0:
448,192,262422,1,0,0:0:0:0:
192,192,262669,128,0,263987:0:0:0:0:
64,192,262751,1,0,0:0:0:0:
448,192,263081,1,0,0:0:0:0:
64,192,263410,1,0,0:0:0:0:
448,192,263740,1,0,0:0:0:0:
64,192,264069,1,0,0:0:0:0:
320,192,264069,128,0,265305:0:0:0:0:
448,192,264399,1,0,0:0:0:0:
64,192,264728,1,0,0:0:0:0:
448,192,265058,1,0,0:0:0:0:
192,192,265305,128,0,266540:0:0:0:0:
64,192,265387,1,0,0:0:0:0:
448,192,265717,1,0,0:0:0:0:
64,192,266046,1,0,0:0:0:0:
448,192,266376,1,0,0:0:0:0:
320,192,266623,128,0,267941:0:0:0:0:
64,192,266705,1,0,0:0:0:0:
448,192,267117,1,0,0:0:0:0:
64,192,267364,1,0,0:0:0:0:
448,192,267694,1,0,0:0:0:0:
64,192,268023,1,0,0:0:0:0:
192,192,268023,128,0,269176:0:0:0:0:
448,192,268353,1,0,0:0:0:0:
64,192,268764,1,0,0:0:0:0:
448,192,269012,1,0,0:0:0:0:
320,192,269259,128,0,270659:0:0:0:0:
64,192,269341,1,0,0:0:0:0:
448,192,269671,1,0,0:0:0:0:
64,192,270082,1,0,0:0:0:0:
448,192,270412,1,0,0:0:0:0:
64,192,270741,1,0,0:0:0:0:
192,192,270989,1,0,0:0:0:0:
448,192,271071,1,0,0:0:0:0:
320,192,271318,1,0,0:0:0:0:
64,192,271400,1,0,0:0:0:0:
448,192,271730,1,0,0:0:0:0:
64,192,271730,1,0,0:0:0:0:
64,192,272059,1,0,0:0:0:0:
320,192,272059,1,0,0:0:0:0:
448,192,272389,1,0,0:0:0:0:
192,192,272389,1,0,0:0:0:0:
64,192,272718,1,0,0:0:0:0:
320,192,272718,1,0,0:0:0:0:
448,192,273048,1,0,0:0:0:0:
64,192,273048,1,0,0:0:0:0:
64,192,273377,1,0,0:0:0:0:
448,192,273377,1,0,0:0:0:0:
448,192,273707,1,0,0:0:0:0:
192,192,273707,1,0,0:0:0:0:
64,192,274036,1,0,0:0:0:0:
320,192,274036,1,0,0:0:0:0:
448,192,274366,1,0,0:0:0:0:
64,192,274366,1,0,0:0:0:0:
64,192,274695,1,0,0:0:0:0:
448,192,274695,1,0,0:0:0:0:
448,192,275025,1,0,0:0:0:0:
192,192,275025,1,0,0:0:0:0:
64,192,275354,1,0,0:0:0:0:
320,192,275354,1,0,0:0:0:0:
448,192,275684,1,0,0:0:0:0:
64,192,275684,1,0,0:0:0:0:
448,192,276013,1,0,0:0:0:0:
64,192,276096,1,0,0:0:0:0:
448,192,276343,1,0,0:0:0:0:
192,192,276343,1,0,0:0:0:0:
64,192,276672,1,0,0:0:0:0:
320,192,276672,1,0,0:0:0:0:
64,192,277002,1,0,0:0:0:0:
448,192,277084,1,0,0:0:0:0:
448,192,277331,1,0,0:0:0:0:
64,192,277414,1,0,0:0:0:0:
448,192,277661,1,0,0:0:0:0:
192,192,277661,1,0,0:0:0:0:
64,192,278073,1,0,0:0:0:0:
320,192,278073,1,0,0:0:0:0:
448,192,278320,1,0,0:0:0:0:
64,192,278320,1,0,0:0:0:0:
64,192,278649,1,0,0:0:0:0:
448,192,278732,128,0,281203:0:0:0:0:
64,192,278732,128,0,281203:0:0:0:0:
192,192,278732,128,0,281203:0:0:0:0:
448,192,281285,128,0,283921:0:0:0:0:
192,192,283921,128,0,284745:0:0:0:0:
448,192,284250,1,0,0:0:0:0:
64,192,284662,1,0,0:0:0:0:
320,192,284992,1,0,0:0:0:0:
192,192,285321,1,0,0:0:0:0:
448,192,285568,1,0,0:0:0:0:
64,192,285733,1,0,0:0:0:0:
320,192,285898,1,0,0:0:0:0:
192,192,286145,1,0,0:0:0:0:
448,192,286310,1,0,0:0:0:0:
64,192,286475,1,0,0:0:0:0:
320,192,286639,1,0,0:0:0:0:
192,192,286886,1,0,0:0:0:0:
448,192,287134,1,0,0:0:0:0:
64,192,287381,1,0,0:0:0:0:
192,192,287545,1,0,0:0:0:0:
320,192,287710,1,0,0:0:0:0:
448,192,287957,1,0,0:0:0:0:
64,192,288287,1,0,0:0:0:0:
448,192,288451,1,0,0:0:0:0:
192,192,288699,1,0,0:0:0:0:
320,192,288863,1,0,0:0:0:0:
64,192,289028,1,0,0:0:0:0:
448,192,289275,128,0,289605:0:0:0:0:
192,192,289605,1,0,0:0:0:0:
320,192,289852,128,0,290264:0:0:0:0:
64,192,290264,1,0,0:0:0:0:
448,192,290346,1,0,0:0:0:0:
192,192,290511,1,0,0:0:0:0:
320,192,290676,1,0,0:0:0:0:
64,192,290840,1,0,0:0:0:0:
448,192,290923,128,0,291252:0:0:0:0:
192,192,291252,1,0,0:0:0:0:
320,192,291582,1,0,0:0:0:0:
64,192,291911,1,0,0:0:0:0:
448,192,292241,1,0,0:0:0:0:
192,192,292570,128,0,293147:0:0:0:0:
448,192,293229,128,0,293723:0:0:0:0:
64,192,293723,128,0,294218:0:0:0:0:
320,192,294218,128,0,294547:0:0:0:0:
192,192,294547,128,0,294877:0:0:0:0:
448,192,294877,128,0,295206:0:0:0:0:
64,192,295206,1,0,0:0:0:0:
320,192,295535,128,0,296112:0:0:0:0:
192,192,296194,128,0,296524:0:0:0:0:
448,192,296524,128,0,297101:0:0:0:0:
64,192,297183,128,0,297512:0:0:0:0:
320,192,297595,1,0,0:0:0:0:
192,192,297924,1,0,0:0:0:0:
448,192,298254,1,0,0:0:0:0:
64,192,298583,128,0,299160:0:0:0:0:
320,192,299242,128,0,299736:0:0:0:0:
192,192,299819,128,0,300148:0:0:0:0:
448,192,300231,128,0,300560:0:0:0:0:
64,192,300560,128,0,300890:0:0:0:0:
320,192,300890,128,0,301219:0:0:0:0:
448,192,300890,128,0,301219:0:0:0:0:
192,192,301219,128,0,301549:0:0:0:0:
448,192,301549,1,0,0:0:0:0:
64,192,301878,1,0,0:0:0:0:
320,192,302125,128,0,303443:0:0:0:0:
64,192,302125,128,0,303526:0:0:0:0:
448,192,303690,1,0,0:0:0:0:
192,192,303855,1,0,0:0:0:0:
320,192,304185,1,0,0:0:0:0:
64,192,304514,1,0,0:0:0:0:
320,192,304761,128,0,305503:0:0:0:0:
448,192,304761,128,0,305503:0:0:0:0:
192,192,305750,1,0,0:0:0:0:
448,192,305914,128,0,306326:0:0:0:0:
64,192,306491,128,0,306820:0:0:0:0:
320,192,306820,1,0,0:0:0:0:
192,192,307150,1,0,0:0:0:0:
64,192,307479,128,0,308797:0:0:0:0:
320,192,307479,128,0,308797:0:0:0:0:
448,192,309045,1,0,0:0:0:0:
192,192,309209,128,0,309704:0:0:0:0:
448,192,309704,128,0,310115:0:0:0:0:
64,192,310115,128,0,310445:0:0:0:0:
320,192,310445,128,0,310774:0:0:0:0:
192,192,310774,1,0,0:0:0:0:
448,192,311104,128,0,311680:0:0:0:0:
64,192,311763,128,0,312339:0:0:0:0:
448,192,312339,128,0,312834:0:0:0:0:
192,192,312834,1,0,0:0:0:0:
320,192,313163,1,0,0:0:0:0:
64,192,313493,1,0,0:0:0:0:
448,192,313822,128,0,314399:0:0:0:0:
192,192,314481,128,0,314893:0:0:0:0:
320,192,314975,128,0,315470:0:0:0:0:
64,192,315470,128,0,315799:0:0:0:0:
448,192,315799,128,0,316129:0:0:0:0:
192,192,316129,1,0,0:0:0:0:
320,192,316458,128,0,316788:0:0:0:0:
64,192,316870,1,0,0:0:0:0:
192,192,316952,1,0,0:0:0:0:
320,192,317282,1,0,0:0:0:0:
64,192,317447,1,0,0:0:0:0:
448,192,317776,128,0,318270:0:0:0:0:
192,192,318435,1,0,0:0:0:0:
320,192,318764,1,0,0:0:0:0:
64,192,318929,1,0,0:0:0:0:
448,192,319259,1,0,0:0:0:0:
192,192,319423,1,0,0:0:0:0:
320,192,319671,1,0,0:0:0:0:
64,192,320000,1,0,0:0:0:0:
448,192,320082,1,0,0:0:0:0:
320,192,320412,128,0,320741:0:0:0:0:
192,192,320741,128,0,321071:0:0:0:0:
448,192,321071,128,0,321730:0:0:0:0:
64,192,321730,128,0,322059:0:0:0:0:
320,192,322142,1,0,0:0:0:0:
192,192,322389,1,0,0:0:0:0:
448,192,322718,1,0,0:0:0:0:
64,192,322965,1,0,0:0:0:0:
320,192,323130,1,0,0:0:0:0:
192,192,323213,1,0,0:0:0:0:
448,192,323377,1,0,0:0:0:0:
64,192,323542,1,0,0:0:0:0:
320,192,323707,1,0,0:0:0:0:
64,192,323872,1,0,0:0:0:0:
192,192,324036,1,0,0:0:0:0:
320,192,324201,1,0,0:0:0:0:
64,192,324366,1,0,0:0:0:0:
448,192,324448,1,0,0:0:0:0:
64,192,324613,1,0,0:0:0:0:
448,192,324778,1,0,0:0:0:0:
64,192,324860,1,0,0:0:0:0:
320,192,325025,1,0,0:0:0:0:
192,192,325190,1,0,0:0:0:0:
448,192,325437,1,0,0:0:0:0:
64,192,325519,1,0,0:0:0:0:
448,192,325766,1,0,0:0:0:0:
64,192,325848,1,0,0:0:0:0:
448,192,326096,1,0,0:0:0:0:
64,192,326178,1,0,0:0:0:0:
448,192,326425,1,0,0:0:0:0:
64,192,326590,1,0,0:0:0:0:
320,192,326755,1,0,0:0:0:0:
64,192,326837,1,0,0:0:0:0:
192,192,327002,1,0,0:0:0:0:
320,192,327084,1,0,0:0:0:0:
64,192,327249,1,0,0:0:0:0:
448,192,327414,1,0,0:0:0:0:
64,192,327578,1,0,0:0:0:0:
448,192,327743,1,0,0:0:0:0:
192,192,327908,1,0,0:0:0:0:
448,192,328073,1,0,0:0:0:0:
64,192,328237,1,0,0:0:0:0:
320,192,328402,1,0,0:0:0:0:
192,192,328567,1,0,0:0:0:0:
320,192,328814,1,0,0:0:0:0:
64,192,328814,1,0,0:0:0:0:
64,192,329061,1,0,0:0:0:0:
448,192,329391,1,0,0:0:0:0:
192,192,329555,1,0,0:0:0:0:
320,192,329720,1,0,0:0:0:0:
64,192,329802,1,0,0:0:0:0:
448,192,330049,1,0,0:0:0:0:
192,192,330214,1,0,0:0:0:0:
320,192,330379,1,0,0:0:0:0:
64,192,330544,1,0,0:0:0:0:
448,192,330708,1,0,0:0:0:0:
192,192,330873,1,0,0:0:0:0:
320,192,331038,1,0,0:0:0:0:
64,192,331203,1,0,0:0:0:0:
448,192,331367,1,0,0:0:0:0:
320,192,331450,1,0,0:0:0:0:
64,192,331615,1,0,0:0:0:0:
192,192,331697,1,0,0:0:0:0:
320,192,332026,1,0,0:0:0:0:
64,192,332191,1,0,0:0:0:0:
448,192,332356,1,0,0:0:0:0:
192,192,332521,1,0,0:0:0:0:
448,192,332685,1,0,0:0:0:0:
320,192,332768,1,0,0:0:0:0:
64,192,332933,1,0,0:0:0:0:
192,192,333015,1,0,0:0:0:0:
320,192,333015,1,0,0:0:0:0:
448,192,333180,1,0,0:0:0:0:
64,192,333262,1,0,0:0:0:0:
320,192,333344,1,0,0:0:0:0:
64,192,333509,1,0,0:0:0:0:
192,192,333591,1,0,0:0:0:0:
448,192,333756,1,0,0:0:0:0:
320,192,333839,1,0,0:0:0:0:
64,192,333921,1,0,0:0:0:0:
192,192,334086,1,0,0:0:0:0:
448,192,334333,1,0,0:0:0:0:
64,192,334745,1,0,0:0:0:0:
320,192,335074,1,0,0:0:0:0:
192,192,335404,1,0,0:0:0:0:
